#TITLE:Gypsy Rhapsody;
#SUBTITLE:;
#ARTIST:Bond;
#GENRE:Orchestral;
#TITLETRANSLIT:;
#SUBTITLETRANSLIT:;
#ARTISTTRANSLIT:;
#CREDIT:;
#BANNER:gypsy.jpg;
#BACKGROUND:gypsy-bg.jpg;
#LYRICSPATH:;
#CDTITLE:;
#MUSIC:gypsy.ogg;
#OFFSET:0.000;
#SAMPLESTART:5.399;
#SAMPLELENGTH:11.000;
#SELECTABLE:YES;
#BPMS:0.000=88.900;
#STOPS:;
#BGCHANGES:;

//---------------dance-single - Renard----------------
#NOTES:
     dance-single:
     Renard:
     Challenge:
     10:
     0.793,0.693,0.276,0.057,1.000:
0000
0000
0000
0000
,
0000
0000
0000
0000
0000
0000
0000
0000
0000
0000
0000
0000
0000
1000
0001
0100
,
0001
0100
0000
0000
0000
0000
0010
0000
0000
1000
0000
0000
0100
1000
0000
0000
0000
0000
0100
0000
0000
1000
0000
0000
0010
0100
0000
0000
0000
0000
0001
0000
0000
0100
0000
0000
0010
1000
0000
0000
0000
0000
0010
0000
0000
0100
0000
0000
,
0001
0100
0010
1000
0100
0010
0001
0010
0100
1000
0000
1001
0000
0001
0100
0010
,
1000
0010
0000
0000
0000
0000
0100
0000
0000
0001
0000
0000
0010
0100
0000
0000
0000
0000
1000
0000
0000
0010
0000
0000
0100
0001
0000
0000
0000
0000
0100
0000
0000
0010
0000
0000
1000
0100
0000
0000
0000
0000
0010
0000
0000
0001
0000
0000
,
0010
0100
1000
0010
0100
0001
1000
0010
0100
0001
0000
1001
0000
1000
0001
0100
,
0001
0100
0000
0000
0000
0000
0010
0000
0000
1000
0000
0000
0100
1000
0000
0000
0000
0000
0100
0000
0000
1000
0000
0000
0010
0100
0000
0000
0000
0000
0001
0000
0000
0100
0000
0000
0010
1000
0000
0000
0000
0000
0010
0000
0000
0100
0000
0000
,
0001
0100
0010
1000
0100
0010
0001
0010
0100
1000
0000
1001
0000
0001
0100
0010
,
1000
0010
0000
0000
0000
0000
0100
0000
0000
0001
0000
0000
0010
0100
0000
0000
0000
0000
1000
0000
0000
0010
0000
0000
0100
0001
0000
0000
0000
0000
0100
0000
0000
0010
0000
0000
1000
0100
0000
0000
0000
0000
0010
0000
0000
0001
0000
0000
,
0010
0100
1000
0010
0100
0001
1000
0010
0100
0001
0000
1001
0000
1000
0001
0100
,
0001
0000
0001
0000
1000
0000
0100
0000
1000
0010
1000
0000
0100
0000
1000
0000
0010
0000
0100
0000
0001
0000
0010
0000
0001
0100
0001
0000
0010
0000
0001
0000
,
1000
0000
0100
0000
1000
0000
0010
0100
0001
0000
0100
0000
0010
0000
1000
0000
0100
0000
0010
0000
0001
0000
0010
0100
1000
0000
0010
0000
0100
0000
0010
0000
,
0100
0000
0001
0000
0100
0000
1000
0000
0100
0000
0001
0100
0001
0000
0000
0000
0100
0000
1000
0000
0100
0000
0001
0000
0100
0000
1000
0100
1000
0000
0000
0000
,
0010
1000
0100
0010
0001
0100
0010
1000
0100
0000
2002
0000
0010
0000
3003
0000
,
1000
0000
1000
0000
0001
0000
0010
0000
0001
0100
0001
0000
0010
0000
0001
0000
0100
0000
0010
0000
1000
0000
0100
0000
1000
0010
1000
0000
0100
0000
1000
0000
,
0001
0000
0010
0000
0001
0000
0100
0010
1000
0000
0010
0000
0100
0000
0001
0000
0010
0000
0100
0000
1000
0000
0100
0010
0001
0000
0100
0000
0010
0000
0100
0000
,
0010
0000
1000
0000
0010
0000
0001
0000
0010
0000
1000
0010
1000
0000
0000
0000
0010
0000
0001
0000
0010
0000
1000
0000
0010
0000
0001
0010
0001
0000
0000
0000
,
0100
0001
0010
0100
1000
0010
0100
0001
0010
0100
0001
0100
1000
0100
0001
0100
,
1000
0010
1000
0010
0100
0001
1000
0000
0220
0000
0000
0000
0330
0000
0000
0000
,
1000
0010
1000
0000
0000
0000
0001
0100
0001
0000
0000
0000
1000
0010
1000
0000
0000
0000
0001
0100
0001
0000
0000
0000
1000
0000
0001
0000
0100
0000
0010
0000
,
1000
0010
1000
0000
0000
0000
0100
0010
0100
0000
0000
0000
0010
0001
0010
0000
0000
0000
0001
1000
0001
0000
0000
0000
0001
0000
0100
0000
0010
0000
0000
0000
,
1001
0100
0010
1001
0010
0100
1001
0100
0010
1001
0010
0100
1001
0100
1001
0000
,
0110
1000
0001
0110
0001
1000
0110
1000
0001
0110
1000
0001
0110
0001
0110
1000
,
0001
0100
0010
1000
0100
0010
0001
0010
0100
2000
0000
0011
0011
0000
3000
0000
,
0001
0100
0010
0100
0001
0100
0010
0100
0001
1000
0100
0010
0100
0000
1000
0000
,
0100
0010
0100
1000
0100
0001
0100
1000
0100
0010
0100
1000
0010
0100
0001
0000
,
1000
0010
0100
0010
1000
0010
0100
0010
1000
0010
0100
0010
1000
0000
0010
0000
,
0100
0001
0010
1000
0010
0001
0100
1000
0100
0001
0010
0001
0100
0000
0010
0000
,
1000
0000
0100
0000
1000
0000
0010
0000
0100
0001
0100
0000
0010
0000
0000
0000
1000
0000
0100
0000
0010
0000
0001
0000
0010
0100
1000
0000
0010
0000
0000
0000
,
0100
0000
0001
0000
0100
0000
0010
0000
1000
0010
0100
0000
0001
0000
0000
0000
0010
0000
0100
0000
1000
0000
0010
0000
0100
0001
0100
0001
0100
0000
0000
0000
,
0010
0000
1000
0000
0100
0000
1000
0000
0010
0100
0010
0000
0100
0000
0000
0000
0001
0000
0100
0000
0010
0000
1000
0000
0100
0010
0001
0000
0010
0000
0000
0000
,
0100
0000
1000
0000
0010
0000
0100
0001
0100
0000
0010
0000
1000
0000
0000
0000
0110
0000
1001
0000
0000
0000
1001
0000
0110
0000
0000
0000
0000
0000
0000
0000
;

//---------------dance-single - Renard----------------
#NOTES:
     dance-single:
     Renard:
     Hard:
     8:
     0.564,0.529,0.000,0.011,0.775:
0000
0000
0000
0000
,
0000
0000
0000
0000
,
1000
0000
0001
0100
0001
0000
1000
0000
0100
0000
1000
0001
1000
0000
0001
0000
,
0100
0000
0001
0010
0100
1000
0000
0000
0001
1000
0000
0001
0000
0000
0000
0000
,
1000
0000
0100
1000
0100
0000
0100
0000
0001
0000
0100
0001
0100
0000
0100
0000
,
1000
0000
0010
0100
0001
0000
1000
0000
0100
1000
0000
0001
0100
0000
0001
0000
,
1000
0000
0100
1000
0100
0000
0000
0000
0001
0000
0010
0001
0010
0000
0000
0000
,
0100
0000
1000
0001
0010
0100
1000
0000
0001
0000
0000
0100
0001
0000
0000
0000
,
1000
0000
0100
1000
0001
0000
0000
0000
0100
0000
0001
1000
0100
0000
0000
0000
,
1000
0000
0001
0000
0100
0000
0000
0001
1000
0001
0000
1000
0001
0000
0100
0000
,
0001
1000
0100
0000
1000
0000
0010
0000
0100
0001
1000
0000
0100
0000
1000
0001
,
0010
0001
1000
0000
0010
0000
0100
0001
1000
0100
0010
0000
0001
0000
0000
0100
,
1000
0001
0100
0001
0100
0000
0000
0001
0100
0001
0100
0001
0100
0000
0000
0001
,
1000
0100
1000
0010
0100
0001
1000
0100
1000
0010
0000
0100
0001
0000
1000
0000
,
0100
1000
0001
0100
0001
0000
0010
0000
0001
0100
0001
1000
0100
0000
1000
0000
,
0001
0010
0001
1000
0010
0000
0100
0000
0001
0100
0000
0100
0001
0000
1000
0000
,
0100
1000
0001
1000
0100
0000
1000
0000
0010
0100
0001
0100
0010
0000
0100
0000
,
0001
0000
0001
1000
0100
0000
0100
0010
0001
0000
0001
0010
0100
0000
0100
1000
,
0010
0100
0001
1000
0100
0010
0001
1000
0002
0000
0000
0000
0000
0000
0000
0000
,
1003
0001
0000
0001
0100
0000
0100
0001
0000
1000
0100
0010
0001
0010
0100
1000
,
0010
0100
0000
0100
0001
0000
0001
0100
0000
0100
0010
1000
0100
0010
0001
0010
,
0100
1000
0010
0100
0001
0010
0100
1000
0010
0100
0001
0010
0100
1000
0010
0000
,
0010
1000
0010
0100
0001
0010
0100
1000
0010
0100
0001
0010
0100
1000
0010
0100
,
0001
1000
0100
0010
0001
0010
0100
1000
0001
1000
0000
1000
0001
0000
0000
0000
,
1000
0001
0100
0000
0001
1000
0100
0000
1000
0001
0100
0000
0001
1000
0100
0000
,
0010
0001
0010
0100
1000
0000
0010
0000
0100
0001
0000
0001
0100
0000
0001
0000
,
1000
0100
1000
0000
0001
0010
0001
0000
1000
0010
1000
0000
0001
0100
0001
0000
,
1000
0100
1000
1000
0001
0100
0001
0001
1000
0100
0000
0100
1000
0000
0001
0000
,
0100
0001
1000
0100
0010
0001
0010
0100
1000
0000
0010
0100
0001
0000
0001
0100
,
0010
1000
0100
1000
0001
1000
0100
1000
0001
1000
0000
1000
0001
0000
0100
0000
,
0001
0010
0001
0000
0001
0100
0001
0000
0001
1000
0001
0000
0001
0010
0001
0000
,
0001
0010
0100
1000
0001
0100
0010
1000
0001
1000
0000
0001
1000
0000
0000
0000
;

//---------------dance-single - Renard----------------
#NOTES:
     dance-single:
     Renard:
     Medium:
     7:
     0.407,0.419,0.023,0.023,0.293:
0000
0000
0000
0000
,
0000
0000
0000
0000
0000
0000
0000
0000
0000
0000
0000
0000
0000
0000
1000
0001
,
1000
0000
0001
0000
0100
0000
0001
0000
1000
0000
0100
0000
0010
0000
0001
1000
,
0001
0000
0100
0000
0001
0000
1000
0000
0100
0000
0000
0000
0100
0000
1000
0001
,
1000
0001
0100
0001
1000
0100
0010
0001
,
1000
1000
0001
0100
0001
1000
1001
0000
,
1000
0000
0001
0100
0001
0000
1000
0000
0100
0000
0100
0000
1000
0000
0000
0000
,
0001
0000
1000
0100
1000
0000
0001
0000
0100
0000
0001
0000
0001
0000
1000
0000
,
0010
0000
0000
0010
0100
0000
0000
0100
0001
0000
0000
0001
1000
0000
0100
0000
,
0010
0000
0001
0000
0010
0000
0100
0000
1000
0001
0000
0001
1000
0000
0001
0100
,
0001
0000
0000
0000
0000
0000
1000
0100
1000
0000
0000
0000
0000
0000
0001
0010
,
0001
0000
0000
0000
0000
0000
1000
0010
1000
0000
0010
0000
0100
0000
0000
0000
,
0001
0100
0001
0000
1000
0000
0100
0000
1000
0010
1000
0000
0010
0000
0100
0000
,
0001
1000
0001
1000
0001
1000
0001
1000
0001
1000
0000
1000
0001
0000
0000
0000
,
1000
0010
0100
0000
0001
0100
0010
0000
,
1000
0100
0010
0000
0002
0000
0000
0000
,
1003
0001
0100
0000
0001
1000
0010
0000
,
0100
0001
0100
0001
0100
0001
0100
0001
0100
0001
0100
0001
0100
0001
0100
0001
,
0100
0001
0100
0001
0100
0001
0100
0001
0100
0000
0000
0000
0000
0000
0000
0000
,
0001
0100
0000
0000
0001
0100
0000
0000
0001
0100
0000
0000
0001
0100
0000
0000
,
0001
0100
0000
0000
0001
0100
0000
0000
0001
0100
0000
0000
0001
0100
0000
0000
,
0001
0000
1000
0000
0100
0000
0010
0000
0001
0000
0010
0000
0100
1000
0100
0000
,
1000
0000
0010
0000
0100
0000
0001
0000
1000
0000
0100
0000
0010
0001
0010
0000
,
0100
0000
1000
0000
0001
0000
1000
0000
0001
1000
0000
0000
1001
0000
0000
0000
,
1000
0010
0100
0000
0001
0100
0010
0000
,
2000
0100
0010
3001
,
1000
0001
0100
0001
0010
0001
0100
0010
,
1000
0000
0001
0000
0100
0000
0001
0000
1000
0100
0000
1000
0001
0000
0000
0000
,
0100
0001
1000
0100
0010
0001
0010
0100
,
1000
0000
0001
0000
0100
0000
0001
0000
1000
0001
0000
0001
1000
0000
0001
0000
,
0100
0001
1000
0100
0010
0001
0010
0100
,
1000
0000
0001
0000
0100
0000
0001
0000
1000
0001
0000
0001
1000
0000
0000
0000
;

//---------------dance-single - Renard----------------
#NOTES:
     dance-single:
     Renard:
     Easy:
     5:
     0.312,0.328,0.011,0.000,0.121: // measure 1
0000
0000
0000
0000
,  // measure 2
0000
0000
0000
0000
0000
0000
0000
1000
,  // measure 3
0001
0100
0001
1000
0100
0010
0001
0010
,  // measure 4
0100
0000
0100
0000
1000
0000
0000
0000
0001
0100
0000
0000
0001
0100
0000
0000
,  // measure 5
0001
1000
0100
0000
0100
1000
0010
0010
,  // measure 6
0100
0000
0001
0000
0010
0000
0000
0000
0001
0100
0000
0000
0001
0100
0000
0000
,  // measure 7
0001
1000
0100
0100
1000
0010
0100
0000
,  // measure 8
0001
0100
0001
0001
1000
0000
0001
0000
,  // measure 9
1000
0100
1000
1000
0010
0010
0100
0000
,  // measure 10
0001
0000
1000
0000
0001
0000
0100
0000
0001
1000
0000
0000
0001
1000
0000
0000
,  // measure 11
0001
0001
0000
0000
1000
1000
0000
0000
,  // measure 12
0001
0001
0000
0000
0100
0100
0000
0000
,  // measure 13
0010
0010
0000
0000
0000
0000
0000
0000
1000
1000
0000
0000
0000
0000
0000
0000
,  // measure 14
0001
0001
0000
0000
0100
0000
0000
0000
0010
0000
0000
0000
1000
0000
0000
0000
,  // measure 15
0100
0100
1000
0000
0010
0010
0100
0000
,  // measure 16
0001
0001
0010
0000
0001
0000
0100
0000
,  // measure 17
0001
0001
0000
0000
0100
0000
0000
0000
0001
0001
0000
0000
1000
0000
0000
0000
,  // measure 18
0010
1000
0001
1000
0100
1000
0010
0000
,  // measure 19
0010
0100
0001
0000
1001
0000
0000
0000
,  // measure 20
1000
0100
0000
0000
0100
0000
0000
0000
1000
0000
0000
0000
0010
0000
0000
0000
,  // measure 21
0100
0001
0000
0000
0100
0000
0000
0000
0001
0000
0000
0000
0010
0000
0000
0000
,  // measure 22
0001
1000
0001
1000
,  // measure 23
0001
0100
0001
1000
,  // measure 24
0010
0000
1000
0000
0001
0000
0100
0000
0001
1000
0000
1000
0001
0000
0000
0000
,  // measure 25
0100
0001
1000
0000
0100
0000
1000
0000
,  // measure 26
0001
0100
0001
1000
0100
0010
0001
0000
,  // measure 27
0001
0010
0100
0000
0100
1000
0001
0000
,  // measure 28
0100
0000
0001
0000
1000
0000
0100
0000
0010
0001
0000
0001
0010
0000
0100
0000
,  // measure 29
1000
1000
0001
0001
1000
1000
0100
0100
,  // measure 30
1000
0000
0010
0000
0100
0000
0001
0000
0010
0001
0000
0001
1000
0000
0001
0000
,  // measure 31
0100
0001
0010
0001
1000
0100
1000
0010
,  // measure 32
0100
0000
0001
0000
1000
0000
0001
0000
0100
0001
0000
0001
0100
0000
0000
0000
;
