#TITLE:Godspeed;
#SUBTITLE:;
#ARTIST:BT;
#GENRE:Trance;
#TITLETRANSLIT:;
#SUBTITLETRANSLIT:;
#ARTISTTRANSLIT:;
#CREDIT:;
#BANNER:godspeed.png;
#BACKGROUND:godspeed-bg.png;
#LYRICSPATH:;
#CDTITLE:;
#MUSIC:godspeed.ogg;
#OFFSET:0.000;
#SAMPLESTART:13.241;
#SAMPLELENGTH:12.000;
#SELECTABLE:YES;
#BPMS:0.000=145.000;
#STOPS:;
#BGCHANGES:;

//---------------dance-single - Renard----------------
#NOTES:
     dance-single:
     Renard:
     Challenge:
     10:
     0.783,0.934,1.000,0.246,0.348:
0000
0000
0000
0000
,
0000
0000
0000
0000
,
0000
0000
0000
0000
,
0000
0000
0000
0000
,
0210
0000
0000
0001
0000
0000
1000
0000
,
0000
0000
0000
0000
0010
0010
0001
0000
,
1000
0000
0000
0010
0000
0000
0301
0000
,
1000
0010
0000
0100
0001
1000
0100
1000
,
1010
0100
1000
0010
0100
0001
0011
0101
,
0010
1000
0100
1000
1010
0101
0011
1100
,
1010
0100
1000
0010
0100
0001
0011
1100
,
0010
0100
0001
1000
0110
1001
1010
0101
,
0011
0100
1000
0010
0100
0001
1100
1010
,
0100
0001
0010
0001
0110
1001
1010
0101
,
1100
0001
0100
1000
0100
0001
0011
0101
,
0010
1000
0100
1000
1001
0000
0101
0000
,
2000
0000
0200
0000
0010
0001
3310
0000
,
1000
0010
0100
0001
2000
0000
3001
0000
,
0002
0000
0200
0000
0010
1000
0313
0000
,
0001
0100
0010
1000
0100
1000
0010
0000
,
0200
0000
0020
0000
1000
0001
1330
0000
,
2000
0000
0002
0000
0100
0010
3103
0000
,
2000
0000
0200
0000
0010
0001
3310
0000
,
0002
0200
1010
1313
,
0001
0000
0100
0010
1000
0000
0010
0100
0001
0000
0100
0010
1000
0000
0010
0100
,
0001
0100
0010
1000
0010
0100
0001
0100
,
0010
0000
1000
0100
0010
0000
0001
0010
0100
0000
1000
0100
0010
0000
0001
0010
,
0100
1000
0100
0010
0001
0010
0100
1000
,
0001
0000
0100
0001
1000
0000
0001
1000
0100
0000
1000
0001
0100
0000
0001
1000
,
0100
1000
0001
0100
0001
1000
0100
1000
,
0001
0000
1000
0010
1000
0000
0001
0010
0001
0000
1000
0010
1000
0000
0001
0000
,
1000
0000
0000
0100
0000
0000
0010
0000
0000
0001
0000
0000
0100
0000
0000
0010
0000
0000
1000
0000
0000
0100
0000
0000
0010
0000
0000
0001
0000
0000
0100
0000
0000
0010
0000
0000
1000
0000
0001
0000
1000
0000
0001
0000
1000
0000
0001
0000
,
0100
0000
0010
0000
1000
0100
0010
0002
2000
0000
0000
0000
3113
0000
0000
0000
,
0010
0000
0100
0000
0001
0010
0100
2000
0002
0000
0000
0000
3113
0000
0000
0000
,
1000
0000
0100
0000
0010
0001
0010
0200
0020
0000
0000
0000
1331
0000
0000
0000
,
1000
0000
0001
0000
0100
0010
1000
0020
0200
0000
0000
0000
1331
0000
0000
0000
,
1100
0000
0000
1010
0000
0000
0001
1000
1001
0000
0000
0101
0000
0000
0011
0000
,
1001
0000
0000
1010
0000
0000
1000
0100
1100
0000
0000
1010
0000
0000
1001
0000
,
0101
0000
0000
1010
0000
0000
0010
0100
0110
0000
0000
1010
0000
0000
0101
0000
,
1001
0000
0000
1010
0000
0000
1000
0001
1001
0000
0000
0101
0000
0000
0011
0000
,
0101
0000
0000
0011
0000
0000
1100
0000
1010
0000
0000
0101
0000
0000
0011
0000
,
0110
0000
0000
1100
0000
0000
1010
0000
0110
0000
0000
0101
0000
0000
0011
0000
,
0110
0000
0000
0011
0000
0000
1010
0000
0011
0000
0000
0110
0000
0000
1100
0000
,
1010
0000
0000
0110
0000
0000
0101
0000
0110
0000
0000
1100
0000
0000
0110
0000
,
0101
0101
0000
0001
1010
1010
0000
0100
,
0011
0011
0000
1000
0110
0110
0000
0001
,
1000
0100
1000
0100
0010
0001
0010
0001
1000
0100
1000
0100
0010
0001
0010
0001
,
1000
0100
0010
0001
1000
0100
0010
0001
1000
0100
0010
0001
1000
0000
0001
0000
,
1010
0100
1000
0010
0100
0001
0011
0101
,
0010
1000
0100
1000
1010
0101
0011
1100
,
1010
0100
1000
0010
0100
0001
0011
1100
,
0010
0100
0001
1000
0110
1001
1010
0101
,
0011
0100
1000
0010
0100
0001
1100
1010
,
0100
0001
0010
0001
0110
1001
1010
0101
,
1100
0001
0100
1000
0100
0001
0011
0101
,
0010
0000
0001
0000
1000
0000
0100
0010
0100
0000
1000
0000
0001
0000
0100
0000
,
2002
0000
0000
0000
,
3003
0000
0000
0000
;

//---------------dance-single - Renard----------------
#NOTES:
     dance-single:
     Renard:
     Hard:
     8:
     0.512,0.505,0.041,0.051,0.000:
0000
0000
0000
0000
,
0000
0000
0000
0000
,
0000
0000
0000
0000
,
0000
0000
0000
0000
,
1001
0000
0000
1010
0000
0000
0101
0000
,
0000
0000
0000
0000
1000
0100
0020
0000
,
0031
0000
0000
0010
0000
0000
0100
0000
,
1000
0000
0001
0000
0100
0010
1000
0100
,
0010
0000
0001
0010
0100
1000
0010
0100
,
0000
0001
0100
0010
1000
0100
0010
0001
,
1000
0000
1000
0010
0100
0001
0010
0100
,
0000
0100
1000
0010
0100
0001
1000
0100
,
1000
0000
1000
0010
0100
0001
0010
0001
,
0000
0001
0100
0010
1000
0100
0010
0001
,
0010
0000
0010
0100
1000
0010
0100
0001
,
0000
0001
0100
0010
1000
0010
1000
0010
,
1000
0000
1000
0000
0100
0010
0001
0010
,
0100
1000
0010
0100
0001
0010
0100
1000
,
0010
0000
0010
0000
0100
0001
1000
0100
,
1000
0001
1000
0010
1000
0001
0010
0100
,
1000
0000
1000
0000
0001
0010
0001
0100
,
0010
1000
0001
0010
0001
0100
0001
0000
,
1000
0000
0010
0000
0100
0001
0100
0000
,
0010
1000
0100
0010
0001
0010
0100
1000
,
0010
0000
0010
0100
0000
0100
0001
0000
,
0100
0010
1000
0100
0001
0100
1000
0010
,
0100
0000
0100
0001
0000
0001
0010
0000
,
1000
0010
0001
0010
1000
0010
0001
0010
,
1000
0000
1000
0010
0000
0010
0001
0000
,
0100
0000
0010
0000
1000
0100
0010
0001
,
0010
0000
0010
0100
0000
0100
1000
0000
,
0001
1000
0010
0100
0001
1000
0001
1000
,
0010
0000
0010
0100
0002
0000
0103
0000
,
0010
0000
1000
0200
0010
0000
0310
0000
,
0010
0001
0100
0010
1000
0000
1000
0000
,
0010
0100
0001
0100
0010
0000
0010
0000
,
1000
0000
0100
0000
0010
0001
0010
0001
,
0010
0000
0100
0000
1000
0010
1000
0010
,
0100
0000
0001
0000
1000
0001
1000
0001
,
1000
0010
1000
0001
1000
0100
1000
0000
,
0010
0100
0001
0010
0001
0100
0001
1000
,
0001
0010
0001
0100
0001
0100
0001
0000
,
0001
1000
0100
1000
0010
1000
0001
1000
,
0010
1000
0100
1000
0001
1000
0000
0010
,
1000
0001
0000
0001
0100
0010
0000
0010
,
1000
0100
0000
0100
0010
0001
0010
1000
,
0010
0001
0100
1000
0100
0001
0010
0100
,
1000
0010
0100
0001
0010
0100
1000
0010
,
0100
0000
0100
0010
1000
0100
0010
0001
,
0010
0100
1000
0010
0100
0001
0010
0100
,
1000
0000
1000
0010
0100
0001
0010
0100
,
0000
0100
1000
0010
0100
0001
0010
0100
,
1000
0000
1000
0010
0100
0001
0010
0100
,
1000
0010
0100
0010
0100
0001
0100
0010
,
1000
0000
1000
0100
1000
0001
0010
0001
,
0100
0010
1000
0100
0010
0001
1000
0001
,
2002
0000
0000
0000
,
0000
0000
0000
0000
,
3003
0000
0000
0000
;

//---------------dance-single - Renard----------------
#NOTES:
     dance-single:
     Renard:
     Medium:
     5:
     0.307,0.430,0.000,0.041,0.000:
0000
0000
0000
0000
,
0000
0000
0000
0000
,
0000
0000
0000
0000
,
0000
0000
0000
0000
,
1000
0000
0000
0001
0000
0000
0100
0000
,
0010
0000
1000
0001
,
0100
0000
0000
0001
0000
0000
1000
0000
,
0100
0000
1000
1000
,
0001
0000
0100
0000
0001
0000
1000
0002
,
0000
0000
0100
0103
,
0010
0000
1000
0000
0100
0000
0010
0002
,
0000
0100
0010
0103
,
0010
0000
1000
0000
0100
0000
0010
0002
,
0000
0000
1000
0000
0010
0000
0100
0003
,
0010
0000
1000
0000
0100
0000
1000
0200
,
0000
0000
1000
0000
1000
0300
0000
0000
,
1000
0000
0010
0000
0100
0000
0001
1000
,
0000
0000
0001
0010
,
0100
0000
0000
0000
0000
0000
1000
0001
,
0000
0000
1000
0010
,
0100
0000
0001
0000
0010
0000
0100
1000
,
0000
0000
0010
0100
,
0001
0000
0000
0000
0000
0000
1000
0001
,
0000
0000
1000
0010
,
0100
0100
0001
1000
,
0100
0000
1000
0000
0001
1000
0001
0000
,
1000
0010
0100
0001
,
1000
0100
1000
0001
,
0100
0000
0100
0010
0000
0010
1000
0000
,
0100
0000
0010
0000
0001
0010
0001
0000
,
0010
0100
1000
0010
,
0100
0000
0001
0000
1000
0100
0010
0001
,
1000
0001
1000
0000
,
0010
0100
0001
0000
,
1000
0010
0100
0000
,
0001
0010
0100
0000
,
1000
0000
0000
0001
0100
0000
0000
0010
,
1000
0000
0000
0100
0010
0000
0000
0001
,
0010
0000
0000
0100
1000
0000
0000
0001
,
0100
0000
0000
0010
1000
0000
0000
0100
,
0010
0000
0000
0001
0010
0000
0000
0100
,
1000
0000
0000
1000
0010
0000
0000
0000
,
0100
0000
0000
0100
0001
0000
0000
0001
,
0010
0000
0000
0010
0100
0000
0000
0000
,
1000
0010
0000
0100
0001
0010
0000
0100
,
1000
0010
0000
0100
0001
1000
0000
0100
,
1000
0001
0100
0001
1000
0100
1000
0001
,
0100
0000
0001
0000
1000
0001
0100
0001
,
0010
0000
0001
0000
0100
0000
0010
1000
,
0100
0000
1000
0010
,
0100
0000
0001
0000
0010
0000
0001
0100
,
0010
1000
0100
0000
,
1000
0000
0010
0000
0100
0000
0001
0010
,
0100
1000
0010
0000
,
0100
0000
0001
0000
1000
0000
0100
0010
,
0001
0000
0010
0000
0100
0000
1000
0001
,
0100
0000
0000
0000
;

//---------------dance-single - Renard----------------
#NOTES:
     dance-single:
     Renard:
     Easy:
     3:
     0.218,0.373,0.072,0.041,0.000: // measure 1
0000
0000
0000
0000
,  // measure 2
0000
0000
0000
0000
,  // measure 3
0000
0000
0000
0000
,  // measure 4
0000
0000
0000
0000
,  // measure 5
0001
0000
0000
1000
0000
0000
0200
0000
,  // measure 6
0000
0000
0000
0000
0010
0300
0000
0000
,  // measure 7
0010
0000
0000
0001
0000
0000
0200
0000
,  // measure 8
0000
0000
0310
0000
,  // measure 9
1000
0000
0000
0000
0000
0000
0010
0100
,  // measure 10
0000
0000
0000
0000
,  // measure 11
0001
0000
0000
0000
0000
0000
0010
0100
,  // measure 12
0000
0000
0000
0000
,  // measure 13
1000
0000
0000
0000
0000
0000
0010
0100
,  // measure 14
0000
0000
0000
0000
,  // measure 15
0001
0000
0000
0000
0000
0000
0100
1000
,  // measure 16
0000
0000
0100
0001
,  // measure 17
1000
0000
0000
0000
0000
0000
0001
0010
,  // measure 18
0000
0000
1000
0000
,  // measure 19
0010
0000
0000
0000
0000
0000
0001
0100
,  // measure 20
0000
0000
1000
0000
,  // measure 21
0100
0000
0000
0000
0000
0000
0010
1000
,  // measure 22
0000
0000
0010
0001
,  // measure 23
0010
0000
0000
0000
0100
0000
0001
1000
,  // measure 24
0100
0000
1000
0000
,  // measure 25
0010
0000
0000
0010
0000
0000
0010
0000
,  // measure 26
0100
0000
0100
0000
,  // measure 27
0001
0000
0000
0001
0000
0000
0001
0000
,  // measure 28
1000
0000
2000
3000
,  // measure 29
0010
0000
0000
0010
0000
0000
0010
0000
,  // measure 30
0100
0000
0100
0000
,  // measure 31
0010
0000
0000
1000
0000
0000
0001
0000
,  // measure 32
0100
0010
0200
0300
,  // measure 33
0010
1000
0001
0000
,  // measure 34
0100
0001
1000
0000
,  // measure 35
0100
0010
0001
0000
,  // measure 36
1000
0010
0100
0000
,  // measure 37
0001
0000
0000
1000
0001
0000
0000
0000
,  // measure 38
1000
0010
0100
0000
,  // measure 39
0001
0000
0000
1000
0001
0000
0000
0000
,  // measure 40
1000
0100
0010
0000
,  // measure 41
0001
0000
1000
0000
,  // measure 42
0010
0000
0100
0000
,  // measure 43
0001
0000
1000
0000
,  // measure 44
0100
0000
0010
0000
,  // measure 45
0001
1100
0001
1100
,  // measure 46
0001
1100
0001
1100
,  // measure 47
0001
1100
0001
1100
,  // measure 48
1000
0000
0000
0000
0001
0100
0001
0100
,  // measure 49
0001
0000
1000
0000
0100
0000
1000
0001
,  // measure 50
0100
0000
0010
1000
,  // measure 51
0100
0000
0000
0000
0000
0000
1000
0001
,  // measure 52
0100
0010
1000
0000
,  // measure 53
0001
0000
0000
0000
0000
0000
0100
0001
,  // measure 54
1000
0100
0010
0000
,  // measure 55
0001
0000
0000
0000
0000
0000
1000
0010
,  // measure 56
0100
0001
1000
0000
,  // measure 57
1001
0000
0000
0000
;
