#TITLE:Godspeed (Hybrid Remix);
#SUBTITLE:;
#ARTIST:BT;
#TITLETRANSLIT:;
#SUBTITLETRANSLIT:;
#ARTISTTRANSLIT:;
#CREDIT:;
#BANNER:godspeed.png;
#BACKGROUND:godspeed-bg.png;
#LYRICSPATH:;
#CDTITLE:;
#MUSIC:godspeed.ogg;
#OFFSET:0.000;
#SAMPLESTART:55.232;
#SAMPLELENGTH:12.000;
#SELECTABLE:YES;
#BPMS:0.000=139.040;
#STOPS:;
#BGCHANGES:;
#GENRE:Trancebeat;

//---------------dance-single - Renard----------------
#NOTES:
     dance-single:
     Renard:
     Hard:
     9:
     0.593,0.615,0.449,0.150,0.260:
0000
0000
0000
0000
,
0000
0000
0000
0000
,
0000
0000
0000
0000
,
0000
0000
0000
0000
,
1000
0000
0001
0000
0100
0000
0010
1000
0000
1000
0010
0000
0100
0000
0001
0000
,
0100
0010
1000
0100
0010
0001
0010
0100
,
1000
0000
0001
0000
0100
0000
0001
0010
0000
0010
0001
0000
0100
0000
0010
0000
,
1000
0100
1000
0010
0100
0001
1000
0000
,
1001
0000
1000
0010
0100
0000
0011
0000
,
0011
0000
0001
0010
0100
1000
0010
0000
,
1001
0000
1000
0100
1000
0010
0100
0001
,
1000
0001
0100
0001
2000
0000
0000
0000
0000
0000
0000
0000
3100
0000
0000
0000
,
1000
0000
0100
0000
1000
0000
0001
0100
0000
0000
0001
0000
1000
0000
0100
0000
,
1000
0000
0010
0000
0100
0000
0001
0010
0000
0001
0010
0000
0001
0000
0100
0000
,
0010
0000
1000
0000
0100
0000
1000
0010
0000
0000
1000
0000
0001
0000
0100
0000
,
0001
0000
1000
0000
0100
0000
0010
0100
0000
0010
0100
0000
0010
0000
0001
0000
,
1000
0000
0100
0000
1000
0000
0001
0100
0000
0000
0001
0000
1000
0000
0100
0000
,
1000
0000
0010
0000
0100
0000
0001
0010
0000
0001
0010
0000
0001
0000
0100
0000
,
0010
0000
1000
0000
0100
0000
1000
0010
0000
0000
1000
0000
0001
0000
0100
0000
,
0001
0000
1000
0000
0100
0000
0010
0100
0000
0000
0010
0000
1001
0000
0000
0000
,
2010
0000
0000
0000
0000
0000
3100
0020
,
0000
0000
0001
0000
0130
0010
0001
1000
,
0020
0000
0100
0000
0001
0000
0130
0002
,
1000
0000
0100
0000
1003
0010
0100
0002
,
2000
0003
0010
0000
0010
0000
3020
0200
,
0000
0030
0001
0000
0302
1000
2003
0000
,
0200
3000
0010
0000
0320
0000
0001
0032
,
2000
0000
0000
0000
0000
0003
0010
3010
,
1001
0000
1010
0000
,
1100
0000
0101
0000
,
0011
1010
1100
0101
,
0011
0010
1010
0010
0110
0100
1100
0000
,
1010
0000
0000
0000
0001
0000
1000
0100
0000
1000
0100
0000
1000
0000
0010
0000
,
0100
0000
1001
0000
0100
0010
1000
0100
,
0010
0000
0000
0000
0001
0000
0001
0100
0000
0001
0100
0000
0010
0000
1000
0000
,
0100
0000
1001
0000
0010
0001
0100
0010
,
0110
0000
0000
0000
1000
0000
0010
1000
0000
0010
1000
0000
0010
0000
0100
0000
,
0001
0000
1010
0000
0100
0001
0010
0100
,
1000
0000
0000
0000
0101
0000
0010
1000
0000
0010
1000
0000
0010
0000
0100
0000
,
0001
0000
1000
0000
0001
0000
0100
0001
0100
0000
0001
0000
0010
0000
0000
0000
,
1001
0000
0010
0000
1000
0000
0001
0010
0000
0001
0010
0000
0001
0000
0100
0000
,
0010
0000
1001
0000
0010
0100
0001
0010
,
0100
0000
0000
0000
1000
0000
1000
0010
0000
1000
0010
0000
0100
0000
0001
0000
,
0010
0000
1001
0000
0100
1000
0010
0100
,
0110
0000
0000
0000
0001
0000
0100
0001
0000
0100
0001
0000
0100
0000
0010
0000
,
1000
0000
0101
0000
0010
1000
0100
0010
,
0001
0000
0000
0000
1010
0000
0100
0001
0000
0100
0001
0000
0100
0000
0010
0000
,
1000
0000
0001
0000
1000
0000
0010
1000
0010
0000
1000
0000
0100
0000
0010
0000
,
0001
0000
1000
0000
0010
0000
0100
0001
0000
0000
0100
0000
1001
0000
0000
0000
,
1000
0000
0000
0000
0011
0000
0100
1000
0000
0100
1000
0000
0011
0000
0000
0000
,
1000
0000
0000
0000
0101
0000
0000
0010
0000
1000
0010
0000
1010
0000
0000
0000
,
0100
0000
0001
0000
0011
0000
0100
1000
0000
0010
1000
0000
1001
0000
0100
0001
,
0100
0000
0010
0000
1010
0000
0000
0010
0000
0100
0001
0000
0101
0000
0010
0000
,
1000
0000
0100
0000
1100
0000
0000
1000
0000
0100
1000
0000
1100
0000
0010
0000
,
0001
0000
0100
0000
0101
0000
0000
0100
0000
0010
1000
0000
1010
0000
0010
0000
,
0100
0000
0001
0000
1001
0000
0000
1000
0000
0100
1000
0000
0001
0100
0001
0000
,
1001
0000
0000
0000
;

//---------------dance-single - Renard----------------
#NOTES:
     dance-single:
     Renard:
     Medium:
     6:
     0.384,0.419,0.379,0.000,0.000:
0000
0000
0000
0000
,
0000
0000
0000
0000
,
0000
0000
0000
0000
,
0000
0000
0000
0000
,
0010
0000
1000
0100
0000
0100
0010
0000
,
0001
0000
0100
0001
0000
0001
1000
0000
,
0100
0000
1000
0010
0000
0010
0100
0000
,
0001
1000
0001
1001
,
1000
0000
0100
1000
0000
0001
0010
0000
,
0100
0000
1000
0001
0000
0010
0100
0000
,
1000
0000
0001
0010
0000
0100
1000
0000
,
0001
0000
1000
0001
1000
0000
1001
0000
,
0101
0000
0010
1000
0100
0000
1000
0000
,
0010
0100
0001
0010
,
0011
0000
0001
0010
0100
0000
0100
1000
,
0010
1001
0100
1001
,
1010
0000
0100
0001
0010
0000
1100
0000
,
0010
0101
0010
1100
,
0010
0000
0001
0100
0010
1000
0100
0000
,
0011
1000
0101
0010
,
1000
0000
0000
0000
0000
0000
0100
0010
,
0000
0000
0001
0010
,
0100
0000
0000
0000
0000
0000
1000
0010
,
0000
0000
1100
0001
,
1100
0000
0000
0000
0000
0000
0001
0010
,
0000
0000
0011
0100
,
0011
0000
0000
0000
0000
0000
1000
0001
,
0000
0000
0000
0000
0000
0000
1000
0001
,
1000
0010
0100
0001
,
1000
0100
1010
0100
,
0011
0100
1001
0100
,
1010
0000
0101
0000
0001
1000
0001
0100
,
0010
0000
1000
0000
0100
0000
1000
0010
,
0000
0010
0100
0000
0001
1000
0100
1000
,
0001
0000
1000
0000
0100
0000
0010
0001
,
0000
0001
1000
0000
1000
0001
0100
0001
,
1000
0000
0100
0000
1000
0000
0001
0100
,
0000
0100
0001
0000
1000
0100
1000
0000
,
0011
0000
0100
0000
1000
0000
0001
1000
,
0000
0001
1000
0000
0010
0000
1000
0000
,
0101
0000
1000
0000
0010
0000
1000
0100
,
0000
0010
0001
0000
1100
0000
0011
0000
,
0101
0000
0010
0000
1000
0000
0100
1000
,
0000
0001
0010
0000
0100
0000
1000
0001
,
0100
0000
1001
0000
0100
0000
0010
1000
,
0000
1000
0100
0000
1000
0000
0010
0100
,
0001
0000
1001
0000
1000
0000
0100
1000
,
0000
0010
1000
0000
0001
0000
1000
0100
,
0010
1001
0100
1001
,
0010
1001
0100
1001
,
1000
0000
0100
0010
0001
0000
1010
0000
,
0100
0000
0001
0100
0010
0000
1001
0000
,
1100
0010
0001
0100
,
0010
1000
0100
0010
,
0100
1001
0010
1001
,
0100
0000
0001
0010
0100
0000
1000
0000
,
1001
0000
0000
0000
;

//---------------dance-single - Renard----------------
#NOTES:
     dance-single:
     Renard:
     Easy:
     3:
     0.270,0.475,0.350,0.000,0.000:
0000
0000
0000
0000
,
0000
0000
0000
0000
,
0000
0000
0000
0000
,
0000
0000
0000
0000
,
0001
1000
0100
1000
,
0010
1001
0000
1001
,
0010
0100
0001
0010
,
0100
1001
0000
1001
,
0010
1001
0000
1001
,
0100
1001
0000
1001
,
0010
1001
0100
1001
,
1000
0001
0100
0001
,
1000
1100
0000
0011
,
0001
0100
0010
1000
,
0100
0011
0000
1100
,
1000
0010
0100
0001
,
1000
0011
0000
1100
,
1000
0001
0100
0010
,
1000
0101
0000
1010
,
1000
0100
1000
0000
,
0001
0000
0000
0000
0000
0000
0100
0010
,
0000
0000
1000
0000
,
0100
0000
0000
0000
0000
0000
0010
0001
,
0000
0000
0010
0000
,
0100
0000
0100
0000
,
1000
0000
1000
0000
,
0010
0000
0010
0000
,
0100
0000
0100
0000
,
0001
1000
0001
1000
,
0001
1000
0001
1000
,
1001
1001
0110
0110
,
1001
1100
0011
1001
,
0001
0000
0100
0000
0010
0000
1000
0010
,
0000
0000
0100
0001
,
0010
0000
0100
0000
1000
0000
0001
1000
,
0000
0000
0001
0010
,
0100
0000
1000
0000
0010
0000
0100
0001
,
0000
0000
0100
0010
,
1000
0000
0100
0000
1000
0000
0001
1000
,
0000
0000
0001
0000
,
1000
0000
0000
0000
0000
0000
0010
0100
,
0000
0000
0001
0000
,
1000
0000
0000
0000
0000
0000
0100
0010
,
0000
0000
0011
0000
,
0110
0000
0000
0000
0000
0000
0100
1000
,
0000
0000
1010
0000
,
0101
0000
0000
0000
0000
0000
0100
0010
,
1000
0000
0010
0000
,
0100
0100
0001
0000
,
1000
1000
0100
0000
,
0010
0010
0001
0000
,
1000
1000
0010
0000
,
0100
0000
0001
0000
,
1000
0000
0100
0000
,
0000
1001
0010
1001
,
0000
1001
0100
1001
,
1010
0000
0000
0000
;

//---------------dance-single - BlueChaos----------------
#NOTES:
     dance-single:
     BlueChaos:
     Challenge:
     10:
     0.749,0.839,0.379,0.200,0.774: // measure 1
0000
0000
0000
0000
,  // measure 2
0000
0000
0000
0000
,  // measure 3
0000
0000
0000
0000
,  // measure 4
0000
0000
0000
0000
,  // measure 5
1000
0000
0001
0100
0010
0000
1000
0100
0000
1000
0010
0000
0100
0000
0000
0000
,  // measure 6
0001
0000
0100
0000
0010
0000
0100
0010
0000
0100
0001
0100
0010
0000
0010
1000
,  // measure 7
0100
0000
1000
0000
0100
0000
0010
0001
0000
0010
0100
0000
0010
0000
0000
0000
,  // measure 8
0100
0000
1000
0010
0000
0100
0001
0000
1000
0000
0100
1000
0020
0000
0100
0000
,  // measure 9
0130
0000
0001
1000
0100
0000
1000
0010
0000
0100
0001
0000
0010
0000
0000
0000
,  // measure 10
0100
0000
1000
0100
0010
0000
0100
1000
0000
1000
0010
0100
0001
0000
0001
0010
,  // measure 11
0100
0000
0010
0000
0100
0000
1000
0100
0000
0010
0001
0000
1000
0000
0000
0000
,  // measure 12
0001
0100
0010
0100
0001
0100
0010
1000
0100
0000
1000
0000
0020
0000
0000
0000
,  // measure 13
1030
0000
0001
0000
0100
0000
0001
0100
0000
0100
1000
0000
0100
0000
0000
0000
,  // measure 14
0100
0000
0001
0000
1000
0000
0001
0010
0000
0010
0100
1000
0010
0000
0010
1000
,  // measure 15
0001
0000
0010
0000
0100
0000
0010
0001
0000
0010
1000
0000
0010
0000
0000
0000
,  // measure 16
0100
0000
1000
0000
0001
0000
0100
0001
1000
0000
0001
0000
0010
0000
0100
1000
,  // measure 17
0100
0000
1000
0000
0010
0000
0100
0001
0000
1000
0100
0000
1000
0000
0001
0000
,  // measure 18
0100
0000
0010
0000
1000
0000
0001
1000
0000
0010
0100
0001
1000
0000
1000
0100
,  // measure 19
0010
0000
0100
0000
1000
0000
0100
0010
0000
0001
0100
0000
0010
0000
0100
0000
,  // measure 20
0001
0010
0100
0000
0010
0000
0100
1000
0001
0100
0010
0000
2000
0000
0100
0000
,  // measure 21
0002
0000
3000
0000
0000
0000
0100
0200
,  // measure 22
0003
0000
0010
0000
0301
0010
1000
0010
,  // measure 23
0002
0000
1000
0000
0100
0000
0010
0023
,  // measure 24
0000
0000
1000
0000
0130
1000
0010
0001
,  // measure 25
0020
0000
0001
0000
0100
0000
1000
2030
,  // measure 26
0000
0000
0100
0000
3001
0100
1000
0100
,  // measure 27
0020
0000
0001
0000
0100
0000
1030
2000
,  // measure 28
0200
3000
0010
0000
0001
0000
1300
0010
,  // measure 29
2020
0000
0101
3030
,  // measure 30
0022
0000
1100
0033
,  // measure 31
2200
0000
0001
3300
0202
0000
1000
0303
,  // measure 32
0101
0000
0010
0000
0101
0000
1000
0000
0110
0000
0001
0000
1000
0100
0010
0001
,  // measure 33
1000
0000
0100
1000
0010
0000
1000
0001
0000
0100
0010
0000
0101
0000
0000
0000
,  // measure 34
0001
1000
1010
0000
1000
0100
0001
0100
,  // measure 35
1000
0000
0100
1000
0001
0000
1000
0010
0000
0100
0001
0000
1010
0000
0000
0000
,  // measure 36
1010
0000
1000
0100
0010
0000
0100
1000
0000
0001
0100
0000
0010
0000
1000
0000
,  // measure 37
0010
0100
0000
0110
0000
0000
1010
0000
0000
1001
0000
0001
0010
0000
0110
0000
,  // measure 38
0100
1000
0000
1010
0000
0000
1001
0000
0000
1100
0000
0100
0010
0000
0100
0010
,  // measure 39
0001
0100
0000
0101
0000
0000
1001
0000
0000
1010
0000
1000
0100
0000
1100
0000
,  // measure 40
1000
0000
0000
0010
0000
0000
0000
0000
0000
1010
0000
0000
0000
0000
0000
0000
0000
0000
1000
0000
0100
0000
1000
0000
0100
0000
0000
0010
0000
0000
0001
0000
0000
0100
0000
0000
0001
0000
1000
0000
0001
0000
1000
0000
0001
0000
1000
0000
,  // measure 41
0010
0100
0001
1000
0100
0000
1000
0100
0000
1000
0001
0000
1001
0000
0000
0000
,  // measure 42
0001
0100
0010
1000
0100
0000
1000
0100
0000
0010
0001
1000
0010
0000
1000
0001
,  // measure 43
0100
0000
0001
0000
0100
0000
0010
1000
0000
0001
0010
0000
0110
0000
0000
0000
,  // measure 44
0100
1000
0001
0100
0010
0000
0100
0010
1000
0000
1000
0000
0100
0000
0100
0000
,  // measure 45
1001
0000
0001
0000
0100
0000
0010
0100
0000
0100
0010
0000
1000
0000
0100
0000
,  // measure 46
1000
0001
0000
1001
0000
0000
1010
0000
0010
0100
0000
0110
0000
0000
0101
0000
,  // measure 47
0001
0010
0000
0011
0000
0000
1100
0000
1000
0001
0000
1001
0000
0000
0101
0000
,  // measure 48
0001
0000
0000
0100
0000
0000
0010
0000
0000
0000
0000
0000
1000
0000
0000
0000
0000
0000
0100
0000
0000
1000
0000
0000
0001
0000
0100
0000
0001
0000
0100
0000
0000
0000
0000
0000
0001
0000
1000
0000
0001
0000
1000
0000
0001
0000
1000
0000
,  // measure 49
0010
0100
0001
0010
0100
0000
1000
0100
0000
0100
1000
0000
0100
1000
0010
0000
,  // measure 50
1000
0000
0000
0010
0000
0000
0100
0000
0000
0001
0000
0000
0010
0000
0000
0000
0000
0000
0001
0000
0000
0010
0000
0000
0000
0000
0000
0010
0000
0000
0100
0000
0000
0000
0000
0000
1000
0000
0000
0010
0000
0000
0100
0000
0001
0000
0100
0000
,  // measure 51
0001
1000
0100
0010
0001
0000
1000
0010
0000
0010
0100
0000
0010
0100
0001
0000
,  // measure 52
1000
0001
0010
0100
1000
0000
0100
1000
0000
1000
0010
0000
0100
0001
0010
0000
,  // measure 53
0001
0010
0100
0010
0001
0000
1000
0010
0000
0010
0100
0000
1001
0000
0000
0000
,  // measure 54
0001
1000
0100
1000
0010
0000
1000
0010
0000
0010
0100
0001
0010
0000
0100
1000
,  // measure 55
0001
0000
1000
0000
0010
0000
0100
0010
0000
0010
1000
0000
1001
0000
0000
0000
,  // measure 56
1000
0100
0010
0100
1000
0000
0100
0010
0001
0100
0010
1000
0001
1000
0100
0010
,  // measure 57
0001
0000
0000
0000
;
