#TITLE:God's Acre;
#SUBTITLE:;
#ARTIST:Sonitus Vir;
#GENRE:Electronic Orchestra;
#TITLETRANSLIT:;
#SUBTITLETRANSLIT:;
#ARTISTTRANSLIT:;
#CREDIT:;
#BANNER:acre.png;
#BACKGROUND:acre-bg.png;
#LYRICSPATH:;
#CDTITLE:;
#MUSIC:acre.ogg;
#OFFSET:0.000;
#SAMPLESTART:0.060;
#SAMPLELENGTH:18.000;
#SELECTABLE:YES;
#BPMS:0.000=160.000,252.000=150.000,254.000=140.000,256.000=130.000,258.000=120.000,260.000=110.000;
#STOPS:;
#BGCHANGES:;

//---------------dance-single - Renard----------------
#NOTES:
     dance-single:
     Renard:
     Hard:
     8:
     0.672,0.610,0.672,0.506,0.667:
0000
0000
0000
0000
,
0000
0000
0000
0000
,
2001
0000
0000
3010
0000
0000
2001
0000
0001
0000
3001
0000
,
1010
0000
0000
0101
0000
0000
0011
0000
0001
0100
0000
0100
,
0010
0000
0000
2010
0000
0000
0100
0000
0010
0000
3001
0000
,
1001
1010
0101
1001
,
1002
0000
0000
0103
0000
0000
1002
0000
1000
0000
1003
0000
,
0101
0000
0000
1010
0000
0000
1100
0000
1000
0010
0000
0010
,
0100
0000
0000
0102
0000
0000
0010
0000
0100
0000
1003
0000
,
1001
0000
0000
0101
0000
0000
1010
0000
1000
0001
0000
0000
,
0101
0000
0000
0110
0000
0000
2010
0000
0010
0000
3100
0000
,
0100
0000
0100
0010
0000
0010
0001
0000
0000
1000
0000
0000
,
0100
0000
0000
0011
0000
0000
0001
0000
0010
0000
0100
0000
,
1000
0000
0000
0001
0000
0001
0200
0000
0000
0310
0000
0000
,
1000
0000
0010
0000
0100
0000
1001
0000
0000
1001
0000
0000
,
1000
0000
0100
0000
0010
0000
1001
0000
0000
1001
0000
0000
,
0001
0000
0010
0000
0100
0000
1001
0000
0000
1010
0000
0000
,
0102
0000
0000
0100
0000
0000
0013
0000
0001
0010
0000
0000
,
0001
0000
0100
0000
0010
0000
1001
0000
0000
1001
0000
0000
,
0001
0000
0010
0000
0100
0000
1001
0000
0000
1001
0000
0000
,
1000
0000
0100
0000
0010
0000
1001
0000
0000
0101
0000
0000
,
2010
0000
0000
0010
0000
0000
3100
0000
1000
0100
0000
0000
,
0012
0000
0000
0013
0000
0000
0001
0010
0001
0010
0100
1000
,
0001
0000
0001
0100
0000
0001
2000
0000
0000
3200
0000
0000
,
0310
0000
0010
0100
0000
0100
2000
0000
0000
3002
0000
0000
,
0013
0000
0010
0001
0000
0001
0200
0000
0000
0320
0000
0000
,
1030
0000
1000
0100
0000
0100
1000
0000
1000
0010
0000
0010
,
0200
0000
0000
0302
0000
0000
0013
0000
0010
0100
1000
0100
,
2000
0000
0000
3020
0000
0000
0130
0000
0100
0001
0010
0001
,
0020
0000
0000
0032
0000
0000
0103
0000
0100
0010
0100
0010
,
2000
0000
0000
3020
0000
0000
0130
0000
0100
0001
0100
0001
,
1000
0000
1000
0100
0000
0100
1000
0000
1000
0100
1000
0100
,
0010
0000
0010
0001
0000
0001
0010
0000
0010
0001
0010
0001
,
0100
0000
0100
0001
0000
0001
0100
0000
0100
0001
0100
0001
,
1000
0000
1000
0010
0000
0010
1000
0000
1000
0010
1000
0010
,
0100
0001
0100
0010
0000
0000
1010
0000
0000
0101
0000
0000
,
1000
0100
0010
0001
0000
0000
1100
0000
0000
0011
0000
0000
,
1000
0001
0100
0010
0000
0000
1000
0010
0100
0001
0000
0000
,
1010
0100
0011
0100
,
0010
1000
0010
0100
0000
0000
0101
0000
0000
1010
0000
0000
,
0001
0010
0100
1000
0000
0000
0011
0000
0000
1100
0000
0000
,
0001
1000
0010
0100
0000
0000
0001
0100
0010
1000
0000
0000
,
0101
0010
1100
0010
,
0001
0100
0001
1000
0010
1000
0100
0010
0001
0010
0100
1000
,
0002
0000
0000
0200
0000
0003
0010
0000
0010
0000
0310
0000
,
0020
0000
0000
1000
0000
0000
2000
0000
0000
0000
0030
0000
,
0100
0000
0000
3200
0000
0000
0010
0000
0010
0000
0310
0000
,
0002
0010
0200
0303
,
0020
0000
0000
1000
0000
0000
0001
0000
0001
0000
0001
0000
,
0230
0000
0000
0001
0000
0000
1000
0000
0000
2000
0300
0000
,
0001
0000
0000
0001
0000
0000
3002
0000
0020
0003
2000
0030
,
0100
0100
0010
3001
,
1010
0000
0000
0101
0000
0000
1000
0000
0100
0000
0010
0000
,
0002
0100
2000
3003
,
1010
0000
0000
0101
0000
0000
0001
0000
0010
0000
0100
0000
,
2000
0000
0000
0002
3000
0000
0200
0000
0000
0000
0303
0000
,
0101
0000
0010
0000
0101
0000
0020
0000
0000
1030
0000
0000
,
1100
0000
0010
0000
1100
0000
0020
0000
0000
0031
0000
0000
,
1010
0000
0100
0000
1010
0000
0200
0000
0000
0301
0000
0000
,
1000
0000
1000
0100
0010
0001
0010
0000
0000
1001
0000
0000
,
1010
0000
0100
0000
1010
0000
0200
0000
0000
0301
0000
0000
,
0011
0000
0100
0000
0011
0000
0200
0000
0000
1300
0000
0000
,
0101
0000
0010
0000
0101
0000
0020
0000
0000
1030
0000
0000
,
0001
0000
0001
0010
0100
1000
0100
0000
0000
1001
0000
0000
,
0100
0000
0100
0010
1000
0100
0010
0000
0000
2002
0000
0000
,
0020
0000
0000
0000
,
3033
0000
0000
0000
;

//---------------dance-single - Renard----------------
#NOTES:
     dance-single:
     Renard:
     Challenge:
     10:
     0.837,0.822,0.701,0.243,1.000: // measure 1
0000
0000
0000
0000
,  // measure 2
0000
0000
0000
0000
0000
0000
1000
0001
1000
1001
0000
0000
,  // measure 3
0101
0000
0001
0100
0000
0100
0110
0000
1010
0000
1100
0000
,  // measure 4
1002
0000
0000
0200
0000
0003
0020
0000
0300
2000
0000
3030
,  // measure 5
1010
0000
0010
1000
0000
1000
1100
0000
1100
0000
1010
0000
,  // measure 6
1002
0000
0000
0203
0000
0000
0310
1000
0010
0100
0000
0100
,  // measure 7
0101
0000
0000
0110
0000
0000
2010
0000
0001
0000
0001
3000
,  // measure 8
1002
0100
0010
1003
,  // measure 9
0001
0000
0001
0100
0000
0100
0010
0000
1010
0000
1100
0000
,  // measure 10
1001
0000
0001
0100
0000
0100
0001
1000
0100
0010
0000
0000
,  // measure 11
0001
0010
0001
0100
0001
0100
0001
0010
0001
0100
0001
0100
,  // measure 12
0010
1000
0010
0100
0010
0100
0010
1000
0010
0100
0010
0100
,  // measure 13
0010
1000
0100
0010
0000
0010
0001
0010
0100
0010
0000
0010
,  // measure 14
0100
1000
0010
0100
0000
0000
0001
0100
0010
1000
0000
0000
,  // measure 15
1000
0010
0100
0001
0000
0000
1011
0000
0000
1110
0000
0000
,  // measure 16
0001
0010
0100
1000
0000
0000
0111
0000
0000
1101
0000
0000
,  // measure 17
1000
0100
0010
0001
0000
0000
0001
0010
0100
1000
0000
0000
,  // measure 18
2200
0000
0000
0010
0000
0010
0001
0000
0001
3310
0000
0000
,  // measure 19
1000
0100
0010
0001
0000
0000
1110
0000
0000
0111
0000
0000
,  // measure 20
1000
0001
0100
0010
0000
0000
1011
0000
0000
1101
0000
0000
,  // measure 21
1000
0100
0001
0100
1000
0010
0001
0010
0100
0001
0100
1000
,  // measure 22
0100
0010
1000
0100
0010
0001
0010
0000
0000
1001
0000
0000
,  // measure 23
1000
0001
0100
0010
1000
0001
0100
0000
0000
1001
0000
0000
,  // measure 24
1000
0000
1000
0010
0000
0010
1000
0000
1000
0001
0000
0001
,  // measure 25
0100
0000
0100
0010
0000
0010
1000
0000
1000
0001
0000
0000
,  // measure 26
0010
0000
0010
0001
0000
0001
0100
0000
0100
0001
0000
0001
,  // measure 27
1000
0000
1000
0010
0000
0010
0100
0000
0000
1010
0000
0000
,  // measure 28
0100
0001
0010
0001
0000
0000
1010
0000
0000
0101
0000
0000
,  // measure 29
1000
0100
0010
0100
0000
0000
1100
0000
0000
1010
0000
0000
,  // measure 30
0100
0001
0100
0001
0000
0000
1000
0010
1000
0010
0000
0000
,  // measure 31
0001
0000
0100
0000
0010
0000
1000
0100
0010
0001
1000
0001
,  // measure 32
1000
0000
1000
0100
0000
0100
1000
0000
1000
0100
0000
0100
,  // measure 33
0010
0000
0010
0001
0000
0001
0010
0000
0010
0001
1000
0100
,  // measure 34
0010
0000
0010
0100
0000
0100
0010
0000
0010
0001
0000
0001
,  // measure 35
1000
0000
1000
0001
0100
0001
1000
0000
1000
0100
1000
0010
,  // measure 36
1000
0000
1000
0100
0010
0001
0200
0000
0000
0311
0000
0000
,  // measure 37
0100
0000
0100
1000
0010
0100
0002
0000
0000
1013
0000
0000
,  // measure 38
0001
0100
0001
0100
0000
0000
0010
1000
0010
1000
0000
0000
,  // measure 39
0010
1000
0100
0010
0001
1000
0001
0000
0001
1000
0000
0000
,  // measure 40
0001
0100
0001
0100
0000
0000
0002
0000
0000
1013
0000
0000
,  // measure 41
0001
0010
0100
1000
0000
0000
2200
0000
0000
3311
0000
0000
,  // measure 42
1000
0001
0100
0001
0100
0001
1000
0001
1000
0100
1000
0100
,  // measure 43
1000
0010
0100
0001
0000
0001
0100
0010
1000
0100
0000
0100
,  // measure 44
1000
0000
0001
0000
0100
0000
0001
1000
0100
0010
0001
1000
,  // measure 45
0001
0000
0001
0100
0000
0100
0001
0000
1001
0000
1010
0000
,  // measure 46
1100
0000
0100
1000
0000
1000
0010
0100
0001
1000
0000
1000
,  // measure 47
0001
0000
0001
0100
0000
0100
0010
0000
1010
0000
1100
0000
,  // measure 48
1001
0000
0001
1000
0000
1000
0001
0000
0000
1001
0000
0000
,  // measure 49
0101
0000
0100
0010
0000
0010
1010
0000
1100
0000
1001
0000
,  // measure 50
0101
0000
0001
0010
0000
0010
0001
0100
0010
1000
0000
1000
,  // measure 51
0010
0000
0010
0100
0000
0100
0001
0000
0010
0000
0100
0000
,  // measure 52
1000
0001
1000
0001
0000
0001
0100
0001
1000
0100
0000
0100
,  // measure 53
1000
0000
1000
0010
0000
0010
0100
0001
0010
0100
1000
0010
,  // measure 54
0100
0000
0100
0001
0000
0001
0010
0100
1000
0010
0100
0001
,  // measure 55
0100
0000
0100
0010
0000
0010
1000
0010
0100
0001
0000
0001
,  // measure 56
0010
0100
1000
0010
0100
0001
1000
0000
1000
0001
0000
0001
,  // measure 57
1001
0000
1010
0000
1001
0000
0202
0000
0000
1313
0000
0000
,  // measure 58
0101
0000
0011
0000
1100
0000
0220
0000
0000
1331
0000
0000
,  // measure 59
0101
0000
0110
0000
1010
0000
0110
0000
1100
0000
0101
0000
,  // measure 60
0022
1000
1000
0133
,  // measure 61
0001
0000
0010
0000
0100
0000
2200
0000
0000
3311
0000
0000
,  // measure 62
1000
0000
0100
0000
0010
0000
0202
0000
0000
1313
0000
0000
,  // measure 63
0001
0000
0001
0100
0000
0100
0010
1000
0100
0010
0001
0100
,  // measure 64
0001
0100
0001
0100
0010
0100
0010
1000
0010
1000
0100
1000
,  // measure 65
0100
0000
0010
0000
0001
0000
0010
0000
0100
0000
1000
0000
0001
0000
0100
0000
0001
0000
1000
0100
0010
0001
1000
0100
,  // measure 66
0010
0000
0000
0000
;

//---------------dance-single - Dark Culex----------------
#NOTES:
     dance-single:
     Dark Culex:
     Medium:
     5:
     0.382,0.413,0.185,0.097,0.127:
0000
0000
0000
0000
,
0000
0000
0000
0000
,
0001
1000
0010
0100
,
0100
0001
0100
0001
,
0010
0001
0010
0100
,
1000
0010
0100
0100
,
0100
0001
0001
1000
,
1000
1000
0001
1000
,
0001
1000
0010
1000
,
0001
1000
0001
0100
,
0100
0010
1000
1000
,
0001
0001
0002
1000
,
1003
0100
0010
0010
,
0010
0001
2000
0010
,
3010
0000
1000
0000
0010
0000
1000
0000
0000
1000
0000
0000
,
0100
0000
0010
0000
0001
0000
1000
0000
0000
0010
0000
0000
,
0010
0000
1000
0000
1000
0000
0010
0000
0000
1000
0000
0000
,
0001
2000
0100
3001
,
0100
0000
0001
0000
1000
0000
0001
0000
0000
1000
0000
0000
,
0010
0000
1000
0000
1000
0000
0010
0000
0000
0010
0000
0000
,
0010
0000
1000
0000
0100
0000
0010
0000
0000
0010
0000
0000
,
0002
0000
0000
0000
,
2003
0000
0000
0000
0000
0000
0200
0000
0000
0000
0000
3300
,
0001
1100
0000
0010
,
0001
1001
0000
0100
,
1000
0110
0000
0010
,
1000
0101
0000
0100
,
1000
1010
0000
0001
,
0010
1001
0000
0001
,
0010
1001
0000
0010
,
0001
0101
0000
0000
,
1000
0001
0000
0001
,
0110
0100
0000
0001
,
1100
1000
0000
1100
,
2000
0000
3002
0000
,
0003
0101
0010
0110
,
0100
1010
0100
0011
,
0100
1000
1000
0001
,
0001
0100
0010
0010
,
0010
0100
0001
0100
,
0001
0001
0110
1100
,
0010
0010
0110
0001
,
0110
0001
1000
0001
,
1000
0001
0001
0100
,
0010
0010
0010
1000
,
0100
1000
1000
0100
,
0010
0001
0100
0001
,
0001
1000
0001
0100
,
0100
0001
0010
0100
,
1000
1000
0001
0010
,
0010
0001
0001
1000
,
0001
0001
0100
0010
,
1000
0010
1000
0100
,
0010
0100
0100
0010
,
0010
0000
0000
0100
0000
0000
0010
0000
0010
0000
0001
0000
,
0010
0001
1000
0100
,
1000
0000
0100
0000
0100
0000
0010
0000
0000
0100
0000
0000
,
0010
0000
0100
0000
1000
0000
0100
0000
0000
1000
0000
0000
,
0001
0000
0100
0000
0001
0000
0001
0000
0000
0100
0000
0000
,
0100
0010
1000
0001
,
0100
0000
0001
0000
0100
0000
0010
0000
0000
0010
0000
0000
,
0100
0000
0010
0000
1000
0000
1000
0000
0000
0100
0000
0000
,
0100
0000
0010
0000
0001
0000
0001
0000
0000
0010
0000
0000
,
0001
0001
1000
0100
,
0010
0001
0001
2000
,
0002
3003
0000
0000
;

//---------------dance-single - Dark Culex----------------
#NOTES:
     dance-single:
     Dark Culex:
     Easy:
     3:
     0.222,0.286,0.097,0.204,0.000: // measure 1
0000
0000
0000
0000
,  // measure 2
0000
0000
0000
0000
,  // measure 3
0010
0000
0010
0000
,  // measure 4
0100
0000
0100
0000
,  // measure 5
0001
0000
0001
0000
,  // measure 6
0100
0100
0001
0010
,  // measure 7
0010
0000
1000
0000
,  // measure 8
0010
0000
1000
0000
,  // measure 9
0100
0000
0010
0000
,  // measure 10
0001
0000
0010
0000
,  // measure 11
1000
0000
0100
0000
,  // measure 12
1000
1000
0020
0000
,  // measure 13
1030
0000
0100
0000
,  // measure 14
0001
0100
0002
0000
,  // measure 15
0203
0000
0000
0300
,  // measure 16
2000
0000
0000
3000
,  // measure 17
0002
0000
0000
0003
,  // measure 18
0001
0000
0010
0000
,  // measure 19
2000
0000
0000
3000
,  // measure 20
0200
0000
0000
0300
,  // measure 21
0200
0000
0000
0300
,  // measure 22
0020
0000
0000
0000
,  // measure 23
0032
0000
0000
0000
0000
0000
2000
0000
0000
0000
0000
3003
,  // measure 24
1000
1000
0000
1000
,  // measure 25
0001
1000
0000
0100
,  // measure 26
0010
0001
0000
0010
,  // measure 27
1000
0001
0000
0010
,  // measure 28
1000
1010
0000
1000
,  // measure 29
0001
1001
0000
1000
,  // measure 30
0001
1001
0000
1000
,  // measure 31
0010
1010
0000
0000
,  // measure 32
0001
0010
0000
0100
,  // measure 33
1000
1100
0000
0010
,  // measure 34
0100
0110
0000
1000
,  // measure 35
0002
0000
0023
0000
,  // measure 36
0030
1010
0000
1001
,  // measure 37
0000
0110
0000
1001
,  // measure 38
0000
0100
0000
0100
,  // measure 39
0000
1000
0000
0100
,  // measure 40
0000
0010
0000
1000
,  // measure 41
0000
0001
0000
0010
,  // measure 42
0100
0000
0001
0000
,  // measure 43
1000
0000
0001
0000
,  // measure 44
0001
0000
0100
0000
,  // measure 45
0001
0000
0100
0000
,  // measure 46
0001
0000
0100
0000
,  // measure 47
1000
0000
0001
0000
,  // measure 48
1000
0000
1000
0000
,  // measure 49
0001
0000
0100
0000
,  // measure 50
0100
0000
0010
0000
,  // measure 51
1000
0000
1000
0000
,  // measure 52
1000
0000
0100
0000
,  // measure 53
0010
0000
0010
0000
,  // measure 54
0010
0000
0001
0000
,  // measure 55
0010
0000
1000
0000
,  // measure 56
0001
0000
1000
0000
,  // measure 57
0002
0000
0000
0003
,  // measure 58
0200
0000
0000
0300
,  // measure 59
0020
0000
0000
0030
,  // measure 60
1000
0000
0001
0000
,  // measure 61
2000
0000
0000
3000
,  // measure 62
2000
0000
0000
3000
,  // measure 63
2000
0000
0000
3000
,  // measure 64
1000
0000
0001
0000
,  // measure 65
1000
0000
0001
0002
,  // measure 66
0020
0033
0000
0000
;
