#TITLE:God of Rage 2.0;
#SUBTITLE:;
#ARTIST:Sonitus Vir;
#GENRE:Egypt Breaks;
#TITLETRANSLIT:;
#SUBTITLETRANSLIT:;
#ARTISTTRANSLIT:;
#CREDIT:;
#BANNER:god.png;
#BACKGROUND:god-bg.png;
#LYRICSPATH:;
#CDTITLE:;
#MUSIC:god.ogg;
#OFFSET:0.000;
#SAMPLESTART:15.058;
#SAMPLELENGTH:12.000;
#SELECTABLE:YES;
#BPMS:0.000=127.000;
#STOPS:;
#BGCHANGES:;

//---------------dance-single - Renard----------------
#NOTES:
     dance-single:
     Renard:
     Challenge:
     10:
     0.778,0.775,0.474,0.312,0.751:
0000
0000
0000
0000
,
0000
0000
0000
0000
,
1000
0000
1000
0100
0000
0100
1000
0000
1000
0010
0100
0001
0010
0000
0100
0000
,
1000
0000
1000
0001
0000
0001
0010
0000
0001
1000
0100
1000
0010
0000
0000
0000
,
0100
0000
0010
0000
1001
0000
0000
0100
0001
0010
0100
0000
1001
0000
0000
0000
,
0100
0000
0010
0000
1001
0000
0000
0100
1000
0010
0100
0000
1001
0000
0000
0000
,
0010
0000
0100
0000
1001
0000
0000
0100
0010
0100
0010
0000
1001
0000
0000
0100
,
0001
0010
0100
1000
2002
0010
0110
3003
,
1010
0100
1001
0100
0002
0020
0003
0100
,
0000
0230
2000
0000
0010
0000
3311
0000
,
1000
0010
0100
0001
0010
0100
1000
0001
,
0010
0000
0000
0001
0000
0000
1000
0100
1000
0100
0000
0000
1000
0000
0001
0000
0010
0000
1001
0000
0000
0000
0000
0000
,
1001
0010
0101
0010
2000
0002
0000
3010
,
0000
0203
0020
0300
1030
0000
1001
0000
,
0110
0101
2020
0030
0200
0010
0000
0010
,
3311
0000
0000
0000
0000
0000
1000
0100
0010
0001
0000
0000
1000
0000
0100
0000
0001
0000
0110
0000
0000
0000
0000
0000
,
0100
1000
0000
1000
0010
0000
0010
0100
0000
0100
0001
0000
0010
0100
1000
0000
,
0010
0100
0000
0100
0001
0000
0001
0010
0000
0010
0001
0000
1000
0100
0010
0000
,
0100
1000
0000
1000
0001
0000
0001
0010
0000
0010
0001
0000
1000
0010
0100
0000
,
0001
0010
0000
0010
0100
0000
0100
1000
0000
1000
0010
0000
0100
0001
0010
0100
,
1000
0000
0010
0000
1001
0000
0010
0100
0000
0100
0001
0000
0010
0100
1000
0000
,
0010
0000
0100
0000
1001
0000
0100
0001
0000
0001
0010
0000
0100
1000
0010
0000
,
0100
0000
0001
0000
1010
0000
0100
0010
0000
0010
0100
0000
1000
0100
0001
0000
,
0010
0000
0100
0000
1001
0000
0100
0010
0000
0010
1000
0000
0100
0010
0001
0000
,
2000
0000
0002
0000
0100
0100
3013
0000
,
0200
0000
0020
0000
1000
1000
0331
0000
,
2000
0000
0200
0000
0010
0010
3301
0000
,
2002
0000
0000
0000
0000
0000
0000
0000
0000
0000
0000
0000
3013
0000
0000
0000
0000
0000
0000
0000
0000
0000
0000
0000
0001
0000
0000
1000
0000
0000
0001
0000
0000
0000
0000
0000
1010
0000
0000
0000
0101
0000
0000
0000
0011
0000
0000
0000
,
1000
0100
0010
0001
0010
0100
1000
0010
0100
1001
0000
0000
,
1000
0010
0100
0001
0010
0100
1001
0000
,
0001
0100
1000
0100
0001
0010
0100
1000
0010
1001
0000
0000
,
0110
0000
1001
0000
1010
0000
0100
0001
0020
0000
0200
0000
1001
0000
0330
0000
,
0010
0000
0100
1000
0010
0000
0100
0001
0010
0000
0100
1000
0010
0000
0100
0001
,
0010
0000
0100
1000
0010
0000
1000
1000
2000
0000
0002
0000
0010
0000
3003
0000
,
0010
0000
0100
1000
0100
0000
0010
0001
0010
0000
0100
1000
0010
0000
0100
0001
,
0010
0000
0100
1000
0010
0000
0100
0100
0200
0000
0002
0000
1010
0000
0303
0000
,
1000
0100
1000
0000
0010
0000
0100
0000
0001
0010
0100
0000
1000
0000
0010
0000
,
0100
0000
0000
0001
0000
0000
0010
0000
0000
0000
0000
0000
0100
0000
0000
0000
0000
0000
1000
0000
0100
0000
1000
0000
0100
0000
0000
0000
1000
0000
0000
0000
0010
0000
0000
0000
1001
0000
0000
0000
0000
0000
0000
0000
0000
0000
0000
0000
,
0001
0010
0001
0000
0100
0000
0010
0000
1000
0100
0010
0000
0001
0000
0100
0000
,
0010
0000
0000
1000
0000
0000
0100
0000
0000
0000
0000
0000
0010
0000
0000
0000
0000
0000
0001
0000
0010
0000
0001
0000
0010
0000
0000
0000
0001
0000
0000
0000
0100
0000
0000
0000
1001
0000
0000
0000
0000
0000
0000
0000
0000
0000
0000
0000
,
0010
0100
0000
0100
0001
0000
0010
0100
1000
0010
0100
0001
0010
0100
1000
0010
,
0100
0010
0000
0010
1000
0000
1000
0100
0010
0001
0010
0100
1000
0010
0100
0001
,
0010
1000
0000
1000
0010
0000
0010
0001
0100
0010
1000
0100
0001
0100
1000
0000
,
0010
0100
0000
0100
0001
0000
0001
0010
0100
1000
0010
0000
1001
0000
1001
0000
,
0100
0010
0100
0001
0100
0010
0100
1000
0100
0010
0100
0001
0100
0000
0010
0000
,
1000
0100
0010
0100
0010
0001
0010
1000
0010
0100
1000
0010
0100
0000
1001
0000
,
0010
0100
0001
0100
0010
0000
1001
0000
0100
0010
1000
0100
0010
0000
1001
0000
,
0010
0100
0010
0000
1000
0001
1000
0000
0010
0100
0001
0010
0100
0000
1001
0000
,
0100
0000
0000
0100
0001
0000
0000
0001
2000
0000
0000
0000
3011
0000
0000
0000
,
1000
0000
0000
1000
0010
0000
0000
0010
0200
0000
0002
0000
1313
0000
0000
0000
,
0100
0000
0000
0100
0010
0000
0000
0010
1000
0100
0010
0000
0200
0000
0000
0000
,
1011
0300
0000
0000
;

//---------------dance-single - Renard----------------
#NOTES:
     dance-single:
     Renard:
     Hard:
     8:
     0.602,0.591,0.655,0.030,0.292:
0000
0000
0000
0000
,
0000
0000
0000
0000
,
0000
0000
0000
0000
,
0000
0000
0000
0000
,
1000
0100
0011
0100
1000
0000
0011
0000
,
0100
1000
0011
1000
0100
0000
0011
0000
,
1000
0100
0011
0100
1000
0000
0011
0000
,
0100
1000
0011
1000
0100
1001
1001
0000
,
1010
0000
0101
0000
1001
1001
0000
1010
,
0000
0000
0000
0001
0000
0000
0100
0000
0000
0010
0000
0000
1000
0000
0010
0000
0100
0000
0001
0000
0000
0000
0000
0000
,
1000
0100
0010
0000
0011
0110
0000
1100
,
1010
0000
0000
0000
0000
0000
0010
0000
0000
1000
0000
0000
0001
0000
1000
0000
0001
0000
1001
0000
0000
0000
0000
0000
,
0101
0000
1010
0000
1001
1001
0000
0101
,
0000
0000
0000
1000
0000
0000
0010
0000
0000
0100
0000
0000
0001
0000
0100
0000
0010
0000
1000
0000
0000
0000
0000
0000
,
0001
0010
0100
0000
1100
0110
0000
0011
,
0101
0000
0000
0000
0000
0000
0100
0000
0000
0001
0000
0000
1000
0000
0001
0000
1000
0000
1001
0000
0000
0000
0000
0000
,
1000
0100
0000
0100
1000
0000
0001
0010
0000
0010
0001
0000
1000
0010
1000
0000
,
0001
0100
0000
0100
0001
0000
1000
0010
0000
0010
1000
0000
0001
0010
0001
0000
,
1000
0010
0000
0010
1000
0000
0100
0010
0000
0010
0100
0000
0001
0100
0001
0000
,
0100
1000
0000
1000
0010
0000
0010
0100
0000
0100
0001
0000
0100
0000
0100
0000
,
0010
1000
0000
1000
0001
0000
0001
1000
0000
1000
0010
0000
0010
0000
1000
0000
,
0001
0100
0000
0100
0010
0000
0010
0100
0000
0100
0001
0000
0010
0000
0001
0000
,
0010
0100
0000
0100
0010
0000
0010
0001
0000
0001
0100
0000
0010
0000
1000
0000
,
0100
0000
0010
0000
0001
0000
1000
0001
1000
0000
1000
0000
0001
0000
0001
0000
,
1000
0000
0100
0000
0010
0000
0001
1000
0001
0000
0010
0000
0100
0000
1000
0001
,
1000
0000
0100
0000
0010
0000
0001
1000
0001
0000
0010
0000
0100
0000
1000
0001
,
1000
0000
0100
0000
0010
0000
0001
1000
0001
0000
0010
0000
0100
0000
1000
0001
,
1000
0000
0000
0000
0000
0000
0100
0000
0000
0000
0000
0000
0010
0000
0000
0000
0000
0000
0001
0000
0000
1000
0000
0000
0001
0000
0000
0001
0000
0000
0001
0000
0000
0000
0000
0000
1000
0000
0000
0000
1000
0000
0000
0000
1000
0000
0000
0000
,
0010
0000
0000
1100
0000
0011
0000
0000
,
0000
1100
0000
0011
0011
0000
1001
0000
,
1010
0000
0000
0101
0000
1001
0000
0000
,
1000
2000
0100
3100
0010
0202
1010
0303
,
0101
0000
1010
0000
1001
1001
0000
0101
,
0000
0000
0000
1000
0000
0000
0010
0000
0000
0100
0000
0000
0001
0000
0100
0000
0010
0000
1000
0000
0000
0000
0000
0000
,
0001
0010
0100
0000
1100
0110
0000
0011
,
0101
0000
0000
0000
0000
0000
0100
0000
0000
0001
0000
0000
1000
0000
0001
0000
1000
0000
1001
0000
0000
0000
0000
0000
,
1010
0000
0101
0000
1001
1001
0000
1010
,
0000
0000
0000
0001
0000
0000
0100
0000
0000
0010
0000
0000
1000
0000
0010
0000
0100
0000
0001
0000
0000
0000
0000
0000
,
1000
0100
0010
0000
0011
0110
0000
1100
,
1010
0000
0000
0000
0000
0000
0010
0000
0000
1000
0000
0000
0001
0000
1000
0000
0001
0000
1001
0000
0000
0000
0000
0000
,
1000
0100
0001
0100
1000
0100
0001
0100
,
1000
0010
0001
0010
1000
0010
0001
0010
,
1000
0100
0010
0100
1000
0010
0100
0010
,
1000
0100
0010
0100
1000
0010
0100
0010
,
0100
0001
0010
0001
0100
0010
0001
0010
,
0100
0001
0010
0001
0100
0010
0001
0010
,
1000
0100
0010
0100
0001
0100
0010
0100
,
1000
0010
0100
0001
0100
0010
1000
0010
,
1000
0010
0100
0001
0010
0001
0011
0000
,
0001
0010
0100
1000
0010
0100
0101
0000
,
0010
1000
1100
0000
0010
0001
0101
0000
,
1001
0000
0000
0000
;

//---------------dance-single - Renard----------------
#NOTES:
     dance-single:
     Renard:
     Medium:
     6:
     0.399,0.437,0.443,0.030,0.000:
0000
0000
0000
0000
,
0000
0000
0000
0000
,
0000
0000
0000
0000
,
0000
0000
0000
0000
,
1000
0000
0001
0100
0001
0000
1000
0100
,
1000
0000
0010
1000
0010
0000
0001
0010
,
0001
0000
1000
0010
1000
0000
0100
0000
,
1000
0000
0001
0000
0000
1001
1001
0000
,
1000
0000
0001
0000
0100
0010
0000
1010
,
0000
0001
0100
0010
1000
0100
1000
0000
,
1001
0101
1001
0011
,
1001
0101
1001
0011
,
0001
0000
1000
0000
0100
1000
0000
0011
,
0000
0100
1000
0001
0010
0001
1000
0000
,
0100
0000
1000
0000
0001
1000
0000
0001
,
1000
1010
0101
1001
,
1000
0100
1000
0100
1000
0100
1000
0100
,
0010
0001
0010
0001
0010
0001
0010
0001
,
1000
0010
1000
0010
1000
0010
1000
0010
,
0100
0001
0100
0001
0100
0000
0101
0000
,
1000
1001
0001
1001
,
0100
0110
0010
0110
,
1000
1010
0001
0101
,
1000
1100
0010
0011
,
1000
0000
0001
0000
0100
0001
1000
0000
,
0001
0000
1000
0000
0100
1000
0001
0000
,
1000
1001
0001
1001
,
1000
1001
1000
1001
,
0001
0000
0100
0000
0010
1000
0010
0000
,
1000
0000
0001
0000
0100
0001
1000
0000
,
0001
0000
1000
0100
0000
0100
1000
0000
,
0001
1001
1010
1001
,
0101
0000
1000
0000
0001
0100
0000
1001
,
0000
0001
1000
0000
0100
0000
1000
0000
,
0001
0000
1000
0000
0001
1000
0000
0010
,
1000
0000
0001
0000
0100
0001
1000
0000
,
0001
0000
1000
0000
0100
1000
0000
1001
,
0000
0001
1000
0100
1000
0001
1000
0000
,
0001
0000
0100
0001
1000
0001
0000
0100
,
0001
0000
1000
0100
1000
0001
1000
0000
,
1001
0000
1010
0000
0001
0100
0000
1001
,
0000
0001
1000
0000
0001
0000
1000
0000
,
0010
0000
1000
0000
0001
1000
0000
0001
,
1000
0001
0100
0100
,
0010
0000
1010
0000
0001
0100
0000
0101
,
0000
0001
1000
0100
1000
0000
0011
0000
,
1100
1000
1001
1000
,
1010
0000
1000
0100
0010
0001
1000
0000
,
0002
0000
0000
0103
,
0200
0000
0000
0310
,
0020
0000
0000
1030
,
1001
0000
0000
0000
;

//---------------dance-single - Renard----------------
#NOTES:
     dance-single:
     Renard:
     Easy:
     3:
     0.291,0.360,0.242,0.000,0.000: // measure 1
0000
0000
0000
0000
,  // measure 2
0000
0000
0000
0000
,  // measure 3
0000
0000
0000
0000
,  // measure 4
0000
0000
0000
0000
,  // measure 5
1000
1000
0001
0001
,  // measure 6
1000
0001
1000
0001
,  // measure 7
0100
0100
0001
0001
,  // measure 8
1000
0000
0100
0000
1000
0001
1000
0000
,  // measure 9
0001
1000
0100
1000
,  // measure 10
0001
0100
0001
1000
,  // measure 11
0001
1001
1000
1001
,  // measure 12
1000
1001
1000
1001
,  // measure 13
1000
0000
0001
0000
0100
0001
0000
1000
,  // measure 14
0000
0001
0100
0001
,  // measure 15
0010
0000
0100
0000
1000
0001
0000
1000
,  // measure 16
0001
1000
0010
0100
,  // measure 17
0001
1000
0001
1000
,  // measure 18
0100
1000
0100
1000
,  // measure 19
0001
0010
0001
0100
,  // measure 20
0001
1000
1001
0000
,  // measure 21
1001
1000
0010
0100
,  // measure 22
0011
0000
1100
0000
,  // measure 23
1100
1000
0010
0100
,  // measure 24
0101
0000
0110
0000
,  // measure 25
0010
1000
0010
1000
,  // measure 26
0001
0100
0001
0100
,  // measure 27
0001
1000
0100
0010
,  // measure 28
0001
0000
1000
0000
0001
0000
1000
0001
,  // measure 29
1000
0001
0100
0001
,  // measure 30
1000
0001
1000
0001
,  // measure 31
1000
0100
0010
0001
,  // measure 32
1000
0000
1001
0000
,  // measure 33
1001
0000
0100
0010
,  // measure 34
1010
0000
1000
0100
,  // measure 35
0011
0000
0100
1000
,  // measure 36
1001
0000
0001
0100
,  // measure 37
0110
0000
0010
1000
,  // measure 38
1100
0000
0010
0001
,  // measure 39
0101
0001
1001
1000
,  // measure 40
1010
1000
1100
1000
,  // measure 41
1001
0000
0100
0010
,  // measure 42
1000
0100
0010
0001
,  // measure 43
0010
0001
1000
0001
,  // measure 44
1000
0000
0000
0001
1000
0000
0000
0001
,  // measure 45
1000
0010
0100
0001
,  // measure 46
0010
0001
1000
0010
,  // measure 47
1000
0000
0100
0000
1000
0000
0000
0001
,  // measure 48
1000
0000
0000
0001
1000
0000
0000
0001
,  // measure 49
1000
0010
0100
0001
,  // measure 50
1000
0001
1000
0100
,  // measure 51
1000
0010
1000
0001
,  // measure 52
1001
0000
0000
0000
;
