#TITLE:Girl in the Fire;
#SUBTITLE:;
#ARTIST:Pendulum;
#GENRE:Futurestep;
#TITLETRANSLIT:;
#SUBTITLETRANSLIT:;
#ARTISTTRANSLIT:;
#CREDIT:;
#BANNER:girl.png;
#BACKGROUND:girl-bg.png;
#LYRICSPATH:;
#CDTITLE:;
#MUSIC:girl.ogg;
#OFFSET:0.000;
#SAMPLESTART:38.574;
#SAMPLELENGTH:12.000;
#SELECTABLE:YES;
#BPMS:0.000=174.000;
#STOPS:;
#BGCHANGES:;

//---------------dance-single - Renard----------------
#NOTES:
     dance-single:
     Renard:
     Hard:
     9:
     0.668,0.653,0.480,0.092,0.077:
0000
0000
0000
0000
,
0000
0000
0000
0000
,
0000
0000
0000
0000
,
0000
0000
0000
0000
,
1000
0001
0100
0010
0000
0010
1000
0000
,
0100
0000
1000
0010
0100
0000
0001
0010
,
0100
1000
0001
0100
0001
0000
0001
1000
,
0000
1000
0100
1000
0001
0000
0100
0000
,
0010
1000
0100
1000
0000
1010
0000
0101
,
0000
0001
0010
0100
1000
0000
0001
0000
,
1000
0100
1000
0010
0000
0101
0000
0110
,
0000
1010
0000
1000
0100
0001
0100
0000
,
1100
0000
0101
0000
0001
0010
0000
1010
,
0000
0010
0100
1000
0100
0001
0100
0000
,
1100
0000
1010
0000
0010
0001
0000
0011
,
0000
1010
0000
0010
0100
1000
0100
0000
,
0101
0000
0110
0000
0010
1000
0000
0110
,
0000
0011
0000
0001
0010
1000
0010
0100
,
0001
0100
0010
0000
1000
0100
0000
0101
,
0000
1100
0000
1000
0100
0010
0001
0000
,
0100
0000
1001
0000
0100
0010
1000
0001
,
0100
0000
1010
0000
0100
0001
0010
0000
,
0100
0000
0011
0000
0100
1000
0010
0100
,
0000
0100
1001
0000
0100
0010
1000
0000
,
0001
0000
1010
0000
0001
0100
0010
1000
,
0000
1000
0011
0000
0100
1000
0010
0100
,
0001
0100
0010
0100
1000
0100
0001
0100
,
0010
0000
1000
0000
0010
0000
0001
0000
0010
0000
1000
0010
1000
0001
1000
0000
,
0100
0000
1000
0000
0010
0000
0000
0010
0100
0000
0001
0000
0100
0000
0010
0000
,
0000
0000
1010
0000
0000
0000
0100
0000
0001
0000
1000
0001
1000
0000
0010
0000
,
0100
0000
0001
0000
1000
0000
0000
0000
1100
0000
0000
0100
1000
0000
0010
0000
,
0000
0000
1001
0000
0000
0000
1000
0000
1010
0000
0000
0010
0100
0000
0001
0000
,
0010
0000
0001
0000
0100
0000
0000
0100
0010
0000
1000
0000
0010
0000
0100
0000
,
0000
0000
0101
0000
0000
0000
0010
0000
1000
0000
0001
1000
0001
0000
0000
0000
,
1001
0000
0101
0000
0001
0100
0000
2200
,
0000
3301
0000
1000
0100
0001
0100
0000
,
1010
1000
1001
0000
0001
0100
0000
1100
,
0000
0100
0001
0010
1000
0010
0100
0000
,
1100
0000
0101
0000
0001
0100
0010
0001
,
0000
0011
0000
1010
0000
0010
0100
1000
,
0010
0100
0001
0000
2000
0002
0000
3013
,
0000
0001
0100
0010
1000
0000
0101
0000
,
0001
0000
0002
0000
0100
0203
0010
0020
,
0300
1000
0000
2030
0001
0000
3001
1000
,
0001
0000
0100
0000
1000
0010
0000
0001
,
0000
0000
0000
0100
0001
0000
0000
0000
0000
1000
0000
0000
0000
0000
0000
0100
0000
0000
1000
0000
0000
0010
0000
0000
,
1000
0000
0100
0000
0001
0010
0000
1000
,
0000
0000
0000
0100
1000
0000
0000
0000
0000
0010
0000
0000
0000
0000
0000
0100
0000
0000
0001
0000
0000
0100
0000
0000
,
0010
0000
1000
0000
0100
0001
0000
0010
,
0000
0000
0000
0100
0000
0000
0000
0000
0000
0001
0100
0000
0000
0000
0000
0100
0000
0000
1000
0000
0000
0100
0000
0000
,
0010
0000
0020
0000
1000
1030
0001
0100
,
0001
1000
0001
0100
0010
0010
1000
1000
,
0010
0100
0001
0100
1000
0100
0010
0001
,
0010
1000
0010
0100
0001
0100
0010
1000
,
0010
0100
1000
0100
0001
0100
0010
1000
,
0010
0100
0001
1000
0001
0100
0010
1000
,
0010
0001
0010
1000
0100
0001
0100
0010
,
1000
0010
1000
0001
0100
0000
1010
0000
,
0010
0001
0010
0100
1000
0000
0101
0000
,
0010
1000
0001
0100
0001
0000
1010
0000
,
1000
0001
0100
0001
1000
0100
0010
0001
,
0010
0000
0100
0000
1000
0000
0001
0100
0001
0000
1000
0000
0100
0000
1000
0000
,
0010
0100
0001
1000
0100
1000
0010
0100
,
0001
0000
0100
0000
0001
0000
1000
0100
1000
0000
0001
0010
0001
0000
0100
0000
,
0010
0100
0001
1000
0100
1000
0010
0100
,
0001
0000
1000
0100
1000
0000
0001
0000
0100
0000
0001
0000
1000
0000
0000
0000
,
0101
0000
1100
0000
1000
0100
0001
0010
,
0000
0011
0000
1010
0000
0000
0000
0000
;

//---------------dance-single - Renard----------------
#NOTES:
     dance-single:
     Renard:
     Medium:
     6:
     0.423,0.481,0.214,0.000,0.000:
0000
0000
0000
0000
,
0000
0000
0000
0000
,
0000
0000
0000
0000
,
0000
0000
0000
0000
,
0001
0000
1000
0001
1000
0000
1000
0000
,
0001
0000
0100
0000
,
0001
0000
1000
0001
1000
0000
0001
0000
,
1000
0000
0100
0000
,
1000
0000
0010
0000
,
0100
0000
0001
0000
,
0010
0000
0100
1000
,
0001
0100
0001
1000
,
0001
0000
0100
0000
0001
1000
0000
0001
,
0000
0000
1000
0010
,
0100
0000
0001
0000
1000
0100
0000
1000
,
0000
0001
0100
0010
,
1000
0000
0010
0000
0100
0001
0000
1000
,
0000
0001
0100
0010
,
1000
0000
0100
0000
1000
0001
0000
0100
,
0000
0001
0000
1000
0100
0000
1000
0000
,
0001
0000
0100
0000
0001
1000
0000
1001
,
0000
1000
0001
0100
,
0001
0000
1000
0000
0100
1000
0000
1001
,
0000
1000
0001
0100
,
0001
1001
1000
1001
,
1000
1001
1000
1001
,
0001
1001
1000
1001
,
0001
0000
1001
0000
0001
1000
0001
1000
,
0001
0000
1000
0000
0001
0000
1000
0100
,
0000
1100
0000
1000
0100
0000
0000
0000
,
1000
0000
0100
0000
0010
0000
0001
0010
,
0000
0011
0000
0001
0010
0000
0001
0000
,
0100
0000
0001
0000
1000
0100
0000
1001
,
0000
1100
0000
1000
0001
0000
0100
0000
,
0001
0000
1000
0000
0100
1000
0000
0001
,
0000
0100
0000
0001
1000
0000
0100
1000
,
0001
0000
1000
0000
0001
1000
0000
1001
,
0000
0101
0000
1001
0000
1000
0100
1000
,
0001
0000
0100
0000
0001
1000
0000
1100
,
0000
1001
0000
0101
0000
1000
0001
0100
,
0001
0000
1000
0000
0100
1000
0000
1001
,
0000
0100
0000
0001
1000
0000
0100
0000
,
1000
0000
0001
0000
1000
0001
0000
1000
,
0000
0001
0000
0100
0001
0000
1000
0000
,
0010
0000
0010
0000
1000
0010
0000
0100
,
0000
0001
0000
0010
0000
0000
0001
0000
,
0010
0000
0100
0000
1000
0010
0000
0100
,
0000
0001
0000
1000
0000
0000
0001
0000
,
0100
0000
0010
0000
1000
0100
0000
1000
,
0000
0010
0000
0100
0000
0000
0001
0000
,
1000
0000
1000
0000
0100
0000
1000
0001
,
0000
1000
0000
0001
0000
1000
0001
0000
,
1000
1000
0001
0001
,
0100
0010
1000
0100
,
0010
0001
0010
0100
,
1000
0000
0010
0000
1000
0001
1000
0001
,
1000
0001
0010
0100
,
1000
0100
1000
0010
,
0100
0000
0001
0000
1000
0001
1000
0000
,
0001
1000
0001
0000
1000
0001
1000
0000
,
0010
1000
0100
1000
,
0001
0010
0001
0100
,
0001
1000
0100
1000
,
0010
0100
0001
1000
,
0001
0000
1000
0100
1000
0000
0001
0000
,
0100
0000
0001
0100
0001
0000
1000
0000
,
0100
0000
1000
0000
0001
0010
0001
1000
,
0000
0010
0000
1001
0000
0000
0000
0000
;

//---------------dance-single - Renard----------------
#NOTES:
     dance-single:
     Renard:
     Easy:
     3:
     0.337,0.378,0.265,0.000,0.000: // measure 1
0000
0000
0000
0000
,  // measure 2
0000
0000
0000
0000
,  // measure 3
0000
0000
0000
0000
,  // measure 4
0000
0000
0000
0000
,  // measure 5
1000
0000
0001
1000
0000
0000
0000
0000
,  // measure 6
0001
0000
0100
0000
,  // measure 7
0001
0000
1000
0001
0000
0000
0000
0000
,  // measure 8
1000
0000
0100
0000
,  // measure 9
1000
0000
0001
1000
0000
0000
0000
0000
,  // measure 10
0001
0000
1000
0000
,  // measure 11
0001
0000
0100
0001
0000
1000
0000
0000
,  // measure 12
0001
0000
1000
0000
,  // measure 13
0001
0000
1000
0000
0001
1000
0000
0000
,  // measure 14
0001
0000
1000
0000
,  // measure 15
0001
0000
1000
0000
0001
1000
0000
0000
,  // measure 16
0001
0000
1000
0000
,  // measure 17
0010
0000
0100
0000
0010
0100
0000
0000
,  // measure 18
0010
0000
0100
0000
,  // measure 19
0010
0000
0010
0000
1000
0001
0000
1000
,  // measure 20
0000
0001
1000
0000
,  // measure 21
0001
1000
0001
0000
,  // measure 22
1000
0001
1000
0000
,  // measure 23
0001
1000
0001
0000
,  // measure 24
1000
0001
1000
0000
,  // measure 25
0010
0100
0010
1000
,  // measure 26
0010
0001
1000
0010
,  // measure 27
1000
0100
1000
0001
,  // measure 28
1000
0010
0100
1001
,  // measure 29
1100
1010
0000
1001
,  // measure 30
0000
0101
0000
0011
,  // measure 31
0000
1100
0000
1010
,  // measure 32
0000
0101
0000
0011
,  // measure 33
0000
1001
0000
1010
,  // measure 34
0000
1100
0000
1010
,  // measure 35
1000
0000
0001
0000
1000
0001
0000
1000
,  // measure 36
0000
0001
0000
1000
0000
0001
1000
0000
,  // measure 37
0001
1001
0000
1010
,  // measure 38
0000
0101
0000
0011
,  // measure 39
0000
1100
0000
1010
,  // measure 40
0000
0101
0000
0011
,  // measure 41
1000
0000
0001
0000
0100
0001
0000
1001
,  // measure 42
0000
1000
0100
1000
,  // measure 43
0010
0000
1000
0000
0001
1000
0000
0001
,  // measure 44
0000
1000
0001
0000
,  // measure 45
0100
0000
0100
0000
0001
1000
0000
0001
,  // measure 46
0000
0000
1000
0000
,  // measure 47
0001
0000
1000
0000
0100
1000
0000
0001
,  // measure 48
0000
0000
1000
0000
,  // measure 49
0001
0000
0100
0000
0001
1000
0000
0001
,  // measure 50
0000
0000
1000
0000
,  // measure 51
0100
0000
0100
0000
,  // measure 52
1000
0000
1000
0000
,  // measure 53
0001
0100
0010
0100
,  // measure 54
0001
0100
0010
0100
,  // measure 55
0001
0100
0010
0100
,  // measure 56
0001
0100
0010
0100
,  // measure 57
0001
1000
0100
1000
,  // measure 58
0001
1000
0100
1000
,  // measure 59
0100
0010
0100
1000
,  // measure 60
0100
0010
0100
1000
,  // measure 61
0010
1000
0001
0100
,  // measure 62
0001
1000
0010
1000
,  // measure 63
0001
0100
0001
1000
,  // measure 64
0100
1000
0001
0010
,  // measure 65
0001
1000
0100
1000
,  // measure 66
0010
0100
0001
1000
,  // measure 67
0001
0000
1000
0000
0001
1000
0000
1001
,  // measure 68
0000
1001
0000
1001
0000
0000
0000
0000
;
