#TITLE:Gala Valentine;
#SUBTITLE:;
#ARTIST:Sonitus Vir feat. Emoticon;
#GENRE:Baroque Bender;
#TITLETRANSLIT:;
#SUBTITLETRANSLIT:;
#ARTISTTRANSLIT:;
#CREDIT:;
#BANNER:gala.png;
#BACKGROUND:gala-bg.png;
#LYRICSPATH:;
#CDTITLE:;
#MUSIC:gala.ogg;
#OFFSET:0.000;
#SAMPLESTART:69.875;
#SAMPLELENGTH:11.000;
#SELECTABLE:YES;
#BPMS:0.000=157.770;
#STOPS:;
#BGCHANGES:;

//---------------dance-single - Renard----------------
#NOTES:
     dance-single:
     Renard:
     Challenge:
     11:
     0.873,0.985,0.373,0.000,0.603:
0000
0000
0000
0000
,
0000
0000
0000
0000
,
0000
0000
0000
0000
,
0000
0000
0000
0000
0000
0000
0000
0000
0000
0000
0000
0000
0000
0000
0000
0000
0000
0001
1000
0000
0001
1000
0000
0000
,
1001
1000
1010
0010
0110
0101
0011
0000
,
0110
0100
1100
0000
1010
0010
0011
0000
,
0101
0000
1100
0000
1010
0010
0110
0000
,
0100
0000
0000
0001
0000
0000
0100
0000
0000
0010
0000
0000
1000
0000
0000
0010
1000
0010
1000
0000
0000
0000
0000
0000
,
0001
0000
0000
0100
0000
0000
1000
0000
0000
0100
0000
0000
0001
0000
0000
0010
0000
0000
1000
0000
0000
0010
0000
0001
,
0010
0000
0000
0100
0000
0000
1000
0000
0000
0100
0000
0000
0001
0000
0000
0100
0000
0000
1000
0000
0000
0010
0000
0001
,
0010
0000
0000
0100
0000
0000
1000
0000
0000
0100
0000
0000
0001
0000
0000
0010
0000
0000
0100
0000
0000
1000
0000
0100
,
1000
0000
0000
0100
0000
0000
0010
0000
0000
0001
0000
0000
0100
0000
0000
0010
0000
1000
0010
0000
1000
0010
0000
0000
,
1000
0000
0000
0010
0000
0000
0001
0000
0000
0010
0000
0000
1000
0000
0000
0100
0000
0000
0001
0000
0000
0100
0000
1000
,
0100
0000
0000
0010
0000
0000
0001
0000
0000
0010
0000
0000
1000
0000
0000
0010
0000
0000
0001
0000
0000
0100
0000
1000
,
0100
0000
0000
0010
0000
0000
0001
0000
0000
0010
0000
0000
1000
0000
0000
0100
0000
0000
0010
0000
0000
0001
0000
0010
,
0001
0010
0100
1000
0100
0000
1111
0000
,
0100
0000
0000
1000
0000
0001
0100
0000
0000
0001
0000
0000
1000
0000
0000
0100
0000
1000
0001
0000
0000
0010
0000
0000
,
0001
0000
0000
0100
0000
0001
1000
0000
0000
0100
0000
0000
1000
0000
0000
0010
0000
1000
0100
0000
1000
0100
0000
0000
,
0010
0000
0000
0001
0000
1000
0010
0000
0000
1000
0000
0000
0001
0000
0000
0010
0000
0001
1000
0000
0000
0100
0000
0000
,
1000
0000
0000
0010
0000
1000
0001
0000
0000
0010
0000
0000
0001
0000
0000
0100
0000
0001
0010
0000
0001
0010
0000
0000
,
0001
0000
0000
0100
0000
0001
1000
0000
0000
0100
0000
0000
1000
0000
0000
0010
0000
0100
0001
0000
0000
0010
0000
0000
,
0100
0000
0000
1000
0000
0001
0100
0000
0000
0010
0000
0000
1000
0000
0000
0100
0000
0010
0001
0000
0010
0001
0000
0000
,
0001
0000
0000
0100
0000
0001
1000
0000
0000
0100
0000
0000
1000
0000
0000
0010
0000
0100
0001
0000
0000
0010
0000
0000
,
0100
0000
0000
1000
0000
0001
0100
0000
0000
0010
0000
0000
1000
0000
0000
1000
0000
0000
0001
0000
0010
0000
0000
0001
,
1000
0000
0000
1000
0000
0000
0100
0000
0000
0100
0000
0000
1000
0000
0000
1000
0000
0000
0001
0000
0100
0001
0000
0000
,
0100
0000
0000
0100
0000
0000
0010
0000
0000
0010
0000
0000
1000
0000
0000
1000
0000
0000
0100
0000
0010
0000
0000
0010
,
0001
0000
0000
0001
0000
0000
0010
0000
0000
0010
0000
0000
0001
0000
0000
0001
0000
0000
1000
0000
0010
1000
0000
0000
,
0010
0000
0000
0010
0000
0000
0100
0000
0000
0100
0000
0000
0001
0000
0000
0001
0000
0000
0010
0000
0100
0000
0000
0100
,
1000
0000
0000
0100
0000
0000
1000
0000
0000
0010
0000
0000
0100
0000
0000
0001
0000
0010
0001
0000
0010
0001
0000
0000
,
0100
0000
0000
0010
0000
0000
1000
0000
0000
0100
0000
0000
0010
0000
0000
0001
0000
0100
0001
0000
1000
0100
0000
0000
,
1100
1000
1010
0000
0110
0100
0101
0000
,
0001
0000
0100
0001
0000
0000
0100
0000
0000
0010
0000
1000
0000
0000
0001
0000
0000
0001
0100
0000
0001
0100
0000
0000
,
0001
0000
0100
0010
0000
1000
0100
0000
0010
0001
0000
0010
0100
0000
1000
0001
0000
0100
0001
0000
1000
0100
0000
0000
,
1000
0000
0010
0100
0000
0001
0010
0000
0100
1000
0000
0001
0100
0000
0001
1000
0000
0100
1000
0000
0010
0100
0000
0000
,
0001
0000
0010
0100
0000
1000
0001
0000
0100
0001
0000
1000
0100
0000
0010
0100
0000
1000
0001
0000
0010
0100
0000
0000
,
1000
0000
0000
0100
0000
0000
1100
0000
0000
0100
0000
0010
0000
0000
0010
0100
0000
0000
0011
0000
0000
0011
0000
0000
,
1000
0000
0010
0100
0000
0001
0010
0000
0100
1000
0000
0100
0010
0000
0001
1000
0000
0010
1000
0000
0001
0010
0000
0000
,
0001
0000
0100
0010
0000
1000
0100
0000
0010
0001
0000
1000
0010
0000
1000
0001
0000
0010
0001
0000
0100
0010
0000
0000
,
1000
0000
0100
0010
0000
0001
1000
0000
0010
1000
0000
0001
0010
0000
0100
0010
0000
0001
1000
0000
0100
0010
0000
0000
,
0001
0000
0000
0010
0000
0000
0011
0000
0000
0010
0000
0100
0000
0000
0100
0010
0000
0000
1100
0000
0000
1100
0000
0000
,
0010
0000
0001
0000
0000
0001
0010
0000
0000
0100
0000
1000
0100
0000
0010
0001
0000
0000
1001
0000
0000
1001
0000
0000
,
1001
0000
0000
1000
0000
0010
1000
0000
0000
0001
0000
0100
0001
0000
0000
1001
0000
0000
1001
0000
0000
0000
0000
0000
,
1000
0100
0001
0100
0010
0001
0010
0100
,
1000
0000
0000
0010
0000
0000
0100
0000
0000
0001
0000
0000
0100
0000
0000
1000
0000
0000
0100
0000
0001
0100
0000
0000
,
0010
1000
0100
0001
0100
0010
0001
0010
,
0100
0000
0000
1000
0000
0000
0100
0000
0000
0001
0000
0000
0100
0000
0000
1000
0000
0000
0010
0000
0100
0010
0000
0000
,
1000
0100
0001
0100
0010
0001
0010
0100
,
1000
0000
0000
0010
0000
0000
0100
0000
0000
0001
0000
0000
0100
0000
0000
1000
0000
0000
0100
0000
0001
0100
0000
0000
,
0010
1000
0100
0001
0100
0010
0001
0010
,
0011
0100
1010
0100
0100
1001
0110
0000
,
1000
0010
0100
0001
0010
1000
0010
0100
,
1000
0000
0000
0100
0000
0000
0001
0000
0000
0100
0000
0000
0010
0000
0000
0001
0000
0000
0010
0000
0100
0010
0000
0000
,
0100
1000
0010
0100
0001
0100
1000
0100
,
0001
0000
0000
0010
0000
0000
0100
0000
0000
1000
0000
0000
0100
0000
0000
0001
0000
0000
0100
0000
0001
0100
0000
0000
,
1000
0010
0100
0001
0010
1000
0010
0100
,
1000
0000
0000
0100
0000
0000
0001
0000
0000
0100
0000
0000
0010
0000
0000
0001
0000
0000
0010
0000
0100
0010
0000
0000
,
0100
1000
0010
0100
0001
0100
1000
0100
,
0001
0000
0100
0000
0000
0100
1000
0000
0000
0010
0000
0001
0000
0000
0001
0010
0000
0000
1000
0000
0001
1000
0000
0000
,
1001
0000
0000
0000
;

//---------------dance-single - Renard----------------
#NOTES:
     dance-single:
     Renard:
     Hard:
     8:
     0.668,0.667,0.427,0.142,0.099:
0000
0000
0000
0000
,
0000
0000
0000
0000
,
0000
0000
0000
0000
,
0000
0000
0000
0000
0000
0000
1000
0100
,
0012
0000
0100
0000
0103
0020
2000
0030
,
0010
0000
3020
0100
0100
0000
0032
0000
,
0203
0000
2300
0000
0010
0010
3020
0000
,
0230
0000
0001
0302
1000
1003
1001
0000
,
1010
0000
1100
0000
0010
0001
0100
0010
,
1000
0000
1000
0010
0100
0000
0100
0001
,
0010
0001
0100
0001
1000
0001
0100
0010
,
0000
0010
1000
0010
0100
0000
1001
0000
,
1010
0000
0101
0000
0011
0000
0001
0010
,
0100
1000
0010
0000
0100
0001
0100
0000
,
0010
1000
0001
0100
0010
1000
0100
0010
,
0000
0010
0001
0010
0100
0000
1001
0000
,
1000
1000
0100
0010
0001
0001
0010
0100
,
1000
1000
0010
0100
0001
0001
0100
0010
,
1000
0100
0010
0001
0100
0010
1000
0010
,
0001
0010
0100
1000
0100
0001
0100
0000
,
0010
0010
1000
0100
0010
0010
0001
0010
,
0100
0100
1000
0010
0100
0100
0001
0100
,
0010
1000
0100
0001
0100
0010
0001
0010
,
0100
1000
0010
0100
0001
1000
1001
0000
,
2010
0000
3001
0010
0100
1000
0010
0000
,
0101
1010
1100
0011
,
0102
0000
0013
0100
1000
0010
0100
0000
,
0101
0000
0110
0000
0010
1000
0010
0000
,
2010
0000
3001
0100
0010
1000
0100
0000
,
0110
0011
0110
1100
,
1000
0100
0010
0001
0010
0100
1000
0010
,
0100
0001
0100
1000
0100
0000
1001
0000
,
0001
0100
0010
1000
0100
0010
0001
0010
,
1000
0000
0000
0000
0100
1000
0000
0000
1100
0000
0000
0000
0011
0000
0000
0000
,
1000
0000
0100
0000
0010
0000
0001
1000
0000
1000
0001
0000
0100
0000
0010
0000
,
1000
0000
0001
0000
0100
0000
0001
1000
0000
1000
0001
0000
1001
0000
0000
0000
,
1000
0010
0100
0001
0010
0100
1000
0100
,
0001
0000
0000
0000
0010
0001
0000
0000
0011
0000
0000
0000
1100
0000
0000
0000
,
0001
0000
0010
0000
0100
0000
1000
0001
0000
0001
1000
0000
0010
0000
0100
0000
,
0001
0000
1000
0000
0010
0000
1000
0001
0000
0001
1000
0000
0010
0000
0010
0000
,
0100
0001
0000
0001
0100
0000
0100
0010
0000
0010
1000
0000
0100
0000
0010
0000
,
0001
0010
0000
0010
0100
0000
0100
1000
0000
1000
0001
0000
1001
0000
0000
0000
,
1000
0100
0010
0001
0010
0100
1000
0010
,
0100
0001
0100
1000
0100
0001
0010
0000
,
0100
1000
0010
0100
0001
0010
0100
1000
,
0100
0001
0100
0010
0001
0010
0100
0000
,
1000
0010
0100
0001
0100
0010
1000
0100
,
0001
0100
0010
0001
0010
0100
1000
0000
,
0010
0100
0001
0100
1000
0100
0001
0010
,
0100
1000
0010
0001
0010
0100
1000
0000
,
0100
0001
0010
0100
1000
0100
0001
0100
,
1000
0010
0100
0001
0100
0000
1010
0000
,
0101
0000
0100
0010
1000
0100
0010
0001
,
0010
0100
1000
0100
0001
0100
1000
0000
,
1010
0000
0011
0000
0001
0010
0100
1000
,
0100
0001
0010
0100
1000
0000
1100
0000
,
0011
0000
0001
0100
0010
1000
0100
0010
,
0001
0010
0100
1000
0001
0101
1001
0100
,
1010
0000
0000
0000
;

//---------------dance-single - Renard----------------
#NOTES:
     dance-single:
     Renard:
     Medium:
     6:
     0.424,0.508,0.252,0.000,0.000:
0000
0000
0000
0000
,
0000
0000
0000
0000
,
0000
0000
0000
0000
,
0000
0000
0000
0000
0000
0000
1000
0001
,
0100
0000
1010
0000
1000
0100
0010
0000
,
0011
1100
1001
0000
,
1010
0000
0101
0000
1000
0100
0010
0000
,
0001
0000
1000
0000
0001
1000
0001
0000
,
1000
0000
0010
0000
0100
0000
0001
1000
,
0000
0001
1000
0000
0100
0000
1000
0000
,
0001
0000
0010
0000
0100
0000
1000
0001
,
0000
1000
0001
0000
1000
0000
0010
0000
,
0100
0000
1001
0000
0100
0000
1000
0001
,
0000
0100
0001
0000
1000
0000
1001
0000
,
1000
0000
1001
0000
0100
0000
0010
1000
,
0000
0001
0100
0000
0001
0000
1001
0000
,
1000
0000
0100
1000
0100
0000
0000
0000
,
0010
0000
0001
0010
0001
0000
0000
0000
,
1000
0000
0010
1000
0010
0000
0000
0000
,
0100
0000
0001
0100
0001
0000
0000
0000
,
0000
1001
0000
1010
,
0000
0000
0101
0000
0000
1000
0001
0000
,
0000
0110
0000
1100
,
0000
0000
0011
0000
0000
1000
0001
0000
,
1000
0000
0010
0100
0001
0100
0010
0000
,
1000
0000
0010
0000
,
1000
0000
0100
0010
0100
1000
0100
0000
,
1000
0000
0010
0000
,
1000
0000
0001
0100
0001
0000
1000
0100
,
1000
1000
0001
0001
,
0100
0010
0000
1000
0000
0010
0000
0000
,
0100
0001
0001
1000
,
0100
0000
1000
0001
0100
0000
0001
1000
,
0100
0000
0100
1000
0001
0000
0001
0100
,
0001
1000
0100
1000
,
0001
0001
1000
1000
,
0010
0000
1000
0001
0010
0000
0010
0001
,
1000
0000
1000
0001
1000
0000
1000
0001
,
0100
0000
0100
0001
1000
0000
1000
0001
,
0010
0000
0001
1000
0010
0000
1000
0000
,
0001
0000
0001
1000
0001
0000
0001
1000
,
0001
1000
0001
1000
0001
1000
1001
0000
,
1001
0000
1000
0000
0010
1000
0010
0000
,
0100
0001
0100
0000
,
0001
0000
0010
0000
0100
1000
0100
0000
,
1000
0010
0100
0001
,
1000
0000
0001
0000
1000
0100
1000
0000
,
0001
0010
0001
0100
,
0001
0000
1000
0001
1000
0000
0100
0000
,
1000
0000
1001
0000
0000
1000
0001
0000
,
1000
0000
0010
0000
0100
0000
0001
0010
,
0001
0010
0100
1000
,
0100
0000
0010
0000
0001
1000
0010
0000
,
1100
0000
0010
0000
0001
0100
0001
0000
,
1001
0000
1000
0000
0100
1000
0010
0000
,
0101
0000
0010
0000
1000
0100
1000
0000
,
0010
0000
0100
0000
0001
0010
0100
1000
,
0100
0000
1000
0000
0001
1000
0001
0000
,
1001
0000
0000
0000
;

//---------------dance-single - Renard----------------
#NOTES:
     dance-single:
     Renard:
     Easy:
     3:
     0.362,0.413,0.230,0.000,0.000: // measure 1
0000
0000
0000
0000
,  // measure 2
0000
0000
0000
0000
,  // measure 3
0000
0000
0000
0000
,  // measure 4
0000
0000
0000
0000
0000
0000
0001
1000
,  // measure 5
0001
0001
1000
1000
,  // measure 6
0010
0010
0100
0100
,  // measure 7
0001
1000
0100
0010
,  // measure 8
0001
0000
1000
0000
0001
1000
0001
0000
,  // measure 9
1000
1100
0010
0011
,  // measure 10
0100
0101
1000
0000
,  // measure 11
0010
0010
1000
1000
,  // measure 12
0100
0000
0010
0000
,  // measure 13
0001
1001
1000
1010
,  // measure 14
0010
0110
0100
0101
,  // measure 15
0001
0000
1000
0001
,  // measure 16
1000
0000
0000
0000
0001
1000
0001
0000
,  // measure 17
1000
1000
0010
0100
,  // measure 18
0001
0010
0100
1000
,  // measure 19
0001
0001
0010
0100
,  // measure 20
1000
0010
0100
0001
,  // measure 21
1000
1000
0100
1000
,  // measure 22
0010
0100
0001
0010
,  // measure 23
0100
0100
1000
0001
,  // measure 24
0010
0001
0100
0010
,  // measure 25
1000
0000
1000
0000
0001
1000
0001
0000
,  // measure 26
1000
1000
0001
0001
,  // measure 27
1000
0000
1000
0000
0001
1000
0001
0000
,  // measure 28
1000
1000
0001
0001
,  // measure 29
1000
0000
1000
0000
0001
1000
0001
0000
,  // measure 30
1000
1000
0001
0001
,  // measure 31
1000
0001
0100
0010
,  // measure 32
1000
1000
0001
0001
,  // measure 33
1000
0000
0100
0000
,  // measure 34
0011
0100
1000
0000
,  // measure 35
0110
0000
0101
0000
,  // measure 36
0010
1000
0100
0000
,  // measure 37
1100
1000
1010
0000
,  // measure 38
0101
0001
0011
0000
,  // measure 39
1001
1000
1100
1000
,  // measure 40
1001
0001
0011
0000
,  // measure 41
0001
0000
1000
0001
1000
0000
0000
0000
,  // measure 42
0001
0000
1000
0001
1000
0000
0000
0000
,  // measure 43
0010
0010
0100
0100
,  // measure 44
0001
1000
0100
0010
,  // measure 45
0001
1000
0001
1000
,  // measure 46
0010
1000
0100
0010
,  // measure 47
0001
1000
0001
0100
,  // measure 48
0010
0100
0001
0100
,  // measure 49
0010
1000
0100
0010
,  // measure 50
1001
0000
1001
0000
0000
0001
1000
0000
,  // measure 51
0001
1000
0100
0010
,  // measure 52
0001
1000
0010
0000
,  // measure 53
0100
0001
0100
0010
,  // measure 54
1000
0000
0100
0000
1000
0100
1000
0000
,  // measure 55
0010
0100
0001
0010
,  // measure 56
0001
0001
1000
1000
,  // measure 57
0100
1000
0010
0100
,  // measure 58
0001
0000
1000
0000
0000
0001
1000
0000
,  // measure 59
1001
0000
0000
0000
;
