#TITLE:Gabbtastik;
#SUBTITLE:;
#ARTIST:Renard;
#TITLETRANSLIT:;
#SUBTITLETRANSLIT:;
#ARTISTTRANSLIT:;
#CREDIT:;
#BANNER:gab.img;
#BACKGROUND:gab-bg.img;
#LYRICSPATH:;
#CDTITLE:;
#MUSIC:gab.ogg;
#OFFSET:0.000;
#SAMPLESTART:61.724;
#SAMPLELENGTH:12.000;
#SELECTABLE:YES;
#BPMS:0.000=105.000,32.000=210.000,96.000=105.000,98.000=110.000,100.000=115.000,102.000=120.000,104.000=125.000,106.000=130.000,108.000=135.000,110.000=140.000,112.000=145.000,114.000=150.000,116.000=155.000,118.000=160.000,120.000=165.000,122.000=170.000,222.000=339.999,347.000=680.000,351.000=340.000;
#STOPS:222.000=0.529
;
#BGCHANGES:;
#GENRE:Cheesecore;

//---------------dance-single - Renard----------------
#NOTES:
     dance-single:
     Renard:
     Challenge:
     11:
     0.818,1.000,0.330,0.092,0.220: // measure 1
0000
0000
0000
0000
,  // measure 2
0000
0000
0000
0000
,  // measure 3
0000
0000
0000
0000
,  // measure 4
0000
0000
0000
0000
,  // measure 5
0010
1000
0100
2100
0000
0000
3010
0000
,  // measure 6
0001
0100
0010
0100
1000
0100
0010
0100
,  // measure 7
0001
0010
0100
0012
0000
0000
0103
0000
,  // measure 8
0001
1000
0100
0000
0100
1000
0001
0000
0100
0001
1000
0100
0010
0000
0001
1000
,  // measure 9
0001
0010
0001
0100
0010
1000
0100
1000
,  // measure 10
0010
0100
0001
0100
0010
1000
0010
0000
,  // measure 11
0010
1000
0100
0010
0001
0010
0100
1000
,  // measure 12
0010
0100
0001
0100
0001
0000
1010
0000
,  // measure 13
0100
0001
0100
0000
0010
1000
0010
0000
,  // measure 14
0100
0001
0010
0100
1000
0010
0100
0000
,  // measure 15
0001
0100
0010
1000
0100
0010
0001
0010
,  // measure 16
0100
1000
0100
0001
0100
1000
0010
0000
,  // measure 17
0100
0001
0100
1000
0100
0010
0100
0001
,  // measure 18
0010
0100
1000
0010
0100
0001
1000
0000
,  // measure 19
0001
0100
0010
1000
0100
1000
0010
0100
,  // measure 20
0001
0010
0001
0100
0010
1000
0001
0000
,  // measure 21
0001
0100
0010
0100
1000
0100
0010
1000
,  // measure 22
0010
0100
0001
0100
0010
1000
0010
0001
,  // measure 23
0010
1000
0010
1000
0010
1000
0010
1000
0001
0100
0001
0100
0001
0100
0001
0100
,  // measure 24
0010
1000
0010
1000
0001
0100
0001
0100
0010
1000
0001
1000
0001
1000
0001
1000
,  // measure 25
0001
0000
1000
0000
0010
0000
0000
0100
0001
0000
0100
0000
0010
0000
1000
0000
,  // measure 26
0100
0000
0010
0000
0001
0000
0000
0010
0100
0000
1000
0000
0010
0000
0100
0000
,  // measure 27
0001
0000
0100
0000
0010
0000
0000
1000
0100
0000
1000
0000
0010
0000
0100
0000
,  // measure 28
0001
0010
0100
1000
0010
0100
0001
1000
,  // measure 29
0100
0000
1000
0000
0001
0000
0000
0010
0001
0000
0100
0000
0010
0000
1000
0000
,  // measure 30
0100
0000
1000
0000
0010
0000
0000
0100
0001
0000
0100
0000
0010
0000
1000
0000
,  // measure 31
0100
0000
0010
0000
0001
0000
0000
0010
0100
0000
1000
0000
0010
0000
0100
0000
,  // measure 32
0001
0100
0001
0100
1000
0100
0010
1000
,  // measure 33
0010
0000
0100
0000
0001
0000
0000
0010
0100
0000
1000
0000
0010
0000
0100
0001
,  // measure 34
0100
0000
0010
0000
1000
0000
0000
0100
1000
0000
0010
0000
0100
0000
0001
0100
,  // measure 35
0001
0000
0100
0000
0010
0000
0000
1000
0100
0000
1000
0000
0010
0000
0100
0001
,  // measure 36
0100
0000
0010
0000
1000
0000
0000
0100
1000
0000
0010
0000
0100
0000
0000
0001
,  // measure 37
0100
0000
0010
0000
1000
0000
0000
0100
1000
0000
0010
0000
0100
0000
0001
0010
,  // measure 38
0001
0000
0100
0000
0010
0000
0000
1000
0010
0000
0100
0000
0001
0000
1000
0100
,  // measure 39
1000
0000
0010
0000
0100
0000
0000
0001
0100
0000
0010
0000
1000
0000
0001
1000
,  // measure 40
0001
0100
0001
0100
0010
1000
0010
1000
0010
1000
0100
0010
0001
0010
0100
0000
,  // measure 41
1001
0000
2010
0010
0100
0100
3010
0000
,  // measure 42
0101
0000
2001
0001
0010
0010
3100
0000
,  // measure 43
1001
0000
0102
1000
0010
1000
0103
0000
,  // measure 44
1010
0101
1100
0101
,  // measure 45
0102
0100
0010
0010
0103
0000
1010
0000
,  // measure 46
1002
1000
0100
0100
0013
0000
1001
0000
,  // measure 47
2010
0001
0100
0001
3010
0000
0101
0000
,  // measure 48
1010
0011
1010
0101
,  // measure 49
0001
0100
0010
1000
0100
0001
0100
0010
,  // measure 50
0001
0010
0100
1000
0010
0100
0001
0100
,  // measure 51
1000
0100
0010
1000
0010
0001
0010
0100
,  // measure 52
1000
0100
0001
0010
0100
0001
0100
1000
,  // measure 53
0010
0100
0001
0010
0100
1000
0010
0100
,  // measure 54
0001
0100
1000
0100
0010
0100
0001
1000
,  // measure 55
0001
0010
0100
1000
0100
0010
0100
0001
,  // measure 56
0101
MMMM
1100
MMMM
1010
MMMM
0001
0100
,  // measure 57
0001
0100
0001
0000
0000
0001
0100
0000
,  // measure 58
0010
0000
1000
0010
1000
0000
0010
0100
,  // measure 59
0010
0100
0010
0000
0000
0100
0001
0000
,  // measure 60
0100
0000
0010
1000
0010
0000
0100
0001
,  // measure 61
0100
0001
0100
0000
0000
0001
0100
0000
,  // measure 62
0010
0000
1000
0010
1000
0000
0100
0000
,  // measure 63
0010
0001
0010
0000
0100
0000
1000
0100
,  // measure 64
1000
0000
0100
0000
0010
0000
MMM1
M1M0
,  // measure 65
M0M1
M1M0
MMM1
0000
0000
0001
0100
0000
,  // measure 66
0010
0000
1000
0010
1000
0000
MM1M
M10M
,  // measure 67
M01M
M10M
MM1M
0000
0000
0100
0001
0000
,  // measure 68
0100
0000
0010
1000
0010
0000
M1MM
M001
,  // measure 69
M100
M001
M1MM
0000
0000
0001
0100
0000
,  // measure 70
0010
0000
1000
0010
1000
0000
0100
0000
,  // measure 71
0010
0001
0010
0000
0100
0000
1000
0100
,  // measure 72
1000
0000
0100
0010
0001
0000
0011
0000
,  // measure 73
0001
0010
0001
0000
0010
0000
0100
1000
,  // measure 74
0100
0000
1000
0001
1000
0000
1001
0000
,  // measure 75
0001
0100
0001
0000
0100
0000
0010
1000
,  // measure 76
0010
0000
0100
0001
0100
0000
1010
0000
,  // measure 77
0100
0010
1000
0000
0100
0000
0010
0001
,  // measure 78
0010
0000
0100
1000
0100
0000
0011
0000
,  // measure 79
0100
1000
0100
0000
1000
0000
0011
0000
,  // measure 80
1000
0100
1000
0000
0100
0000
1MM1
0000
,  // measure 81
M1M0
0001
M1M0
0001
M1M0
0000
0001
0000
,  // measure 82
0100
0010
1000
M1M1
,  // measure 83
1M0M
0010
1M0M
0010
1M0M
0000
0010
0000
,  // measure 84
0100
0001
1000
M1M1
,  // measure 85
0M1M
1000
0M1M
1000
0M1M
0000
0100
0000
,  // measure 86
0001
0000
1000
0000
0100
0000
0010
0001
,  // measure 87
0010
0000
1000
0100
1000
0000
0202
0000
,  // measure 88
0000
0000
0000
0000
0000
M0M0
1313
MMMM
;

//---------------dance-single - Renard----------------
#NOTES:
     dance-single:
     Renard:
     Hard:
     10:
     0.779,1.000,0.376,0.138,0.060:
0000
0000
0000
0000
,
0000
0000
0000
0000
,
0000
0000
0000
0000
,
0000
0000
0000
0000
,
1010
0100
0001
0011
0001
0100
1010
0100
,
0001
1000
0100
1000
1010
0000
0101
0000
,
1010
0100
0001
0011
0001
0100
1010
0100
,
0001
0100
0001
0000
1000
0100
1000
0000
0001
0100
0001
1000
0100
0010
0001
0000
,
1000
1000
0100
1000
0010
1000
0100
0001
,
0100
0100
1000
0100
0001
0100
0010
0100
,
1000
1000
0100
1000
0001
1000
0010
0001
,
0010
0010
1000
0010
0001
0010
0100
0000
,
0001
0001
0010
0001
0100
0001
0010
1000
,
0010
0010
0001
0010
1000
0010
0100
0010
,
0001
0001
0010
0001
1000
0001
0100
1000
,
0100
0100
0001
0100
0010
0100
1000
0000
,
0100
0010
1000
0100
0010
0100
1000
0000
,
0001
0010
0100
0010
0001
0100
0010
0000
,
1000
0010
0001
0000
1000
0100
0001
0000
,
0100
0010
1000
0100
0010
0001
1000
0000
,
0010
0100
0001
0010
0100
0010
0001
0000
,
1000
0100
0010
0100
1000
0010
0100
0000
,
0001
0100
1000
0000
0001
0010
1000
0000
,
0010
0000
0100
0000
0001
0100
0001
0000
0100
0001
0100
0000
0001
0000
1000
0000
,
1001
0000
1010
0000
0101
0000
0000
0001
0100
0000
0010
0000
1000
0000
0100
0000
,
1100
0000
0110
0000
0011
0000
0000
0001
0010
0000
0100
0000
1000
0000
0010
0000
,
0110
0000
0101
0000
1100
0000
0000
1000
0100
0000
0010
0000
0100
0000
0001
0000
,
0101
0110
1010
0000
1100
0101
0110
0000
,
0011
0000
0110
0000
1100
0000
0000
1000
0100
0000
0001
0000
0100
0000
0010
0000
,
0011
0000
0110
0000
1100
0000
0000
1000
0100
0000
1000
0000
0010
0000
0100
0000
,
0101
0000
0110
0000
1010
0000
0000
1000
0010
0000
0100
0000
0001
0000
1000
0000
,
0100
1000
0010
0100
0001
0000
1002
0000
,
0013
0010
0010
0100
0010
0001
0010
0100
,
0010
0010
0010
0100
0010
0001
0010
0100
,
0010
0010
0010
0100
0010
0001
0010
0100
,
0001
0100
0010
1000
0010
0001
0100
0010
,
0100
0100
0100
0010
0100
1000
0100
0010
,
0100
0100
0100
0010
0100
1000
0100
0010
,
0100
0100
0100
0010
0100
1000
0100
0010
,
1010
0022
1100
0033
,
0020
0000
1030
0100
0010
0001
0010
0100
,
2000
0000
3010
0100
0001
0100
0010
1000
,
0200
0000
0310
0001
0010
0100
1000
0010
,
0100
0001
0100
1000
0100
0010
1000
0010
,
0002
0000
0013
1000
0010
0100
0001
0010
,
0200
0000
1300
0100
0010
0001
0010
0100
,
2000
0000
3010
0100
0001
0100
0010
1000
,
0010
0100
0001
0100
0010
1000
0100
0010
,
0002
0000
0010
0013
0001
0010
0100
1000
,
0200
0000
1000
1300
0100
1000
0100
0010
,
0002
0000
0100
0103
0001
0100
0010
1000
,
0200
0000
1000
1300
0100
1000
0010
0100
,
0001
1000
0001
1000
0001
1000
0001
1000
,
0010
0100
0010
0100
0010
0100
0010
0100
,
0001
1000
0001
1000
0010
0100
0010
0100
,
0110
1010
0101
1000
,
0001
0100
0001
0000
0100
0000
0010
0000
,
1000
0100
0010
0001
,
1000
0100
1000
0000
0010
0000
0100
0000
,
0001
1000
0010
0100
,
0001
1000
0001
0000
1000
0000
0010
0000
,
0100
0001
1000
0100
,
0010
0001
0010
0000
0100
0000
1000
0100
,
1000
0010
0100
0001
,
1000
0001
1000
0000
0001
0000
0100
0000
,
0010
0000
1000
0001
1000
0000
0001
0000
,
0100
0010
0100
0000
0010
0000
1000
0000
,
0100
0000
0010
0001
0010
0000
0100
0000
,
1000
0010
1000
0000
0010
0000
0100
0001
,
0100
0010
1000
0100
,
1000
0001
1000
0000
0001
0100
0001
0000
,
1000
0100
0010
0001
,
0010
0000
0001
0000
0100
0001
0100
0000
,
0010
1000
0100
1000
,
0010
0000
0100
0000
0000
0100
0001
0000
,
1000
0001
1000
0100
,
0010
0000
0001
0000
0100
0001
0100
0000
,
0010
1000
0100
1000
,
0001
0000
0100
0000
0000
0100
0001
0000
,
1000
0100
1000
0000
0001
0000
1000
0100
,
1000
0100
1000
0000
0000
1000
0100
0000
,
0010
0000
0001
0000
0100
0000
0001
0100
,
0001
0100
0001
0000
0000
0001
1000
0000
,
0100
0000
0010
0000
0001
0000
1000
0001
,
1000
0001
1000
0000
0001
0000
1000
0001
,
1000
0001
1000
0000
0001
0000
1000
0001
,
1000
0000
0001
0100
0001
0000
2200
0000
,
0000
0000
0000
3311
;

//---------------dance-single - Renard----------------
#NOTES:
     dance-single:
     Renard:
     Medium:
     7:
     0.460,0.564,0.266,0.000,0.000:
0000
0000
0000
0000
,
0000
0000
0000
0000
,
0000
0000
0000
0000
,
0000
0000
0000
0000
,
1000
0001
0100
0010
0000
0000
0010
0000
,
1000
0001
1000
0100
1000
0000
0010
0000
,
0100
0000
0100
0001
0000
0001
0010
0100
,
1000
0001
1000
0010
0100
0000
1001
0000
,
1000
0000
0001
0000
0100
0000
0010
0100
,
0010
1000
0100
0000
,
0010
0000
0001
0000
0100
0000
0001
1000
,
0001
1000
0010
0100
,
0001
0000
1000
0000
0100
0000
1000
0001
,
1000
0010
0100
0000
,
0001
0000
1000
0000
0100
0000
1000
0001
,
1000
0000
1001
0000
,
0001
0000
0100
0000
0010
0000
1000
0010
,
1000
0001
0100
0000
,
0001
0000
1000
0000
0100
0000
1000
0001
,
1000
0010
1000
0000
,
0001
0000
0100
0000
0001
0000
1000
0001
,
1000
0100
1000
0001
,
0010
0001
1000
0010
,
1000
0001
0100
0010
1000
0000
0001
0000
,
1001
1000
0010
0100
,
0101
0010
1000
0100
,
0011
0100
1000
0010
,
0101
0010
1100
0010
,
1001
0010
0100
0001
,
1100
0010
0001
0100
,
1010
0100
0001
0010
,
1001
0100
1010
0101
,
0001
0100
0001
0000
1000
0000
0100
0000
,
0010
0001
0010
0000
0100
0000
1000
0000
,
0010
1000
0010
0000
1000
0000
0010
0000
,
0100
0001
0100
0000
0010
1000
0010
0000
,
1000
0100
1000
0000
0001
0000
0010
0000
,
0100
1000
0100
0000
0010
0000
0001
0000
,
0100
0001
0100
0000
0010
0000
1000
0000
,
0100
1000
1001
0000
,
1000
0000
0001
0000
0100
0010
0000
0000
,
1000
0000
0100
0000
0010
0001
0000
0000
,
1000
0000
0010
0000
0001
0100
0001
0000
,
0100
0000
0010
0000
1000
0010
1000
0000
,
0010
0000
1000
0000
0001
0100
0000
0000
,
0100
0000
0001
0000
0010
1000
0000
0000
,
0001
0000
1000
0000
0100
1000
0000
0000
,
0001
0010
0100
1000
,
0001
0000
0100
0000
0010
1000
0000
0010
,
0100
0000
0001
0000
0100
0010
0000
1000
,
0100
0000
0010
0000
0001
1000
0000
0001
,
1000
0010
0101
1010
,
1000
0000
0001
0000
0100
0001
0000
1000
,
0100
0000
0010
0000
0001
1000
0000
0001
,
0100
0000
0000
0010
1000
0000
0000
0100
,
1000
0010
1001
1000
,
0001
0100
0000
0010
,
1000
0100
0000
1000
,
0010
0100
0000
0001
,
0100
0010
0000
1000
,
0100
1000
0000
0001
,
0100
0001
0000
1000
,
1000
0001
0001
0100
,
0100
0010
0010
1000
,
0100
1000
0000
0001
,
0010
0001
0000
0100
,
0001
0100
0000
0010
,
1000
0010
0000
1000
,
0100
0010
0000
0001
,
0010
0100
0000
1000
,
0001
1000
0001
0100
,
0000
0001
0000
1000
,
0000
1100
0000
0010
,
0001
0100
0000
0010
,
0000
1001
0000
1000
,
0100
1000
0000
0001
,
0000
0011
0000
0001
,
1000
0010
0000
1000
,
0000
0101
0000
0010
,
1000
0100
0000
1000
,
0000
0011
0000
0001
,
0100
0010
1000
0100
,
0000
0011
0000
0001
,
0100
0010
1000
0100
,
0000
1001
0000
0010
,
1000
1001
0000
0101
,
0000
1010
0000
1001
,
0000
0000
0000
0110
;

//---------------dance-single - Renard----------------
#NOTES:
     dance-single:
     Renard:
     Easy:
     5:
     0.459,0.684,0.596,0.000,0.000:
0000
0000
0000
0000
,
0000
0000
0000
0000
,
0000
0000
0000
0000
,
0000
0000
0000
0000
,
1010
0101
1000
0001
,
0100
0010
1000
0100
,
0011
1100
1000
0010
,
0101
1010
0001
0100
,
0001
1000
0100
0010
,
0001
0010
0100
1000
,
0010
0100
0001
1000
,
0001
0100
0110
0000
,
1000
0010
0100
0001
,
0010
0100
1000
0010
,
0100
0001
0100
0010
,
1000
0000
0110
0000
,
1000
1000
0010
0010
,
0100
0001
0010
0000
,
0100
0100
1000
1000
,
0010
0100
0001
1000
,
0100
0100
0010
0010
,
0001
0001
1000
1000
,
0001
1000
0010
0100
,
0010
1000
1001
1001
,
1010
0101
1100
0010
,
0011
1100
1010
0001
,
0110
1001
1100
0010
,
0101
0010
1100
0010
,
1001
0101
1010
0100
,
1001
0010
1100
0001
,
1001
0000
1100
0000
,
0011
1001
0100
0010
,
1000
1000
0010
0100
,
0001
0001
0010
0100
,
1000
1000
0100
0010
,
0001
0001
0100
0010
,
1000
1001
0001
1001
,
1000
1010
0010
0110
,
0100
0101
0001
0011
,
0010
0110
1100
0000
,
1010
0101
1000
0001
,
0110
1001
1000
0010
,
0101
1001
1000
0100
,
0011
0011
0110
1100
,
1010
1010
0100
0001
,
0011
0011
0100
1000
,
1010
1010
0110
0110
,
0101
1001
1010
1001
,
1000
0100
0010
0010
,
0001
0010
0100
0100
,
1000
0010
0100
0100
,
0001
0100
0010
0010
,
1000
0100
1000
0001
,
0010
0001
1000
0010
,
1000
0001
0100
0001
,
1001
1001
1001
1000
,
0100
1000
0000
0010
,
0000
0100
0000
0001
,
1000
0001
0000
0100
,
0000
0010
0000
1000
,
0100
1000
0000
0010
,
0000
0100
0000
0001
,
0000
0001
0000
1000
,
0000
1000
0000
0100
,
1000
0100
0000
1000
,
0000
0010
0000
0100
,
0001
0100
0000
0010
,
0000
1000
0000
0100
,
1000
0100
0000
0010
,
0001
0010
0000
0100
,
0000
1000
0000
0001
,
1000
0001
0000
1000
,
0010
1000
0000
0001
,
0100
0001
0000
1000
,
0100
1000
0000
0001
,
0010
0001
0000
1000
,
0010
1000
0000
0001
,
0100
0001
0000
1000
,
0000
0100
0000
0010
,
0000
0001
0000
1000
,
0010
1000
0000
0001
,
0100
0001
0000
1000
,
0100
1000
0000
0001
,
0010
0001
0000
1000
,
0010
1000
0010
1000
,
0000
0010
0000
0001
,
0100
0001
0000
1001
,
0000
0000
0000
1010
;
