#TITLE:Fur Elise;
#SUBTITLE:;
#ARTIST:DJ Mystic;
#TITLETRANSLIT:;
#SUBTITLETRANSLIT:;
#ARTISTTRANSLIT:;
#CREDIT:;
#BANNER:fur elise.png;
#BACKGROUND:fur elise-bg.png;
#LYRICSPATH:;
#CDTITLE:;
#MUSIC:fur elise.ogg;
#OFFSET:0.000;
#SAMPLESTART:21.708;
#SAMPLELENGTH:12.000;
#SELECTABLE:YES;
#BPMS:0.000=143.200;
#STOPS:;
#BGCHANGES:4.000=musicbeethoven=0.800=1=0=1,
20.000=fur elise-bg.png=1.000=1=0=1,
24.000=discobeethoven=1.400=0=0=1,
52.000=beethovensign=1.000=0=1=1,
55.000=beethovensign=1.000=0=1=1,
56.000=concerthallscroll=0.800=0=0=1,
84.000=sheetmusic=1.000=0=0=1,
100.000=pianoscroll=1.000=0=0=1,
116.000=beethovensign=1.000=0=1=1,
117.000=beethovensign=1.000=0=1=1,
118.000=beethovensign=1.000=0=1=1,
119.000=beethovensign=1.000=0=1=1,
120.000=musicbeethoven=1.400=0=0=1,
136.000=discobeethoven=1.400=0=0=1,
148.000=sheetmusic=1.000=0=0=1,
152.000=pianoscroll=1.000=0=0=1,
156.000=concerthallscroll=1.000=0=0=1,
160.000=sheetmusic=1.000=0=0=1,
164.000=beethovensign=1.000=0=1=1,
165.000=beethovensign=1.000=0=1=1,
166.000=beethovensign=1.000=0=1=1,
167.000=beethovensign=1.000=0=1=1,
168.000=discobeethoven=1.400=0=0=1,
180.000=notesfall.avi=1.000=0=0=1,
180.500=notestunnel.avi=1.000=0=0=1,
181.000=notesfall.avi=1.000=0=0=1,
181.500=notestunnel.avi=1.000=0=0=1,
182.000=notesfall.avi=1.000=0=0=1,
182.500=notestunnel.avi=1.000=0=0=1,
183.000=notesfall.avi=1.000=0=0=1,
183.500=notestunnel.avi=1.000=0=0=1,
184.000=pianobeethoven=1.600=0=0=1,
244.000=beethovensign=1.000=0=0=1,
99999=-nosongbg-=1.000=0=0=0 // don't automatically add -songbackground-
;

//---------------dance-single - Renard----------------
#NOTES:
     dance-single:
     Renard:
     Hard:
     8:
     0.609,0.490,0.019,0.076,0.038: // measure 1
0000
0000
0000
0000
,  // measure 2
0000
0000
0000
0000
,  // measure 3
0001
1000
0100
0010
0001
0100
0010
1000
,  // measure 4
0001
1000
0100
0010
0001
1000
0001
0010
,  // measure 5
0100
1000
0001
0100
0010
1000
0100
0010
,  // measure 6
0011
0000
0000
0000
1000
0001
1000
0001
,  // measure 7
1000
0000
0001
0000
0100
0000
0010
1000
0000
0000
0001
0000
0100
0000
0010
1000
,  // measure 8
0000
0000
0100
0000
0010
0000
0001
1000
0000
0000
0100
0000
0010
0000
0001
0000
,  // measure 9
0100
0010
1000
0100
1000
0001
0010
0100
,  // measure 10
1000
0000
0001
0000
0100
0000
0001
0000
1000
0000
0100
0000
1000
0000
0001
0100
,  // measure 11
0000
0000
0010
0000
1000
0000
0100
0010
0000
0000
0001
0000
0010
0000
0100
1000
,  // measure 12
0000
0000
0001
0000
0100
0000
0010
1000
0000
0000
0100
0000
0010
0000
0001
0000
,  // measure 13
0010
0100
1000
0001
0100
0010
1000
0100
,  // measure 14
0001
0010
0001
0010
0001
0010
1000
0100
,  // measure 15
0010
0001
0100
0010
1000
0100
0010
0100
,  // measure 16
0001
0100
1000
0010
0100
0001
0100
0010
,  // measure 17
1000
0010
0100
0001
0010
0100
1000
0100
,  // measure 18
0001
0010
0001
0010
0001
0010
1000
0100
,  // measure 19
0010
0001
0100
0010
1000
0100
1000
0100
,  // measure 20
0010
0100
0001
0100
1000
0010
0100
0001
,  // measure 21
0100
1000
0100
0001
0010
0100
1000
0001
,  // measure 22
1000
0001
1000
0100
0001
0000
0100
1000
,  // measure 23
0010
0001
1000
0100
0001
0000
0001
0010
,  // measure 24
0100
0000
0001
0100
1000
0000
0010
0001
,  // measure 25
1000
0000
0100
0001
1000
0100
0001
0010
,  // measure 26
1000
0010
1000
0010
1000
0001
0010
0100
,  // measure 27
1000
0100
1000
0010
0100
0010
0100
0001
,  // measure 28
0010
0100
0010
0001
1000
0100
0010
0100
,  // measure 29
1000
0001
0100
0001
1000
0100
1000
0001
,  // measure 30
1000
1000
0001
0001
1000
1000
0010
0010
,  // measure 31
0100
0001
0010
0100
0000
0000
1000
1000
,  // measure 32
0010
0100
0001
0100
0000
0000
0010
0010
,  // measure 33
1000
0100
1000
0001
0010
0001
0100
0000
,  // measure 34
0010
0010
1000
1000
0001
0001
0010
0001
,  // measure 35
0100
0010
1000
0100
0000
0100
0100
0100
,  // measure 36
1000
0010
0100
0001
0000
0010
0010
0010
,  // measure 37
0001
0100
0010
1000
0001
1000
0100
0010
,  // measure 38
0002
0000
1000
0000
0200
0003
0010
0000
,  // measure 39
2000
0300
0001
0000
0020
3000
0100
0000
,  // measure 40
0002
0030
1000
0000
0200
0003
0010
0000
,  // measure 41
2000
0300
0001
0000
0020
3000
0100
0000
,  // measure 42
0031
0001
0010
0100
1000
1000
0010
0100
,  // measure 43
0001
0100
0010
1000
0100
0010
0001
0010
,  // measure 44
0100
1000
0100
0010
0100
1000
0010
0000
,  // measure 45
0100
0000
0100
0000
0001
0000
1000
0100
0000
0000
0100
0000
1000
0000
0100
0000
,  // measure 46
0001
0010
0001
0010
0001
0010
1000
0100
,  // measure 47
0010
0001
0100
0010
1000
0010
0001
0010
,  // measure 48
0100
1000
0100
0001
0010
0100
1000
0100
,  // measure 49
0001
0100
1000
0010
0001
0010
1000
0010
,  // measure 50
0100
0001
0010
0100
0001
0100
1000
0010
,  // measure 51
0100
0001
0010
0100
0001
0100
0010
0001
,  // measure 52
1000
0100
0010
1000
0010
0100
1000
0001
,  // measure 53
0010
0001
1000
0100
1000
0001
0010
0100
,  // measure 54
1000
0010
0001
0010
1000
0010
0001
0010
,  // measure 55
0100
1000
0100
0001
0010
1000
0010
0100
,  // measure 56
1000
0100
0001
0100
1000
0010
0100
0001
,  // measure 57
0010
0100
1000
0010
0100
0001
1000
0100
,  // measure 58
0001
0010
0001
0010
0001
0010
1000
0100
,  // measure 59
0010
0001
0010
0100
1000
0010
0100
0001
,  // measure 60
0100
1000
0100
0010
1000
0010
0001
0010
,  // measure 61
0100
1000
0100
0001
0010
0100
1000
0100
,  // measure 62
1001
0000
0000
0000
;

//---------------dance-single - BlueChaos----------------
#NOTES:
     dance-single:
     BlueChaos:
     Challenge:
     10:
     0.770,0.721,0.302,0.085,0.425:
0000
0000
0000
0000
,
0000
0000
0000
0000
,
1000
0100
0020
0001
0031
1000
1010
1000
,
0001
0100
0020
1000
1030
0100
0011
0001
,
2002
0000
0000
0000
0000
0000
0000
3003
,
1001
0000
0000
0000
0000
0000
0000
0000
0001
0000
0200
0000
0010
0000
0300
0010
,
1000
0000
0100
0000
0010
0000
0000
0001
0100
0000
0001
0000
0010
0000
0000
0001
,
1000
0000
0001
0000
1000
0000
0001
1000
0001
0000
1000
0000
0010
0000
0100
0000
,
0001
0000
1000
0100
1000
0000
0100
1000
0000
1000
0010
0000
0100
0000
0001
0000
,
1000
0000
0001
0100
0010
0000
0010
1000
0100
0000
1000
0000
0010
0000
1000
0010
,
0100
0000
0001
0000
1000
0000
0001
0010
0100
0000
0010
0000
0001
0000
1000
0001
,
0100
0000
0010
0000
1000
0000
0100
0010
0000
0000
0001
0000
1000
0000
0001
0000
,
1000
0001
1000
0000
0001
1000
0001
0000
1000
0001
1000
0000
0001
1000
0001
0000
,
1000
0100
0001
0100
1000
0100
0001
0100
,
1000
0000
0001
0000
0101
0000
0001
0100
0000
0100
0020
0000
1000
0000
1030
0000
,
1001
0000
0001
0000
1000
0000
0001
0010
0000
0010
0100
0000
2000
0000
0001
0000
,
3001
0000
0100
0001
0100
0000
0001
0100
0000
0010
1000
0000
0001
0000
0010
0000
,
0001
0100
1000
0100
0001
0100
1000
0100
,
0001
0000
0010
0000
0011
0000
0001
1000
0000
0100
0020
0000
0001
0000
0031
0000
,
1001
0000
0001
0100
0010
0000
0100
0000
0001
0000
0020
0000
0001
0000
0031
0000
,
1001
0000
1000
0000
0001
0000
0100
0010
0000
0100
0001
0000
0100
0000
0001
1000
,
0100
0000
1000
0000
0010
0000
0100
0000
0001
0000
0010
0001
0100
0000
0010
1000
,
0100
0000
1000
0000
0100
0000
0010
0000
0001
0000
1000
0001
0100
0000
0001
0100
,
0010
0000
0100
0000
0001
0000
0100
0000
0010
0000
1000
0100
0010
0000
0100
1000
,
0001
0000
1000
0000
0001
0000
0100
0000
0010
0000
0100
0001
0010
0000
0100
1000
,
0010
0001
0010
1000
0010
0001
0010
1000
,
0010
0000
1000
0000
0001
0000
0010
0001
0000
0010
0001
0000
0010
0000
0010
0000
,
0011
0000
0001
0000
0100
0000
0001
1000
0000
0001
1000
0000
0001
0000
0001
0000
,
0101
0000
0001
0100
0001
0000
1000
0010
1000
0000
0001
0010
0001
0000
1000
0010
,
1000
0000
0001
0000
0101
0000
0000
0001
1000
0000
0001
0000
0011
0000
0000
1000
,
0010
1000
1001
0100
0000
0100
0100
0100
,
0001
0000
1000
0100
0010
0000
0011
0000
0000
0000
0001
0000
0001
0000
0001
0000
,
0010
0000
0100
1000
0001
0000
1001
0000
0000
0000
0001
0000
0001
0000
1000
0000
,
0010
0000
0000
1000
0010
0000
1000
0000
1001
0000
0100
0000
0100
0000
0100
0000
,
0001
0000
1000
0010
0100
0000
0110
0000
0000
0000
0100
0000
0100
0000
0100
0000
,
0001
0000
1000
0010
0100
0000
0101
0000
0000
0000
0001
0000
0001
0000
0001
0000
,
1000
0000
0001
1000
0100
0000
1100
0000
0100
0000
0010
0000
0001
0000
0010
0000
,
0100
0000
1000
0000
0001
0000
0100
0000
0010
0000
1000
0010
0100
0000
0010
1000
,
0100
0000
1000
0000
0100
0000
0010
0000
0001
0000
0100
0010
1000
0000
0001
0010
,
0100
0000
0010
0000
0001
0000
1000
0000
0010
0000
1000
0001
0100
0000
0001
0100
,
0010
0000
0100
0000
0001
0000
1000
0000
0100
0000
1000
0000
1001
0000
0000
0001
,
0100
0000
0001
0000
0101
0000
0000
0100
0010
0000
0100
0000
0110
0000
0000
0010
,
1000
0010
1010
0100
0000
1000
0100
0001
,
0100
1000
0100
1001
0001
0100
0001
1001
,
0001
0000
1000
0001
0100
0000
0010
0000
0100
0000
0010
0100
0001
0000
1000
0000
,
0001
0100
1000
0001
0010
1000
0001
0010
,
0100
0000
1000
0100
0010
0000
0100
0010
0001
0000
0010
0001
1000
0000
0001
0100
,
0010
0000
0100
0001
1000
0000
0001
0010
0100
0000
0010
0100
1000
0000
0100
1000
,
0001
0000
1000
0001
0100
0000
0001
1000
0100
0000
1000
0001
0010
0000
0011
0000
,
0010
0001
0100
1000
0100
0010
0100
0001
,
1000
0000
0001
0100
0010
0000
0100
0010
1000
0000
0010
1000
0001
0000
1000
0001
,
0010
0000
0001
0010
0100
0000
0010
0001
1000
0000
0001
0100
0010
0000
1000
0010
,
0100
0000
0001
0000
1001
0000
0001
0100
0010
0000
0100
0000
1001
0000
0001
0010
,
0100
0010
0001
0100
1000
0100
0001
1000
,
0100
1000
0010
0001
0010
0100
0001
0010
,
1000
0010
0100
1000
0100
0010
0001
1000
,
0010
0100
1000
0100
0001
0010
0001
0010
,
1000
0010
1000
0010
0100
0010
0100
0010
,
0001
0000
0100
0000
0010
0000
0100
0000
0001
0000
1000
0100
1000
0100
1000
0000
,
1001
0000
0001
0000
0100
0000
0010
0000
0100
0000
0001
0100
0001
0100
0001
0000
,
1001
1000
0100
0001
0100
1000
0010
0100
,
1001
0000
0000
0000
;

//---------------dance-single - BlueChaos----------------
#NOTES:
     dance-single:
     BlueChaos:
     Medium:
     6:
     0.458,0.550,0.198,0.350,0.000:
0000
0000
0000
0000
,
0000
0000
0000
0000
,
0000
0000
0000
0000
,
0000
0000
0000
0000
,
0000
0000
0000
0000
,
2002
0000
3003
0000
0001
1000
0001
0000
,
1000
0010
1000
0000
0001
1000
0001
0000
,
1000
0100
1000
0000
0001
1000
0001
0000
,
1000
0010
0100
0000
0010
0100
0000
0100
,
0001
0000
1001
0000
0001
0100
0001
0000
,
1000
0001
1000
0000
0001
0010
0001
0000
,
1000
0001
1000
0001
0000
1000
0000
0001
,
1001
0110
1001
0110
,
1001
1000
0001
1000
0001
1000
0001
1000
,
1001
0000
1000
0000
0000
0010
1000
0010
,
1000
0000
0010
0000
0000
0100
0001
0100
,
0001
1000
1001
1000
,
0001
1000
0001
1000
0001
1000
0001
1000
,
0100
0000
1000
0000
0000
0001
0010
0001
,
0010
0000
0001
0000
0000
1000
0010
1000
,
0010
0000
1000
0000
0000
0001
0010
0100
,
1000
0000
1000
0000
1000
0000
1000
0100
,
0010
0000
0010
0000
0010
0000
0010
0001
,
0100
0000
0100
0000
0100
0000
0100
0010
,
1000
0000
1000
0000
1000
0000
1000
0010
,
2000
3200
0320
0032
,
1003
0001
1000
0000
0001
0000
0010
0001
,
0010
0000
0001
0000
1000
0000
0010
1000
,
0010
0000
1000
0000
0001
0000
0010
0001
,
2000
3010
2000
3001
,
2000
0000
3100
1000
0000
0000
0100
0100
,
0000
0010
0001
0010
0000
0000
0001
0010
,
0000
0010
0001
1000
0000
0000
0002
0000
,
1003
0002
0013
0002
,
0103
0010
0000
0010
1000
0000
0000
0000
,
1000
0001
0000
0001
0100
0000
0000
0000
,
0001
0100
0000
0100
0020
1000
2030
0000
,
0002
0000
3000
0000
0000
0000
2003
3200
,
0020
0300
0000
0000
0001
0000
0000
0000
0001
0000
0000
0000
0032
0000
0203
0000
,
0020
0300
0000
0000
1000
0000
0000
0000
1000
0000
0000
0000
2030
0000
3002
0000
,
0200
0003
0000
0000
0010
0000
0000
0000
0010
0000
0000
0000
0310
0000
0000
0000
,
1000
0001
1000
0000
0001
0010
0001
0000
,
1000
0001
0000
0001
0100
0000
0000
0000
,
0001
0100
0000
0100
0010
0000
0010
0010
,
1000
0001
2000
0000
3010
1000
0020
0000
,
0230
0302
2003
3200
,
0310
0000
0010
0000
0010
0000
0001
0010
,
0001
0000
0001
0000
0001
0000
0001
1000
,
0100
0000
0100
0000
0100
0000
0100
1000
,
1010
1010
1001
1001
,
1000
0001
1000
0000
1000
0000
1000
0100
,
0010
0000
0010
0000
0010
0000
0010
0001
,
0020
0000
0001
0000
0100
0000
0031
0100
,
0020
0000
1000
0000
1000
0000
1030
0100
,
0020
0000
0001
0000
0001
0000
0031
0010
,
0200
0000
0010
0000
0010
0000
0310
0001
,
0200
0000
0010
0000
0010
0000
0310
1000
,
1001
0110
1001
0110
,
1001
0000
1000
0000
0001
0000
1000
0001
,
0010
0000
0001
0000
0010
0000
0001
1000
,
1001
0010
1001
0100
,
2002
3003
0000
0000
;

//---------------dance-single - BlueChaos----------------
#NOTES:
     dance-single:
     BlueChaos:
     Easy:
     3:
     0.230,0.259,0.057,0.000,0.000:
0000
0000
0000
0000
,
0000
0000
0000
0000
,
1000
0000
0000
0000
,
0001
0000
0000
0000
,
0100
0000
0000
0000
,
1001
0000
0000
0000
,
1000
0000
1000
0000
,
1000
0000
0000
0000
,
0001
0000
0001
0000
,
0001
0000
0100
0000
,
0100
0000
0100
0000
,
0010
0000
0000
0000
,
1000
0001
1000
0001
,
1001
0000
0000
0000
,
1000
0100
0010
0000
,
0010
0100
1000
0000
,
1000
0001
1000
0000
,
0001
0001
0001
0001
,
0100
0010
0100
0000
,
0001
1000
0001
0000
,
1000
0100
0010
0000
,
0100
0000
0000
1000
,
0010
0000
0000
1000
,
0001
0000
0000
1000
,
0001
0000
0000
0000
,
0001
0100
0010
0100
,
0010
0010
0010
0000
,
0100
0100
0100
0000
,
0001
1000
0001
1000
,
0100
0000
0100
0000
,
0100
1000
0010
0000
,
0100
0100
0001
0000
,
1000
0001
1000
0000
,
0001
0001
1000
1000
,
0010
0100
0001
0000
,
1000
0100
0010
0000
,
0010
0100
1000
0001
,
0001
0000
0000
1000
,
0010
0100
0001
1000
,
0100
0000
0000
1000
,
0100
0010
0001
1000
,
0001
0001
0001
0100
,
0010
0100
0001
0000
,
1000
0001
1000
0000
,
1001
0000
0110
0000
,
1000
0001
1000
0001
,
0100
0100
0100
0000
,
0010
0010
0010
0000
,
1000
1000
1000
0000
,
0001
0010
0100
0010
,
0001
0000
0000
1000
,
0010
0100
0100
0001
,
1000
0001
1000
0001
,
1001
0000
0000
1000
,
0001
1000
1000
0000
,
0100
1000
0100
0010
,
0010
0001
0100
0010
,
0100
0100
0100
0100
,
0001
0000
0000
1000
,
0001
0000
0000
1000
,
0010
1000
0001
1000
,
1001
0000
0000
0000
;
