#TITLE:Fuego;
#SUBTITLE:;
#ARTIST:Bond;
#GENRE:Orchestral;
#TITLETRANSLIT:;
#SUBTITLETRANSLIT:;
#ARTISTTRANSLIT:;
#CREDIT:;
#BANNER:fuego.png;
#BACKGROUND:fuego-bg.png;
#LYRICSPATH:;
#CDTITLE:;
#MUSIC:fuego.ogg;
#OFFSET:0.000;
#SAMPLESTART:14.505;
#SAMPLELENGTH:11.000;
#SELECTABLE:YES;
#BPMS:0.000=132.000;
#STOPS:;
#BGCHANGES:;

//---------------dance-single - Renard and Ryvard----------------
#NOTES:
     dance-single:
     Team Fuego:
     Challenge:
     14:
     1.000,1.000,0.335,0.143,1.000:
0000
0000
0000
0000
,
0000
0000
0000
0000
,
0000
0000
0000
0000
,
0001
1000
0001
1000
0001
1000
0001
1000
0001
1000
0001
1000
0001
1000
0001
1000
0001
1000
0001
1000
0001
1000
0000
0000
,
0010
0100
0010
0100
0010
0100
0010
0100
0010
0100
0010
0100
0010
0100
0010
0100
0010
0100
0010
0100
0010
0100
0000
0000
,
0010
1000
0000
0001
0100
0000
0010
1000
0000
0100
0010
0000
0001
0000
0010
0000
,
0100
1000
0000
0010
0100
0000
0001
1000
0000
0010
0100
0000
0001
0000
1000
0000
,
0001
0101
0000
1000
1010
0000
0200
0000
2002
0000
0000
0000
3303
0000
0000
0000
,
1000
0000
0100
0000
1000
0000
0100
0000
1000
0000
0010
0000
0100
0000
0000
0000
0001
0000
0100
0000
0010
0000
1000
0001
0100
0000
0001
0000
1000
0000
0000
0000
,
0100
0000
1000
0000
0001
0000
0100
0010
1000
0000
0001
0000
0100
0000
0010
0000
1000
0000
0000
0000
0100
0000
0000
0000
1010
0000
0000
0000
0000
0000
0000
0000
,
0001
0000
0010
0000
0001
0000
0010
0000
0001
0000
0100
0000
0010
0000
0000
0000
1000
0000
0010
0000
0100
0000
0001
1000
0010
0000
1000
0000
0001
0000
0000
0000
,
0010
0000
0001
0000
1000
0000
0010
0100
0001
0000
1000
0000
0010
0000
0100
0000
0001
0000
0000
0000
0010
0000
0000
0000
0100
0000
0001
0000
0010
0000
0001
0000
,
0100
0000
0000
0000
0010
0100
0010
0100
0010
0000
1000
0000
0001
0000
0100
0000
0020
0000
0000
0000
0000
0000
0000
0000
1131
0000
0000
0000
0000
0000
0000
0000
,
0010
0000
0000
0000
0100
0010
0100
0010
0100
0000
0001
0000
1000
0000
0010
0000
0200
0000
0000
0000
0000
0000
0000
0000
1311
0000
0000
0000
0000
0000
0000
0000
,
2210
0001
0001
0010
0010
0001
0001
0010
0010
0001
0001
0010
0010
0001
0001
0010
,
0001
0000
0010
0000
0001
0000
0010
0001
0010
0000
0001
0000
0010
0000
0001
0010
0001
0000
0010
0000
0001
0010
0001
0010
0001
0000
0000
0000
3310
0000
0000
0000
,
0100
0000
0001
0000
0100
0000
0001
0000
0100
0000
1000
0000
0001
0000
0000
0000
0010
0000
0001
0000
1000
0000
0100
0010
0001
0000
0010
0000
0100
0000
0000
0000
,
0001
0000
0100
0000
0010
0000
0001
1000
0100
0000
0010
0000
0001
0000
1000
0000
0100
0000
0000
0000
0001
0000
0000
0000
1100
0000
0000
0000
0000
0000
0000
0000
,
0010
0000
1000
0000
0010
0000
1000
0000
0010
0000
0001
0000
1000
0000
0000
0000
0100
0000
1000
0000
0001
0000
0010
0100
1000
0000
0100
0000
0010
0000
0000
0000
,
1000
0000
0010
0000
0100
0000
1000
0001
0010
0000
0100
0000
1000
0000
0001
0000
0010
0000
0000
0000
1000
0000
0000
0000
0001
0000
0010
0000
1000
0000
0010
0000
,
0001
0000
0000
0000
1000
0001
1000
0001
1000
0000
0100
0000
0010
0000
0001
0000
2000
0000
0000
0000
0000
0000
0000
0000
3111
0000
0000
0000
0000
0000
0000
0000
,
1000
0000
0000
0000
0001
1000
0001
1000
0001
0000
0010
0000
0100
0000
1000
0000
0002
0000
0000
0000
0000
0000
0000
0000
1113
0000
0000
0000
0000
0000
0000
0000
,
1202
0010
0010
1000
1000
0010
0010
1000
1000
0010
0010
1000
1000
0010
0010
1000
,
0010
0000
1000
0000
0010
0000
1000
0010
1000
0000
0010
0000
1000
0000
0010
1000
0010
0000
1000
0000
0010
1000
0010
1000
0010
0000
0000
0000
1303
0000
0000
0000
,
1000
0000
0001
0000
0100
0001
1000
0010
0100
0000
0000
0000
1111
0000
0000
0000
,
0001
0000
0100
0000
0010
0100
0001
1000
0010
0000
0000
0000
1110
0000
0001
0010
,
0100
0000
1000
0010
0100
0000
0001
0010
0100
0000
1000
0010
0100
0000
0001
0000
,
1000
0000
0000
0000
0100
1000
0100
1000
0010
0000
0100
0000
0001
0000
0100
0000
0010
0000
0000
0000
1010
0000
0000
0000
1101
0000
0000
0000
0000
0000
0000
0000
,
0001
0000
1000
0000
0010
1000
0001
0100
0010
0000
0000
0000
1111
0000
0000
0000
,
1000
0000
0010
0000
0100
0010
1000
0001
0100
0000
0000
0000
0111
0000
1000
0100
,
0010
0000
0001
0100
0010
0000
1000
0100
0010
0000
0001
0100
0010
0000
1000
0000
,
1000
0100
0010
0001
0010
1000
0010
0001
0010
0100
1000
0100
0001
0100
1000
0010
,
0100
0001
0100
1000
0100
0010
1000
0010
0002
0000
0000
0000
1113
0000
0000
0000
,
1000
0000
0000
1100
0000
0000
1010
0000
0001
0000
0000
0110
0000
0000
1001
0000
,
0001
0000
0000
0101
0000
0000
1001
0000
1000
0000
0000
1010
0000
0000
0101
0000
,
1000
0010
0100
0000
0001
0100
0010
0000
1000
0100
0010
0000
0001
0010
0100
0000
,
1000
0000
0000
0000
0000
0000
0000
0000
0000
0000
0000
0000
0010
0000
0000
0000
0000
0000
0000
0000
0000
0000
0000
0000
0100
0000
0000
0000
0000
0000
0000
0000
0000
0000
0000
0000
0001
0000
0000
0000
0000
0000
0000
0000
0000
0000
0000
0000
1000
0000
0000
0000
0000
0000
0000
0000
0000
0000
0000
0000
0100
0000
0000
0000
0000
0000
0000
0000
0000
0000
0000
0000
0010
0000
0000
0000
0000
0000
0000
0000
0000
0000
0000
0000
0001
0000
0000
0000
0000
0000
0000
0000
0000
0000
0000
0000
1000
0000
0000
0000
0000
0000
0000
0000
0100
0000
0000
0000
0000
0000
0000
0000
0010
0000
0000
0000
0000
0000
0000
0000
0001
0000
0000
0000
0000
0000
0000
0000
0010
0000
0000
0000
0000
0000
0000
0000
0100
0000
0000
0000
0000
0000
0000
0000
1000
0000
0000
0000
0000
0000
0100
0000
0000
0000
0000
0000
0010
0000
0000
0000
0000
0000
0001
0000
0000
0000
0000
0000
0010
0000
0000
0000
0000
0000
0100
0000
0000
0000
0000
0000
1000
0000
0000
0000
0000
0000
0010
0000
0000
0000
0000
0000
,
0100
0000
0001
0000
1000
0000
0100
1000
0100
0000
1000
0000
0010
0000
0100
0001
,
0100
0000
0010
0000
1000
0000
0100
1000
0010
0000
0100
0000
0001
0000
0001
0000
,
1000
0100
1000
0010
0100
0001
0100
0010
,
1000
0000
0100
0000
1000
0010
1000
0000
0001
0000
0100
0000
0010
0000
1000
0000
,
1110
1000
0010
0100
0001
1000
0010
0100
,
0111
1000
0010
0100
0001
0010
0100
1000
,
1110
0001
0100
0010
1000
0010
0100
0001
,
1101
0000
1000
0000
0010
0000
0100
0000
0001
0100
0001
0010
0002
0000
0000
0000
,
1003
0000
0100
0000
0010
0000
0001
0010
0001
0000
0010
0000
0100
0000
1000
0010
1000
0000
0100
0000
0010
0000
0001
0100
0001
0000
0010
0000
0100
0000
0000
0000
,
1000
0000
0010
0000
0100
0000
0001
0100
0001
0000
0100
0000
0010
0000
1000
0010
1000
0000
0010
0000
0100
0000
0001
0100
0001
0000
0100
0000
0010
0000
0000
0000
,
1000
0000
0100
0000
0010
0000
0001
0010
0001
0000
0010
0000
0100
0000
1000
0010
1000
0000
0100
0000
0010
0000
0001
0100
0001
0000
0010
0000
0100
0000
0000
0000
,
1000
0000
0010
0000
0100
0000
0001
0100
0001
0000
0100
0000
0010
0000
1000
0010
1000
0000
0010
0000
0100
0000
0001
0100
0001
0000
0100
0000
0010
0000
0000
0000
,
0100
0100
0010
0010
1000
0001
0100
0010
2000
0000
0000
0000
3111
0000
0000
0000
,
0001
0100
0010
1000
0100
0010
0001
0010
0200
0000
0000
0000
1311
0000
0000
0000
,
1000
1000
0010
0010
0100
0100
0001
0001
0010
0100
1000
0010
0100
0001
1000
0001
,
0100
0000
0010
0000
0100
0000
0010
0000
1000
0000
1000
0000
0001
0000
0001
0000
0100
0000
0010
0000
1000
0000
0001
0100
0001
0000
1000
0001
1000
0000
0100
0000
,
1000
0000
0000
0000
0000
0000
0100
0000
1000
0000
0100
0000
1000
0000
0000
0000
0000
0000
0001
0000
0010
0000
0001
0000
0010
0000
0000
0000
0000
0000
0001
0000
1000
0000
0001
0000
1000
0000
0000
0000
0000
0000
0010
0000
0000
0100
0000
0000
,
0001
0000
0000
0000
0000
0000
0010
0000
0001
0000
0010
0000
0001
0000
0000
0000
0000
0000
1000
0000
0100
0000
1000
0000
0100
0000
0000
0000
0000
0000
1000
0000
0001
0000
1000
0000
0001
0000
0000
0000
0000
0000
0100
0000
0000
0010
0000
0000
,
1000
0000
0000
0000
0000
0000
0100
0000
1000
0000
0100
0000
1000
0000
0000
0000
0000
0000
0001
0000
0010
0000
0001
0000
0010
0000
0000
0000
0000
0000
0001
0000
1000
0000
0001
0000
1000
0000
0000
0000
0000
0000
0010
0000
0000
0100
0000
0000
,
0001
0000
0000
0000
0000
0000
0110
0110
1111
0000
0000
0000
0000
0000
0000
0000
;

//---------------dance-single - Renard----------------
#NOTES:
     dance-single:
     Renard:
     Hard:
     9:
     0.646,0.676,0.086,0.029,0.569:
0000
0000
0000
0000
,
0000
0000
0000
0000
,
0000
0000
0000
0000
,
1000
0010
0000
0010
0100
0000
0100
0001
0000
0001
1000
0000
0100
0000
0010
0000
,
0001
0010
0000
0010
0100
0000
0100
1000
0000
1000
0010
0000
0100
0000
0001
0000
,
0100
0010
0000
1000
0001
0000
0100
0010
0000
1000
0100
0000
0010
0000
0001
0000
,
1000
0001
0000
1000
0010
0000
0100
0001
0000
0100
0001
0000
0100
0000
0010
0000
,
1000
0001
0000
0001
1000
0000
0001
0000
1001
0000
0000
0000
0000
0000
0000
0000
,
1000
0000
0100
0000
0010
0001
0010
0000
0100
0000
1000
0000
0010
0100
0010
0000
,
0100
0000
0001
0100
0010
0000
1000
0100
0010
0000
0100
0000
1000
0000
0010
0000
,
0100
0000
0001
0000
0100
0010
1000
0000
0100
0000
0010
0000
0001
0010
0100
0000
,
1000
0000
0010
0000
0100
0000
0001
0100
0001
0000
0000
0000
1000
0000
0001
1000
,
0001
0100
0001
0100
0001
0100
0001
0100
0001
0000
0000
0000
0000
0000
0000
0000
,
1000
0010
1000
0010
1000
0010
1000
0010
1000
0000
0000
0000
0000
0000
0000
0000
,
0001
0100
0010
1000
0100
0010
0001
0100
,
0010
0100
0010
0100
0010
0100
0010
0100
0010
0000
0100
0000
0010
0000
0100
0000
,
0001
0000
0010
0000
0100
1000
0100
0000
0010
0000
0001
0000
0100
0010
0100
0000
,
0010
0000
1000
0010
0100
0000
0001
0010
0100
0000
0010
0000
0001
0000
0100
0000
,
0010
0000
1000
0000
0010
0100
0001
0000
0010
0000
0100
0000
1000
0100
0010
0000
,
0001
0000
0100
0000
0010
0000
1000
0010
1000
0000
0000
0000
0001
0000
1000
0001
,
1000
0010
1000
0010
1000
0010
1000
0010
1000
0000
0000
0000
0000
0000
0000
0000
,
0001
0100
0001
0100
0001
0100
0001
0100
0001
0000
0000
0000
0000
0000
0000
0000
,
1000
0010
0100
0001
0010
0100
1000
0010
,
0100
0010
0100
0010
0100
0010
0100
0010
0100
0000
0010
0000
0100
0000
0010
0000
,
1000
0000
0001
0000
1000
0001
1000
0001
1000
0000
0000
0000
1001
0000
0000
0000
,
0100
0000
0010
0000
0100
0010
0100
0010
0100
0000
0000
0000
1000
0000
0001
0100
,
0010
0000
0010
1000
0100
0000
0100
0010
0001
0000
0001
0010
0100
0000
1000
0000
,
0010
0000
0100
0000
0001
0000
0100
0010
1000
0000
0000
0000
1001
0000
0000
0000
,
1000
0000
0010
0000
0100
0000
0001
1000
0001
0000
0000
0000
1001
0000
0000
0000
,
0001
0000
0100
0000
0010
0000
1000
0100
1000
0000
0100
0000
1000
0000
0100
0010
,
0001
0000
0001
0010
0100
0000
0100
1000
0010
0000
0010
0100
0001
0000
0001
0100
,
0010
1000
0100
0010
0001
0100
0010
1000
,
0100
0000
0010
0000
0001
0000
1000
0001
2000
0000
0000
0000
3001
0000
0000
0000
,
1000
0000
0000
0001
0000
0000
0100
0000
0010
0000
0000
1000
0000
0000
0100
0000
,
0010
0000
0000
0001
0000
0000
0010
0000
0100
0000
0000
1000
0000
0000
0010
0000
,
0100
0000
0000
0001
0000
0000
0100
0000
0010
0000
0000
1000
0000
0000
0100
0000
,
0010
0000
0010
0001
0000
0001
0010
0000
0100
0000
1000
0000
0010
0000
0000
0000
,
0100
0000
0001
0100
0010
0000
1000
0100
,
0010
0000
0001
0010
0100
0000
1000
0010
,
0100
0000
0001
0100
0010
1000
0100
0000
,
0010
0100
1000
0001
0100
0000
0001
0000
,
1001
0000
0100
0010
0100
0000
0010
0000
,
1001
0000
0010
0100
0010
0000
0100
0000
,
1010
0000
0100
0001
0101
0000
1000
0010
,
1010
0000
0000
0000
0001
0000
0100
0000
0010
1000
0010
1000
0010
0000
0000
0000
,
0100
0000
0001
0000
0100
0001
0100
0000
0010
0000
1000
0000
0010
1000
0010
0000
,
1000
0000
0001
0000
1000
0001
1000
0001
2000
0000
0000
0000
3001
0000
0000
0000
,
0100
0000
0010
0000
1000
0010
1000
0000
0001
0000
0100
0000
0001
0100
0001
0000
,
0100
0000
0010
0000
1000
0000
0100
0010
0002
0000
0000
0000
1003
0000
0000
0000
,
1000
0000
0010
0000
0100
0000
0001
1000
0100
0000
0010
0000
0001
0000
0000
0000
,
0010
0000
0100
0000
1000
0000
0001
0100
0010
0000
1000
0000
0100
0000
0000
0000
,
0010
0000
0001
0010
0100
0000
0100
1000
0010
0000
0010
0100
0001
0000
0001
0100
,
0010
1000
0010
1000
0010
1000
0010
1000
0010
1000
0010
1000
0010
1000
0010
1000
,
0001
0000
0000
0001
1000
0000
0000
1000
0100
0000
0000
0100
0010
0000
0000
0010
,
0001
0000
0000
0001
0010
0000
0000
0010
0100
0000
0000
0100
1000
0000
0000
1000
,
0001
0000
0000
0001
0100
0000
0000
0100
0010
0000
0000
0010
1000
0000
0000
1000
,
0001
0000
0000
0000
0000
0000
1000
0001
1000
0000
0000
0000
0000
0000
0000
0000
;

//---------------dance-single - Dark Culex----------------
#NOTES:
     dance-single:
     Dark Culex:
     Medium:
     5:
     0.335,0.408,0.163,0.421,0.043:
0000
0000
0000
0000
,
0000
0000
0000
0000
,
0000
0000
0000
0000
,
0001
0000
0000
0010
0000
0000
0100
0000
0000
0001
0000
0000
0010
0000
0010
0000
,
0001
0000
0000
0001
0000
0000
0010
0000
0000
0010
0000
0000
0001
0000
0100
0000
,
0001
0000
0000
0001
0000
0000
0001
0000
0000
1000
0000
0000
1000
0000
0001
0000
,
1000
0000
0000
0010
0000
0000
0010
0000
0000
0010
0000
0000
0001
0000
0000
0000
,
0010
0000
0001
0001
0100
0000
0000
0000
,
0200
0000
0000
0000
0000
0000
0000
0000
0300
0100
0000
0000
0200
0000
0000
0000
0000
0000
0000
0000
0300
0010
0000
0000
,
1000
0000
0000
0100
0000
0000
0010
0000
0000
0001
0000
0000
0200
0000
0000
0000
0000
0000
0000
0000
0300
0000
0000
0000
,
0002
0000
0000
0000
0000
0000
0000
0000
0003
0010
0000
0000
0002
0000
0000
0000
0000
0000
0000
0000
0003
0010
0000
0000
,
1000
0000
0000
1000
0000
0000
0010
0000
0000
0100
0000
0000
0002
0000
0000
0000
0000
0000
0000
0000
0003
1000
0000
0000
,
0202
0000
0000
0303
,
0202
0000
0000
0303
,
0100
0100
0001
1000
,
0010
0010
0100
0100
,
0200
0000
0000
0000
0000
0000
0000
0000
0300
0001
0000
0000
0200
0000
0000
0000
0000
0000
0000
0000
0300
0001
0000
0000
,
1000
0100
0100
0010
0200
0000
0000
0300
,
0200
0000
0000
0000
0000
0000
0000
0000
0300
0100
0000
0000
0200
0000
0000
0000
0000
0000
0000
0000
0300
1000
0000
0000
,
0100
0000
0000
0010
0000
0000
0001
0000
0000
1000
0000
0000
0200
0000
0000
0000
0000
0000
0000
0000
0300
0000
0000
0000
,
0202
0000
0000
0303
,
0202
0000
0000
0303
,
0100
0100
0100
0010
,
0010
1000
0001
0100
,
0200
0000
0000
0000
0000
0000
0000
0000
0300
1100
0000
0000
,
0200
0000
0000
0000
0000
0000
0000
0000
0300
1010
0000
0000
,
1000
0001
1000
0100
,
0200
0000
0000
0000
0000
0000
0300
0000
0002
0003
0000
0000
,
0202
0000
0000
0000
0000
0000
0000
0000
0303
1001
0000
0000
,
0202
0000
0000
0000
0000
0000
0000
0000
0303
1100
0000
0000
,
0010
0001
0010
0010
,
0200
0000
0000
0000
,
0000
0000
0310
0100
0200
0000
0300
0000
,
0001
0010
1000
0100
,
0010
1000
0010
0010
,
1000
1000
0010
0100
,
0010
1000
0001
1000
,
0001
0000
0000
0001
0000
0000
1000
0000
,
0000
0100
0000
0000
0100
0000
0000
0001
,
0010
0000
0000
0001
0000
0000
1000
0000
,
0000
0100
0000
0000
0010
0000
0000
0100
,
0100
0000
0000
1000
0000
0000
0001
0000
,
0000
1000
0000
0000
0010
0000
0000
1000
,
0100
0000
0000
0100
0000
0000
0001
0000
,
0100
0000
0000
0100
0000
0000
0001
0000
,
0200
0000
0000
0000
0000
0000
0000
0000
0300
0001
0000
0000
0200
0000
0000
0000
0000
0000
0000
0000
0300
1000
0000
0000
,
0001
0010
0100
1000
0200
0000
0000
0300
,
0200
0000
0000
0000
0000
0000
0000
0000
0300
0010
0000
0000
0200
0000
0000
0000
0000
0000
0000
0000
0300
0001
0000
0000
,
1000
1000
0100
1000
0200
0000
0000
0300
,
0202
0000
0000
0000
0000
0303
1001
0000
,
0202
0000
0000
0000
0000
0303
1100
0000
,
0200
0000
0000
0000
,
0302
0000
0000
0000
,
0003
0100
0010
0010
,
0011
0001
0001
0010
,
0110
0001
0100
0001
,
0101
0000
0000
0200
0002
0000
0000
0303
;

//---------------dance-single - Dark Culex----------------
#NOTES:
     dance-single:
     Dark Culex:
     Easy:
     3:
     0.246,0.245,0.000,0.335,0.000: // measure 1
0000
0000
0000
0000
,  // measure 2
0000
0000
0000
0000
,  // measure 3
0000
0000
0000
0000
,  // measure 4
0100
0001
0010
0010
,  // measure 5
0010
0001
1000
0010
,  // measure 6
0100
0100
0010
0010
,  // measure 7
1000
0100
1000
0100
,  // measure 8
0100
0010
0001
0000
,  // measure 9
0002
0000
0000
0000
0003
0000
0002
0000
0000
0000
0003
0000
,  // measure 10
0100
0000
0000
0100
0000
0000
0002
0000
0000
0000
0003
0000
,  // measure 11
2000
0000
0000
0000
3000
0000
2000
0000
0000
0000
3000
0000
,  // measure 12
0100
0000
0000
0100
0000
0000
2000
0000
0000
0000
3000
0000
,  // measure 13
0002
0000
0000
0003
,  // measure 14
2000
0000
0000
3000
,  // measure 15
1000
0010
0100
0010
,  // measure 16
0100
0010
0010
1000
,  // measure 17
0002
0000
0000
0000
0003
0000
0002
0000
0000
0000
0003
0000
,  // measure 18
0010
0000
0100
0000
2000
0000
0000
3000
,  // measure 19
0200
0000
0000
0000
0300
0000
0002
0000
0000
0000
0003
0000
,  // measure 20
0100
0000
0000
0010
0000
0000
0002
0000
0000
0000
0003
0000
,  // measure 21
2000
0000
0000
3000
,  // measure 22
0002
0000
0000
0003
,  // measure 23
0100
0100
0001
0100
,  // measure 24
0001
1000
1000
0001
,  // measure 25
0002
0000
0000
0000
0000
0000
0000
0000
0003
0100
0000
0000
,  // measure 26
0002
0000
0000
0000
0000
0000
0000
0000
0003
0010
0000
0000
,  // measure 27
0001
0100
0001
0010
,  // measure 28
0002
0000
0003
0000
,  // measure 29
2000
0000
0000
0000
0000
0000
0000
0000
3000
1000
0000
0000
,  // measure 30
0002
0000
0000
0000
0000
0000
0000
0000
0003
1000
0000
0000
,  // measure 31
0001
1000
0001
0010
,  // measure 32
0002
0000
0000
0000
,  // measure 33
0000
0003
0002
0003
,  // measure 34
0010
0001
0100
0100
,  // measure 35
0100
0010
0100
0100
,  // measure 36
0100
0010
0010
1000
,  // measure 37
0001
0010
0001
0001
,  // measure 38
0100
0000
0000
0100
0000
0000
0100
0000
,  // measure 39
0000
1000
0000
0000
0100
0000
0000
0000
,  // measure 40
1000
0000
0000
1000
0000
0000
1000
0000
,  // measure 41
0000
0010
0000
0000
0010
0000
0000
0000
,  // measure 42
0010
0000
0000
0100
0000
0000
0100
0000
,  // measure 43
0000
0001
0000
0000
0001
0000
0000
0000
,  // measure 44
0010
0000
0000
0001
0000
0000
0001
0000
,  // measure 45
1000
0000
0000
0100
0000
0000
1000
0000
,  // measure 46
0002
0000
0000
0000
0003
0000
0002
0000
0000
0000
0003
0000
,  // measure 47
0001
0000
1000
0000
0200
0000
0000
0300
,  // measure 48
0002
0000
0000
0000
0003
0000
2000
0000
0000
0000
3000
0000
,  // measure 49
1000
0000
1000
0000
0002
0000
0000
0003
,  // measure 50
2000
0000
0000
0000
0000
3000
0001
0000
,  // measure 51
0002
0000
0000
0000
0000
0003
0100
0000
,  // measure 52
0002
0000
0000
0000
,  // measure 53
2003
0000
0000
0000
,  // measure 54
3000
0100
0100
0001
,  // measure 55
0001
1000
0010
1000
,  // measure 56
0010
0100
0100
0100
,  // measure 57
1000
0000
0000
0002
2000
0000
0000
3003
;
