#TITLE:Frog Machine;
#SUBTITLE:;
#ARTIST:Infected Mushroom;
#GENRE:Psytrance;
#TITLETRANSLIT:;
#SUBTITLETRANSLIT:;
#ARTISTTRANSLIT:;
#CREDIT:;
#BANNER:frog.png;
#BACKGROUND:frog-bg.png;
#LYRICSPATH:;
#CDTITLE:;
#MUSIC:frog.ogg;
#OFFSET:-0.000;
#SAMPLESTART:63.580;
#SAMPLELENGTH:11.000;
#SELECTABLE:YES;
#BPMS:0.000=150.000;
#STOPS:;
#BGCHANGES:;

//---------------dance-single - Renard----------------
#NOTES:
     dance-single:
     Renard:
     Hard:
     9:
     0.619,0.666,0.129,0.179,0.193: // measure 1
0000
0000
0000
0000
,  // measure 2
0000
0000
0000
0000
,  // measure 3
0000
0000
0000
0000
,  // measure 4
0000
0000
0000
0000
,  // measure 5
1000
0100
0001
0100
0010
0001
0010
1000
,  // measure 6
0010
0000
0100
0000
1000
0000
0100
0000
0000
0001
0000
0100
0000
0000
1000
0000
,  // measure 7
0010
0001
1000
0100
0001
0100
0010
0100
,  // measure 8
1000
0000
0100
0000
0010
0000
1000
0000
0001
1000
0000
0100
0000
0000
0010
0000
,  // measure 9
1001
1010
0000
0001
0100
0010
1000
0100
,  // measure 10
0010
0000
0001
0000
0010
0000
0100
0000
0000
1000
0000
0001
0000
0000
0100
0000
,  // measure 11
0010
1000
0100
1000
0001
0010
0001
0100
,  // measure 12
0020
1000
0230
0001
1300
0001
0010
1000
,  // measure 13
0020
0000
0130
0000
0001
0100
0010
1000
,  // measure 14
0200
0000
1300
0000
1000
0010
0100
0001
,  // measure 15
0200
0000
0310
0000
1000
0001
0100
0010
,  // measure 16
1000
0010
0100
0001
1000
0000
1001
0000
,  // measure 17
2010
0000
3100
0000
0001
0010
0100
1000
,  // measure 18
0012
0000
0103
0000
1000
0010
0100
0001
,  // measure 19
1000
0010
0100
0001
0000
0000
0000
0000
,  // measure 20
0000
0000
0000
0000
0000
0000
0000
0000
0000
1000
0000
0001
0100
0001
0100
0001
,  // measure 21
1000
0100
1000
0010
0100
0001
0010
0001
,  // measure 22
0100
0001
0010
0001
0100
0010
1000
0100
,  // measure 23
1000
0010
0100
0001
1000
0100
1000
0010
,  // measure 24
0100
0001
1000
0100
1000
0010
0100
0001
,  // measure 25
1000
0100
0001
0100
0010
0001
0010
1000
,  // measure 26
0010
0100
0001
0100
1000
0010
0100
0001
,  // measure 27
0100
1000
0100
0010
1000
0010
0001
0010
,  // measure 28
0100
1000
0100
0001
0100
0010
1000
0001
,  // measure 29
1000
0000
0100
0000
1000
0000
0001
0100
0000
0000
0010
0000
1000
0000
0100
0000
,  // measure 30
1000
0000
0010
0000
0100
0000
0001
1000
0000
0000
0100
0000
1000
0000
0010
0000
,  // measure 31
0100
0000
0001
0000
1000
0000
0100
1000
0000
0000
0010
0000
0100
0000
0001
0000
,  // measure 32
1000
0000
0100
0000
1000
0000
0010
0100
0000
0000
0001
0000
1000
0000
0001
0000
,  // measure 33
1000
0000
0100
1000
0100
0000
1000
0000
0100
0000
0010
0000
0001
0000
0010
0000
,  // measure 34
0001
0000
0010
0001
0010
0000
0001
0000
0010
0000
0100
0000
1000
0000
0001
0000
,  // measure 35
1000
0000
0001
1000
0001
0000
1000
0000
0001
0000
1000
0001
1000
0000
0001
0000
,  // measure 36
1000
0001
1000
0000
0001
1000
0001
0000
1000
0100
0010
0001
1000
0000
0000
0000
,  // measure 37
0001
0100
0010
1000
0100
1000
0001
0010
,  // measure 38
0001
0000
0000
0100
0000
0000
0010
0000
0000
1000
0000
0000
0100
0000
0000
1000
0100
1000
0100
0000
0000
1000
0000
0000
,  // measure 39
0010
0100
0001
1000
0100
1000
0010
0100
,  // measure 40
0001
0000
0000
0010
0000
0000
0001
0000
0000
0100
0000
0000
0001
0000
0000
0100
0001
0100
0001
0000
0000
0100
0000
0000
,  // measure 41
0010
1000
0100
1000
0010
0100
0001
1000
,  // measure 42
0100
0000
0000
0010
0000
0000
0001
0000
0000
1000
0000
0000
0001
0000
0000
1000
0001
1000
0001
0000
0000
0100
0000
0000
,  // measure 43
0010
1000
0001
0100
0001
1000
0100
1000
,  // measure 44
0010
0000
0000
0100
0000
0000
0001
0000
0000
0100
0000
0000
0010
0000
0000
0100
0010
0100
0020
0000
0000
0000
0000
0000
,  // measure 45
1030
0000
0000
2000
0001
0000
0001
0000
3010
0000
0000
0000
0101
0000
0000
0000
,  // measure 46
0001
0000
0000
0002
0010
0000
0010
0000
0103
0000
0000
0000
1001
0000
0000
0000
,  // measure 47
0100
0000
0000
0200
0010
0000
0010
0000
1300
0000
0000
0000
0011
0000
0000
0000
,  // measure 48
0010
0000
0000
0020
1000
0000
1000
0000
0031
0000
0000
0000
0110
0000
0000
0000
,  // measure 49
0001
0000
0000
0002
1000
0000
1000
0000
0103
0000
0000
0000
1010
0000
0000
0000
,  // measure 50
1000
0000
0000
2000
0100
0000
0100
0000
3010
0000
0000
0000
1001
0000
0000
0000
,  // measure 51
0010
0000
0000
0020
0100
0000
0100
0000
0031
0000
0000
0000
1100
0000
0000
0000
,  // measure 52
0100
0000
0000
0200
0001
0000
0001
0000
1300
0000
0000
0000
0002
0000
2000
0000
,  // measure 53
0000
0000
0000
3003
,  // measure 54
1000
0100
0000
1000
0000
0010
0100
0000
,  // measure 55
0001
0000
0000
0100
0000
0010
1000
0100
,  // measure 56
1000
0010
0000
0100
0000
0001
1000
0100
,  // measure 57
1000
0000
0000
0010
0000
0000
0100
0001
,  // measure 58
1000
0100
0000
1000
0000
0001
0010
0000
,  // measure 59
0001
0100
0000
0010
0000
1000
0001
0100
,  // measure 60
0001
1000
0000
0100
0000
1000
0010
0000
,  // measure 61
0100
0000
0001
0000
1000
0000
0100
0000
0000
0000
1000
0000
0010
1000
0000
0000
,  // measure 62
0101
0000
0000
0000
;

//---------------dance-single - Renard----------------
#NOTES:
     dance-single:
     Renard:
     Challenge:
     11:
     0.974,0.970,0.317,0.218,1.000: // measure 1
0000
0000
0000
0000
,  // measure 2
0000
0000
0000
0000
,  // measure 3
0000
0000
1010
0000
0000
0000
1100
0000
0000
0000
0001
0000
0010
0001
0000
1000
,  // measure 4
0001
0000
0001
0100
0000
0100
0020
0000
0000
0000
1030
0000
0001
0100
0001
0000
,  // measure 5
1001
0000
0000
0100
0000
0010
1000
0010
1000
0010
0000
0100
0000
0001
0100
0001
,  // measure 6
0100
0001
0000
1000
0000
0001
0100
0001
0100
0001
0000
1000
0000
0010
0100
0001
,  // measure 7
0100
0001
0000
1000
0000
0010
0100
0010
0100
0010
0000
1000
0000
0100
1000
0100
,  // measure 8
1000
0000
0100
0000
0010
0000
0001
0000
1000
0001
0000
1001
0000
0000
1010
0000
,  // measure 9
0101
0101
0010
1000
0100
0010
0001
0010
,  // measure 10
1100
0000
0000
1010
0000
0000
1001
0000
0000
0101
0000
0000
0011
0000
0011
0000
,  // measure 11
0101
0000
0000
0001
0000
0100
0001
0100
0001
0100
0000
0001
0000
1000
0001
1000
,  // measure 12
0001
0000
0100
0001
0100
0000
0001
0100
0000
0100
0001
0000
1100
0000
0100
1000
,  // measure 13
0200
0000
0000
0000
2300
0000
0000
0000
3100
1000
0010
0100
0000
0100
0001
0010
,  // measure 14
0002
0000
0000
0000
0023
0000
0000
0030
0001
0010
0100
1000
0000
1000
0001
1000
,  // measure 15
0002
0000
0000
0003
0200
0000
0000
0000
0301
1000
0001
0100
0000
0100
0001
1000
,  // measure 16
0200
0000
0000
0000
2300
0000
0000
0000
3001
0100
0001
0100
0000
0001
1000
0001
,  // measure 17
0100
0001
0100
0000
2020
0000
0000
3030
1000
0010
1000
0010
0000
0010
0100
0000
,  // measure 18
0102
0000
0000
0000
0020
0000
0000
0033
0001
0010
0001
0100
0000
0100
0001
0000
,  // measure 19
1010
0000
0000
0101
0000
0000
1001
0000
0000
0000
0000
0000
0000
0000
0000
0000
,  // measure 20
0000
0000
0000
0000
0000
0000
0000
0000
0000
1000
0000
0001
0100
0001
0100
0001
,  // measure 21
1000
0100
1000
0100
1000
0010
1000
0010
0000
0010
0100
0001
0010
0001
0100
0001
,  // measure 22
0100
0010
1000
0100
0010
0001
1000
0001
0000
0001
0100
0001
1000
0100
0010
0001
,  // measure 23
0100
0010
1000
0010
0100
0001
0100
0001
0000
0001
1000
0100
1000
0010
0100
0001
,  // measure 24
0010
0100
1000
0001
0100
0001
0100
0010
0000
0010
1000
0100
1000
0010
0100
0001
,  // measure 25
0100
0010
0100
0001
0100
0010
1000
0100
0000
0100
1000
0010
0100
0001
1000
0001
,  // measure 26
0100
0010
1000
0100
0010
0001
0010
0100
0000
0100
1000
0010
0100
0001
1000
0001
,  // measure 27
0100
0001
1000
0100
1000
0010
0100
0001
0000
0001
0100
0010
1000
0100
1000
0100
,  // measure 28
0010
0001
0010
0001
0010
0001
0010
0001
0000
0001
0010
0100
1000
0100
1000
0100
,  // measure 29
1000
0100
1000
0100
1000
0010
1000
0010
0000
0010
0100
0001
0100
0001
0100
0001
,  // measure 30
0010
0001
0010
0100
1000
0010
0100
0001
0000
0001
0100
0010
1000
0001
1000
0001
,  // measure 31
0100
0001
1000
0100
0010
0001
1000
0001
0000
0001
0100
0010
1000
0001
1000
0001
,  // measure 32
0100
0010
0100
0010
1000
0010
0100
0001
0000
0001
0010
0001
0010
0100
1000
0000
,  // measure 33
0001
0010
0001
0010
0100
1000
0010
0100
0000
0100
0001
0100
0010
1000
0100
0000
,  // measure 34
0010
0001
0010
0001
0010
0100
1000
0010
0000
0010
0100
0001
0100
0010
1000
0000
,  // measure 35
0001
0000
0100
0001
0100
0000
0010
1000
0010
0000
0100
0001
0100
0000
0001
1000
,  // measure 36
0100
0010
0001
0010
0100
1000
0010
0100
0001
1000
0001
2000
0002
0000
0000
3003
,  // measure 37
1000
0000
1000
0100
0000
0100
1000
0000
1000
0001
0000
0001
1000
0000
0100
0000
,  // measure 38
1000
0000
1000
0010
0000
0010
0100
0000
0100
0010
0000
0010
1000
0000
0001
0000
,  // measure 39
0010
0000
0010
0001
0000
0001
0010
0000
0010
0100
0000
0100
1000
0000
0010
0000
,  // measure 40
0100
0000
0100
0001
0000
0001
1000
0000
1000
0100
0000
0100
1000
0100
0010
0001
,  // measure 41
0010
0000
0010
0001
0000
0001
0100
0000
0100
0010
0000
0010
1000
0010
1000
0010
,  // measure 42
0100
0000
0100
0001
0000
0001
1000
0000
1000
0100
0000
0100
0010
0001
0010
0001
,  // measure 43
0010
0000
0010
0001
0000
0001
0100
0000
0100
0010
0000
0010
1000
0010
1000
0010
,  // measure 44
0200
0000
0010
0000
0010
0010
0010
0310
,  // measure 45
0010
1000
0100
1000
0001
0010
0001
1000
0100
0010
0100
1000
0001
0010
0100
0010
,  // measure 46
0001
0010
0100
1000
0010
0100
0001
0010
0100
1000
0010
0100
0001
0010
0100
1000
,  // measure 47
1000
0100
0010
0001
0100
0010
1000
0100
0010
0001
0100
0010
1000
0100
0010
0001
,  // measure 48
0001
0010
0001
0100
0001
0010
0001
1000
0001
0010
0100
1000
0001
1000
0001
0000
,  // measure 49
0100
0001
0010
0001
1000
0100
1000
0001
0010
0100
0010
0001
1000
0100
0010
0100
,  // measure 50
1000
0100
0010
0001
0100
0010
1000
0100
0010
0001
0100
0010
1000
0100
0010
0001
,  // measure 51
0001
0010
0100
1000
0010
0100
0001
0010
0100
1000
0010
0100
0001
0010
0100
1000
,  // measure 52
1000
0100
1000
0010
1000
0100
1000
0001
1000
0100
0010
0001
1000
0001
1000
0001
,  // measure 53
0200
0000
0000
0000
0000
0000
0000
0300
,  // measure 54
1010
1010
0000
0000
0000
0000
0000
0000
,  // measure 55
0101
0000
0000
0000
0000
0001
0000
0000
0010
0000
0000
0100
0000
0000
1010
0000
,  // measure 56
1010
0000
0000
0000
0000
0000
0000
0000
0000
0000
0000
0000
1000
0001
1000
0001
,  // measure 57
0200
0000
0000
0000
0000
0000
0000
0000
0000
0301
0000
0010
0000
0000
0001
0000
,  // measure 58
0101
1010
0000
0000
0000
0000
0000
0000
,  // measure 59
2000
0000
0000
0000
0000
0000
3200
0000
0000
0000
0000
0000
1300
0000
0100
1000
,  // measure 60
0100
0000
0000
0000
0000
0000
2200
0000
0000
0000
0000
0000
0000
3300
0000
0000
,  // measure 61
1001
0000
0000
0000
0000
0000
1010
0000
0000
0000
0000
0000
1000
0001
0000
0001
,  // measure 62
1001
0110
0000
0000
0000
0000
0000
0000
;

//---------------dance-single - Dark Culex----------------
#NOTES:
     dance-single:
     Dark Culex:
     Medium:
     4:
     0.455,0.490,0.506,0.456,0.015:
0000
0000
0000
0000
,
0000
0000
0000
0000
,
0000
0000
0000
0000
,
0000
0000
0000
0000
,
1000
1000
1000
0100
,
0100
0000
0001
0000
0010
0000
1000
0001
,
0202
0000
0303
1000
0100
0000
0010
0000
,
0001
0000
0100
0000
1000
0000
0100
1000
,
0002
0200
0303
0010
0010
0000
0100
0000
,
0010
0000
0100
0000
1000
0010
1000
1000
,
0020
0000
0030
0002
0000
0000
0000
0000
,
0003
0001
1000
0000
0100
0000
1000
0000
,
1000
0000
0000
0000
0010
0000
0000
0000
1000
0000
0000
0010
0000
0000
1000
0000
,
0010
0000
0000
0000
0001
0000
0000
0001
0000
1000
0000
0000
0001
0000
0000
0000
,
1000
1000
0000
0000
0000
0100
0010
0000
,
0001
0001
0001
0100
,
0001
0000
0100
0000
0001
0100
0001
0100
,
0010
0010
0001
0100
,
0100
2020
0000
0000
0000
0000
0000
0000
,
0000
0000
0000
3030
0001
1000
0001
0100
,
0011
0010
0101
0010
,
0011
0001
0101
0010
,
1010
0010
0101
0001
,
1010
0010
0110
0100
,
1010
1000
0011
0001
,
1100
0100
1100
0001
,
0110
0001
1001
0010
,
1100
0010
0011
0001
,
1010
0001
0101
0010
,
0101
1000
1100
0010
,
1001
0100
1100
0100
,
0011
1000
0101
0001
,
1001
0100
0011
0001
,
1010
0100
1010
0010
,
1100
0010
0101
1000
,
0011
0000
0000
0000
0000
0000
0000
0000
0100
0000
0000
0000
0000
0000
0000
0000
0202
0000
0000
0000
0000
0000
0000
0000
0000
0000
0000
0000
0000
0000
0000
0303
,
0010
0001
0001
1000
0022
0000
0033
0100
,
0000
0100
0000
0001
0022
0000
0033
0100
,
0000
0100
0000
0001
0022
0000
0033
1000
,
0000
0100
0000
1000
0022
0000
0033
1000
,
0001
0001
0010
1000
1000
0000
0010
0000
,
1000
0010
0010
0010
,
1000
0000
0010
0000
0022
0000
0033
0100
,
0000
0100
0000
1000
0022
0000
0033
1000
,
2000
3002
0000
0000
0000
0000
0000
0000
,
0000
0000
0000
0000
2023
0000
3030
0001
,
0000
0100
0000
0001
0022
0000
0033
0010
,
0000
0100
0000
1000
0022
0000
0033
0100
,
0000
0010
0000
0001
0022
0000
0033
0100
,
0000
0010
0000
0001
0022
0000
0033
1000
,
0000
1000
0000
0010
0022
0000
0033
0100
,
0000
0001
0000
0100
0022
0000
0033
0000
,
0022
0000
0000
0000
0000
0000
0000
0000
0000
0000
0000
0033
,
0001
0001
0000
0000
0000
0000
0000
0000
,
0002
0000
0003
0100
0100
0001
0000
0010
,
0100
0000
0000
0002
,
0023
0000
0000
0030
1000
0010
0000
0001
,
0100
0100
0000
0000
0000
0000
0000
0001
,
0100
0000
0000
0010
0000
0010
0010
0000
,
0011
0000
0000
0002
0000
0000
0000
0003
,
0100
0000
0000
1000
0000
1000
0010
0000
,
0101
0022
0000
0000
0000
0000
0033
0000
;

//---------------dance-single - Dark Culex----------------
#NOTES:
     dance-single:
     Dark Culex:
     Easy:
     2:
     0.320,0.277,0.000,0.030,0.000: // measure 1
0000
0000
0000
0000
,  // measure 2
0000
0000
0000
0000
,  // measure 3
0000
0000
0000
0000
,  // measure 4
0000
0000
0000
0000
,  // measure 5
0010
1000
1000
0100
,  // measure 6
0010
0001
0001
0100
,  // measure 7
0100
0001
1000
1000
,  // measure 8
0010
1000
0100
0100
,  // measure 9
0010
0010
0010
0001
,  // measure 10
0010
1000
0100
0010
,  // measure 11
0001
0100
0001
0001
,  // measure 12
0001
1000
0001
0010
,  // measure 13
0010
0001
1000
0001
,  // measure 14
1000
0010
0010
1000
,  // measure 15
1000
0010
0010
0001
,  // measure 16
0001
0100
0100
1000
,  // measure 17
0001
0010
0010
0100
,  // measure 18
0001
0001
0100
0010
,  // measure 19
0100
0010
2000
0000
,  // measure 20
0000
0000
0000
0000
0000
3000
1000
0000
,  // measure 21
0100
1000
0010
1000
,  // measure 22
0100
0100
0001
0001
,  // measure 23
0001
0010
0100
0010
,  // measure 24
1000
0100
1000
0010
,  // measure 25
0001
0010
0100
0001
,  // measure 26
0100
0010
0001
0001
,  // measure 27
0010
0010
0001
0010
,  // measure 28
0100
0010
0001
1000
,  // measure 29
1000
0010
1000
0100
,  // measure 30
0010
1000
0100
0001
,  // measure 31
0100
1000
0001
0100
,  // measure 32
0001
0100
1000
0010
,  // measure 33
0001
1000
0010
0010
,  // measure 34
0001
0100
1000
0010
,  // measure 35
0001
0100
0100
0001
,  // measure 36
0100
1000
0001
0001
,  // measure 37
1000
0001
0100
1000
,  // measure 38
0001
0001
1000
0001
,  // measure 39
0001
1000
0001
0100
,  // measure 40
1000
1000
0100
1000
,  // measure 41
1000
0001
0100
0010
,  // measure 42
0010
1000
1000
0010
,  // measure 43
0010
1000
0100
1000
,  // measure 44
0100
0010
1000
1000
,  // measure 45
0010
0010
1000
0010
,  // measure 46
1000
1000
0001
1000
,  // measure 47
0100
0100
0010
0100
,  // measure 48
0100
0100
0001
0100
,  // measure 49
0100
0100
1000
0100
,  // measure 50
0001
1000
0001
1000
,  // measure 51
0001
1000
0100
1000
,  // measure 52
0100
0000
0100
0000
0010
0000
0001
2000
,  // measure 53
0000
0000
0000
0000
0000
0000
0000
3000
,  // measure 54
0010
0001
1000
0010
,  // measure 55
0001
1000
0001
0100
,  // measure 56
0010
0010
1000
0100
,  // measure 57
0001
0001
1000
0001
,  // measure 58
0010
0100
0010
0100
,  // measure 59
1000
0010
1000
0001
,  // measure 60
0010
0100
1000
0100
,  // measure 61
0010
0100
0010
0100
,  // measure 62
0100
0200
0000
0000
0000
0000
0000
0000
,  // measure 63
0300
0000
0000
0000
;
