#TITLE:Forget September;
#SUBTITLE:;
#ARTIST:Emoticon;
#GENRE:Roxorcore;
#TITLETRANSLIT:;
#SUBTITLETRANSLIT:;
#ARTISTTRANSLIT:;
#CREDIT:;
#BANNER:forget.png;
#BACKGROUND:forget-bg.png;
#LYRICSPATH:;
#CDTITLE:;
#MUSIC:forget.ogg;
#OFFSET:-0.000;
#SAMPLESTART:30.296;
#SAMPLELENGTH:11.960;
#SELECTABLE:YES;
#BPMS:0.000=190.000;
#STOPS:;
#BGCHANGES:;

//---------------dance-single - Shorty----------------
#NOTES:
     dance-single:
     Shorty:
     Hard:
     9:
     0.715,0.768,0.310,0.449,0.214:
0000
0000
0000
0000
,
0000
0000
0000
0000
,
0000
0000
0000
0000
,
0000
0000
0000
0000
,
1000
0000
0010
0100
0001
0010
0100
0010
,
0001
0000
0100
0010
1000
0100
1000
0010
,
0100
0000
0001
1000
0001
1000
0010
0100
,
0020
2000
0000
3031
,
0010
0000
1000
0001
0100
0000
0001
0000
0010
0000
0000
0000
0100
0000
2000
0000
,
0001
0000
0001
0000
3010
1000
0000
0001
,
0100
0000
0010
1000
0001
0000
0010
0100
1000
0000
0010
0000
0100
0000
0000
0000
,
0001
0000
1000
0000
0100
0010
0000
0010
0001
0000
1000
0000
0100
1000
0100
0000
,
0010
0000
0000
0010
0001
0000
1000
0000
1200
0000
0000
0000
0010
0000
0000
0000
,
0001
0000
1000
1000
1300
0000
1001
0000
,
0100
0000
0001
0100
0010
0000
1000
0001
0100
0000
0010
0000
0100
0000
0000
0000
,
0001
0000
0010
0000
0100
1000
0000
1000
0010
0000
1000
0000
0001
0100
0001
0000
,
0010
0100
0000
0100
1000
0000
0001
0010
,
0100
1100
2102
3103
,
0010
0001
0000
0001
0100
0000
0010
1000
,
0001
0011
2012
3013
,
0001
1000
0000
0100
0010
0000
0001
1000
,
0010
0110
0212
0313
,
0001
1000
0000
1000
0100
0000
0010
0100
,
1000
1010
1220
1330
,
1000
0001
0100
0001
0100
0001
1000
0010
,
0200
0000
0001
0000
0310
1000
0001
0000
,
1000
0100
0010
0100
0010
0100
1000
0010
,
0200
0000
1000
0000
0301
1000
0100
0000
,
0011
0001
1000
0100
1000
0001
0100
0000
,
1010
1000
0001
0100
0001
1000
0100
0000
,
0110
0100
0010
0001
0100
0010
0100
0000
,
0001
0000
1000
0000
0001
0000
0000
1000
0100
0000
1000
0000
0100
0010
0001
0000
,
0100
0001
0100
0010
1000
0100
1000
0010
,
0100
0001
0010
0001
1000
0200
2000
0300
,
3100
1000
0010
1000
0001
0010
0100
1000
,
0001
0100
1000
0100
0001
0020
0002
0030
,
0013
0001
1000
0100
1000
0001
0020
0000
,
0031
0010
0100
1000
0100
0010
0002
0000
,
0103
0010
1000
0001
1000
0100
1000
0010
,
1000
0001
0100
0010
0100
0000
1001
0000
,
1000
0000
0001
0100
0000
0000
0010
0000
2000
0000
0000
0100
,
0000
3000
0001
0000
0000
1000
0010
0000
0100
0000
0000
0000
,
1001
0000
1000
0010
0000
0000
1000
0000
0002
0000
0000
0010
,
0000
0000
1003
0000
0000
0010
0001
0000
1000
0000
0000
0000
,
0100
0000
1000
0001
0000
0001
1000
0000
0010
0100
0000
0100
,
0001
0000
1000
0100
0000
0100
1000
0000
0001
0010
0000
0010
,
0100
0000
1000
0010
0000
0100
0010
0000
1000
0001
0000
0100
,
0001
0000
1000
0100
0000
1001
0000
0000
,
2200
0000
0300
3002
,
0200
0000
0300
2003
,
0020
0000
0000
0000
,
0001
0000
0001
3030
,
0202
0300
0100
2003
,
0200
3000
1000
0320
,
0002
0030
1000
0203
,
0020
0000
0330
1001
,
0100
0000
2001
0000
3001
0000
1000
0010
,
0100
0010
1000
0100
0010
0000
1001
0000
,
0010
0000
2100
0000
3100
0000
0010
0001
,
0100
0001
1000
0100
1000
0000
0101
0000
,
0010
0000
1002
0000
1003
0000
0100
0010
,
1000
0000
0201
0000
0301
0000
1000
0100
,
0010
2100
3100
1000
,
0010
0100
0001
0010
0001
0000
0101
0000
,
0001
0100
0000
0100
0001
0000
1000
0001
,
0010
0001
0000
1000
0100
0000
0010
0001
,
0100
0010
0000
0010
1000
0000
0001
1000
,
0100
0010
0000
0001
0010
0000
0100
1000
,
0100
0010
0000
0010
0100
0000
1000
0001
,
0100
0010
0000
0010
0100
0000
0001
1000
,
0100
1001
0100
1010
,
0001
0000
0010
0001
0000
2000
0000
0000
0000
3001
0000
0000
;

//---------------dance-single - Shorty----------------
#NOTES:
     dance-single:
     Shorty:
     Easy:
     4:
     0.361,0.461,0.225,0.160,0.000: // measure 1
0000
0000
0000
0000
,  // measure 2
0000
0000
0000
0000
,  // measure 3
0000
0000
0000
0000
,  // measure 4
0000
0000
0000
0000
,  // measure 5
1001
0000
0100
0000
,  // measure 6
1010
0000
0100
0000
,  // measure 7
1001
0000
0100
0000
,  // measure 8
0011
1001
0000
0100
,  // measure 9
0010
0001
0100
0000
,  // measure 10
0010
0010
0010
0000
,  // measure 11
1000
0100
1000
0000
,  // measure 12
0010
0100
0101
0000
,  // measure 13
0001
1000
0100
0000
,  // measure 14
0010
0001
0101
0000
,  // measure 15
0001
0010
0001
0000
,  // measure 16
1000
0000
1010
0000
,  // measure 17
0010
0000
0100
0001
,  // measure 18
1000
0000
0100
0000
,  // measure 19
0010
0000
0100
1000
,  // measure 20
0010
0000
0100
0000
,  // measure 21
0001
0000
0010
0001
,  // measure 22
1000
0000
0101
0000
,  // measure 23
0010
0000
1000
0100
,  // measure 24
0010
0000
1001
0000
,  // measure 25
0100
0100
0001
0010
,  // measure 26
0001
1000
2000
3000
,  // measure 27
0100
0100
1000
0010
,  // measure 28
0100
0010
0020
0030
,  // measure 29
0100
0001
1000
0100
,  // measure 30
1000
0010
0200
0300
,  // measure 31
0001
0010
1000
0010
,  // measure 32
0001
0100
0010
1010
,  // measure 33
0101
0001
0010
0100
,  // measure 34
1000
0010
1010
1010
,  // measure 35
1000
0100
0010
0001
,  // measure 36
0100
0002
2000
3003
,  // measure 37
0001
0010
0100
1000
,  // measure 38
0001
0100
0101
0101
,  // measure 39
0001
1000
0100
0010
,  // measure 40
0001
0200
0020
0330
,  // measure 41
0010
0000
1000
0000
,  // measure 42
0001
0000
1000
0000
,  // measure 43
0100
0000
0010
0000
,  // measure 44
0001
1000
0001
0000
,  // measure 45
0100
0000
0010
0000
,  // measure 46
1000
0000
0001
0100
,  // measure 47
0010
0000
1000
0000
,  // measure 48
0100
0000
0010
0000
0000
0001
0000
0000
,  // measure 49
2000
3000
0001
0100
,  // measure 50
0020
0030
0100
0001
,  // measure 51
0020
0030
0100
0100
,  // measure 52
0010
0010
0001
0100
,  // measure 53
0002
0003
1000
0100
,  // measure 54
0020
0030
0001
1000
,  // measure 55
0020
0030
0100
0100
,  // measure 56
0010
1000
0100
0010
,  // measure 57
0001
1000
0100
1000
,  // measure 58
0001
0010
1001
0000
,  // measure 59
0001
0100
0001
1000
,  // measure 60
0010
0100
1001
0000
,  // measure 61
0100
0010
1000
0100
,  // measure 62
0010
0100
0011
0000
,  // measure 63
0001
0100
0010
0100
,  // measure 64
0001
0010
1100
0000
,  // measure 65
0010
0000
0001
0000
,  // measure 66
1000
0000
0010
0000
,  // measure 67
0200
0000
0000
0300
,  // measure 68
0001
1000
0001
0000
,  // measure 69
0010
0000
0100
0000
,  // measure 70
1000
0000
0010
0000
,  // measure 71
0200
0000
0000
0300
,  // measure 72
1001
0000
0010
0100
;

//---------------dance-single - Shorty----------------
#NOTES:
     dance-single:
     Shorty:
     Medium:
     6:
     0.518,0.576,0.439,0.278,0.000:
0000
0000
0000
0000
,
0000
0000
0000
0000
,
0000
0000
0000
0000
,
0000
0000
0000
0000
,
1000
0000
0001
0000
1000
0100
0000
0000
,
0010
0000
0001
0000
0100
0000
0010
0100
,
0001
0000
1000
0000
0100
1000
0000
0000
,
0010
1000
2001
3100
,
1000
0000
0010
0100
0020
0000
0030
0000
,
1000
0001
0010
0100
,
1000
0000
0001
0100
0001
0100
0002
0000
,
0013
0100
1000
1001
,
0100
0000
0010
1000
0002
0000
0003
0000
,
1001
0000
0010
0100
0010
0000
0001
0000
,
1000
0000
0010
1000
0010
1000
0020
0000
,
1030
0100
0010
0001
,
1000
0001
0000
0001
0100
0000
0100
0001
,
0100
0001
0000
1000
,
0010
1000
0000
1000
0010
0000
0010
0100
,
0010
0100
0000
0001
,
0010
0100
0000
0100
1000
0000
1000
0001
,
1000
0010
0000
0100
,
0001
0010
0000
0010
0100
0000
0100
1000
,
0200
0000
0000
0300
,
0010
0100
1002
0013
,
0100
0010
2001
3010
,
0100
0010
0100
0000
1001
0000
0110
0000
,
1000
0001
1000
0000
0101
0000
0000
0000
,
1000
0001
0120
0031
,
1000
0001
0120
1030
,
0001
1000
0001
0000
0110
0000
1001
0000
,
0100
0010
0100
0000
0011
0000
0000
0000
,
2000
0010
3002
1003
,
1001
1000
0101
0000
,
0002
0010
2003
3001
,
1001
0001
1010
0000
,
0200
0001
0320
1030
,
0110
0001
1100
0000
,
2001
0000
0000
0001
3001
0000
1001
0000
,
1002
0000
0000
1000
1003
0000
1001
0000
,
0010
1000
0100
0010
,
0002
0100
0010
0103
,
0001
0010
0100
1000
,
0020
1000
0100
1030
,
1010
1000
0001
0100
,
0101
0000
1001
0000
0001
1000
0001
0000
,
1000
0100
1100
1001
,
1000
0000
0010
1000
0000
1001
0000
0000
,
1100
0000
0010
0001
,
0100
0000
0001
1000
,
0110
0000
1000
0001
,
1000
0001
0000
0001
0100
0000
0010
0000
,
1000
0010
0000
0010
1000
0000
0001
0000
,
0100
0010
0000
0010
0100
0000
0001
0000
,
1000
0100
0000
0100
0010
0000
0001
0000
,
1000
0010
0000
1000
0010
0000
1000
0000
,
0001
0100
1000
0100
,
0001
1000
1000
0100
,
1000
0010
0001
0010
,
1000
0001
0001
0010
,
0110
0100
1000
0010
,
0110
0100
0010
1000
,
1002
0100
1003
0001
,
2000
0010
3001
1001
,
0101
0000
0010
1000
,
1001
0000
0100
1000
,
2002
0000
3000
1000
,
1003
0000
1001
0000
,
0110
0000
0100
1000
,
0110
0000
0010
0001
,
2000
3000
0002
0003
,
1000
0010
0100
0001
;
