#TITLE:Fly With You;
#SUBTITLE:;
#ARTIST:Scott Brown;
#TITLETRANSLIT:;
#SUBTITLETRANSLIT:;
#ARTISTTRANSLIT:;
#GENRE:;
#CREDIT:;
#BANNER:fly.png;
#BACKGROUND:fly-bg.png;
#LYRICSPATH:;
#CDTITLE:;
#MUSIC:fly.ogg;
#OFFSET:-0.011;
#SAMPLESTART:43.976;
#SAMPLELENGTH:12.000;
#SELECTABLE:YES;
#BPMS:0.000=173.550,32.000=175.000,128.000=174.250,224.000=175.325;
#STOPS:;
#BGCHANGES:;
#KEYSOUNDS:;

//---------------dance-single - Renard----------------
#NOTES:
     dance-single:
     Renard:
     Hard:
     7:
     0.525,0.000,0.318,0.079,0.000:
0000
0000
0000
0000
,
0000
0000
0000
0000
,
0000
0000
0000
0000
,
0000
0000
0000
0000
,
1000
0100
0010
0001
0000
0001
0000
0001
,
0001
0010
0100
1000
0000
1000
0000
1000
,
0010
0100
0001
0001
0000
0001
0000
0001
,
1000
0100
0010
0001
0010
0000
1001
0000
,
1010
0000
0000
0100
0000
0100
0001
0000
,
0010
0000
0010
0100
0000
0100
1000
0000
,
0010
0000
0100
0001
0000
0001
1000
0000
,
0100
0000
0010
0001
0000
1000
0010
0000
,
0100
0000
0001
1000
0000
0100
0010
0000
,
0001
0000
0010
1000
0000
1000
0010
0000
,
0001
0000
0100
1000
0000
1000
0100
0000
,
0001
1000
0100
0010
0000
0010
0001
0000
,
0100
1000
0100
0001
0000
0001
0100
0000
,
0010
1000
0010
0001
0000
0001
0010
0000
,
0100
0000
1000
0100
0001
0000
0001
0010
,
1000
0000
1000
0010
0100
0001
0100
1000
,
0010
0000
0010
0100
0001
0000
0001
1000
,
0010
0000
0010
1000
0100
0010
0001
1000
,
0010
0000
0010
0100
0001
0000
1000
0100
,
0010
0000
0010
0001
0000
0001
0100
0000
,
0020
0000
0000
0000
,
2030
0000
0100
0100
,
3200
0000
0000
0010
,
0320
0000
0000
0001
,
0032
0000
0000
0000
,
0203
0000
0000
0010
,
0320
0000
2030
0000
,
3100
0000
0010
0000
0001
0010
0100
0000
,
1000
0000
1000
0010
0000
0010
0100
0001
,
0010
0100
1000
0010
0100
0001
1000
0100
,
0010
0000
0010
0001
0000
0001
0010
0000
,
0010
0100
0000
0100
1000
0010
0100
0000
,
0001
0000
0001
0100
0000
0100
0010
0000
,
0010
1000
0100
0010
0001
0010
0100
1000
,
0010
0000
0010
0100
0000
0100
0001
0000
,
1000
0000
0100
0000
0010
0001
0010
0000
,
0001
0000
0001
1000
0000
1000
0010
0100
,
0001
1000
0100
0010
0001
1000
0010
0000
,
0100
0000
0100
0001
0000
0001
1000
0000
,
0100
1000
0001
0000
0010
0001
1000
0000
,
0010
1000
0001
0100
0000
0100
0010
0000
,
1000
0100
0000
0010
0001
0100
0010
0000
,
1000
0000
1000
0001
0000
0001
0100
0000
,
0010
1000
0100
0010
0001
1000
0010
0000
,
0100
0000
0001
0000
0000
0100
0010
1000
,
0100
0000
0010
0000
0000
0001
0100
0010
,
1000
0000
0011
0000
0000
0100
1000
0010
,
0100
0000
1010
0000
0000
0100
0001
0010
,
0100
0000
0010
0000
0000
0001
0100
0010
,
1000
0000
0100
0000
0000
0010
0001
1000
,
0010
0000
0101
0000
0000
0010
1000
0100
,
0010
0000
0000
0000
,
1100
0000
0000
0011
0000
0000
0101
0000
,
0000
1010
0000
0000
1100
0000
0011
0000
,
0101
0000
0000
1010
0000
0000
1100
0000
,
0000
0011
0000
0000
0101
0000
1001
0000
,
1100
0000
0000
1001
0000
0000
1010
0000
,
0000
1001
0000
0000
0101
0000
0011
0000
,
1001
0000
0000
1100
0000
0000
1001
0000
,
0000
0011
0000
0000
1001
0000
1010
0000
,
0001
0000
0001
0100
0000
0100
0001
1000
,
0100
0000
0010
0001
0000
0001
0010
0100
,
1000
0000
0010
0100
0000
0100
0001
0100
,
0010
0000
1000
0100
0000
0100
1000
0010
,
0100
0000
0001
0000
0010
0100
1000
0010
,
0000
0101
0000
1010
0000
1000
0100
0010
,
0001
0000
0010
0100
1000
0010
0100
0010
,
1001
0000
0000
0000
;

//---------------dance-single - Renard----------------
#NOTES:
     dance-single:
     Renard:
     Medium:
     5:
     0.360,0.000,0.109,0.020,0.000:
0000
0000
0000
0000
,
0000
0000
0000
0000
,
0000
0000
0000
0000
,
0000
0000
0000
0000
,
1000
0000
0001
0100
0000
0010
0000
1000
,
0100
0000
0010
0001
0000
0010
0000
0100
,
1000
0000
0010
0100
0000
0001
0000
0000
,
1001
0100
0010
1001
,
1000
0000
0000
0010
0000
0000
0100
0000
,
0001
0000
0000
0010
0000
0000
0100
0000
,
1000
0000
0010
0000
,
0100
0000
0000
0001
0000
0000
1000
0000
,
0100
0000
0000
1000
0000
0000
0001
0000
,
0010
0000
0000
0001
0000
0000
0100
0000
,
0001
0000
1000
0000
,
0100
0000
0000
0010
0000
0000
0001
0000
,
0100
0000
0000
0010
0000
0000
1000
0000
,
0001
0000
0000
0100
0000
0000
0001
0000
,
1000
0000
0100
0000
,
0010
0000
0000
0001
0000
0000
0100
0000
,
0010
0000
0000
1000
0000
0000
0100
0000
,
0010
0000
0000
0001
0000
0000
0010
0000
,
0100
0000
0010
0000
,
0100
0000
0000
1000
0000
0000
0010
0000
,
0100
0200
0000
0000
0000
0000
0000
0000
,
0301
0002
0000
0000
0000
0000
0000
0000
,
1003
0000
0000
0100
0000
0000
0010
0000
,
0000
0001
0000
0000
0010
0000
0000
0100
,
1000
0000
0000
0010
0000
0000
0100
0000
,
0000
0001
0000
0000
0100
0000
0000
0010
,
1000
0000
0000
0100
0000
0000
0010
0000
,
0001
1000
0001
1001
,
1000
0000
0000
0010
0000
0000
0100
0000
,
0001
0000
0000
0010
0000
0000
0100
0000
,
1000
1000
0010
0010
,
0100
0000
0000
0001
0000
0000
0010
0000
,
0100
0000
0000
0010
0000
0000
0001
0000
,
1000
0000
0000
0010
0000
0000
0100
0000
,
0001
0001
1000
1000
,
0010
0000
0000
0100
0000
0000
0001
0000
,
1000
0000
0000
0100
0000
0000
0010
0000
,
0100
0000
0000
1000
0000
0000
0010
0000
,
0100
0100
0001
0001
,
1000
0000
0000
0100
0000
0000
0010
0000
,
0001
0000
0000
0010
0000
0000
0100
0000
,
1000
0000
0000
0010
0000
0000
0100
0000
,
0001
0000
0100
0010
,
1000
0000
0000
0100
0000
0000
0010
0000
,
0001
0000
0011
0000
0000
0010
0100
1000
,
0010
0000
0101
0000
0000
0010
1000
0100
,
0010
0000
0011
0000
0000
0010
0100
1000
,
0010
0000
0101
0000
0000
0010
1000
0100
,
0010
0000
0011
0000
0000
0010
0100
1000
,
0010
0000
0101
0000
0000
0010
1000
0100
,
0010
0000
0011
0000
0000
0010
0100
0000
,
1001
0000
0000
0000
,
1000
0000
0001
0000
0100
0000
0010
1000
,
0000
0100
0000
0010
0001
0000
0010
0000
,
0100
0000
1000
0000
0010
0000
0100
0001
,
0000
0100
0000
0010
1000
0000
0100
0000
,
0010
0000
0001
0000
1000
0000
0001
0100
,
0000
0001
0000
1000
0100
0000
0010
0000
,
0001
0000
0010
0000
0100
0000
1000
0010
,
0000
0100
0000
0001
1000
0000
0001
0000
,
1000
0000
0100
0000
0010
0000
0010
0001
,
0010
0000
0100
0000
1000
0000
0010
0100
,
0001
0000
0100
0000
0010
0000
0010
1000
,
0010
0001
0010
0000
,
0100
0000
1000
0000
0010
0000
0100
0001
,
0100
0000
0010
0000
1000
0000
0100
0010
,
0001
0000
0010
0000
0100
0000
1000
0010
,
0100
0000
0000
0000
;

//---------------dance-single - Renard----------------
#NOTES:
     dance-single:
     Renard:
     Easy:
     2:
     0.146,0.000,0.020,0.119,0.000:
0000
0000
0000
0000
,
0000
0000
0000
0000
,
0000
0000
0000
0000
,
0000
0000
0000
0000
,
1000
0000
1000
0000
,
0001
0000
0001
0000
,
0100
0000
0100
0000
,
0010
0000
1001
0000
,
1000
0000
1000
0000
,
0100
0000
0100
0000
,
0010
0000
0000
0000
,
0001
0000
0000
0000
,
0010
0000
0010
0000
,
0100
0000
0100
0000
,
2000
0000
0000
0000
,
0000
0000
0000
0000
,
3010
0000
0010
0000
,
0100
0000
0100
0000
,
0001
0000
0000
0000
,
0001
0000
0000
0000
,
0010
0000
0010
0000
,
0001
0000
0001
0000
,
0200
0000
0000
0000
,
0000
0000
0000
0000
,
0320
0000
0000
0000
,
0000
0000
0000
0000
,
2030
0000
0000
0000
,
0000
0000
0000
0000
,
3200
0000
0000
0000
,
0000
0000
0000
0000
,
0320
0000
0000
0000
,
0000
0000
0000
0000
,
0031
0000
0001
0000
,
0100
0000
0100
0000
,
0010
0000
0000
0000
,
1000
0000
0000
0000
,
1000
0000
1000
0000
,
0100
0000
0100
0000
,
0010
0000
0000
0000
,
0010
0000
0000
0000
,
0001
0000
1000
0000
,
0001
0000
0000
0000
,
1000
0000
0000
0000
,
0001
0000
0000
0000
,
0100
0000
0100
0000
,
0010
0000
0010
0000
,
0100
0000
0000
0000
,
0010
0000
1000
0000
,
0002
0000
0000
0000
,
0203
0000
0000
0000
,
0320
0000
0000
0000
,
0000
0000
0000
0000
,
2030
0000
0000
0000
,
3200
0000
0000
0000
,
0320
0000
0000
0000
,
0000
0000
0000
0000
,
0031
0000
0001
0000
,
1000
0000
0000
0000
,
1000
0000
1000
0000
,
0001
0000
0000
0000
,
0100
0000
0100
0000
,
0010
0000
0000
0000
,
1000
0000
1000
0000
,
0010
0000
0100
0000
,
0001
0000
0001
0000
,
0010
0000
0000
0000
,
0100
0000
0100
0000
,
1000
0000
0000
0000
,
0010
0000
0010
0000
,
1000
0000
0000
0000
,
0001
0000
0100
0000
,
1001
0000
0000
0000
;

//---------------dance-single - Blank----------------
#NOTES:
     dance-single:
     Alezay:
     Challenge:
     9:
     0.677,0.000,0.765,0.070,0.030: // measure 1
0000
0000
0000
0000
,  // measure 2
0000
0000
0000
0000
,  // measure 3
0000
0000
0000
0000
,  // measure 4
0000
0000
0000
0000
,  // measure 5
1000
0100
0010
0001
0000
1001
0000
0001
,  // measure 6
0010
0100
1000
0010
0000
0110
0000
0100
,  // measure 7
0001
1000
0100
0010
0000
0011
0000
0100
,  // measure 8
1000
0010
0100
0001
2000
0000
3001
0000
,  // measure 9
1001
0001
0100
0010
1000
0000
1000
0010
,  // measure 10
0000
1010
0000
0010
1000
0010
0001
0010
,  // measure 11
1000
0000
0101
0000
1100
0000
0001
0010
,  // measure 12
0000
0011
0000
0010
0001
0010
1000
0010
,  // measure 13
0001
0000
1100
0000
0101
0000
1000
0100
,  // measure 14
0000
1100
0000
0100
0001
0100
1000
0100
,  // measure 15
0001
0000
1100
0000
1010
0000
0001
0100
,  // measure 16
0000
0101
0000
0100
1000
0100
0001
0100
,  // measure 17
1000
0000
0101
0000
0011
0000
0001
1000
,  // measure 18
0000
1001
0000
1000
0001
1000
0001
1000
,  // measure 19
0001
0000
0101
0000
1010
0000
0010
0100
,  // measure 20
0000
0110
0000
0100
0010
0100
0010
0100
,  // measure 21
0010
0000
1100
0000
0011
0000
0100
0010
,  // measure 22
0000
0110
0000
0010
0100
0010
0100
0010
,  // measure 23
0100
0000
1001
0000
0110
0000
1000
0001
,  // measure 24
0000
1001
0000
0001
1000
0001
1000
0001
,  // measure 25
1001
0000
0000
1100
0000
0000
0101
0000
,  // measure 26
0000
1010
0000
0000
0011
0000
0000
1100
,  // measure 27
1001
0000
0000
0011
0000
0000
1010
0000
,  // measure 28
0000
0101
0000
0000
1100
0000
0000
0011
,  // measure 29
1001
0000
0000
0101
0000
0000
0011
0000
,  // measure 30
0000
1100
0000
0000
1010
0000
0000
0101
,  // measure 31
0110
0000
0000
1001
0000
0000
1010
0000
,  // measure 32
1000
0001
1000
0000
0000
0000
0001
1000
0001
0000
0000
0000
1000
0001
1000
0000
0000
0000
1001
0000
0000
0000
0000
0000
,  // measure 33
0001
0100
0010
1000
0100
1000
0001
0010
,  // measure 34
0001
1000
0100
1000
0001
0100
0001
1000
,  // measure 35
0001
1000
0010
0100
0010
1000
0001
0100
,  // measure 36
0010
0100
0001
1000
0100
0010
0001
0010
,  // measure 37
0100
1000
0100
0010
0100
1000
0001
0010
,  // measure 38
0100
0010
0001
1000
0010
0100
0001
1000
,  // measure 39
0010
0100
0001
0100
0010
1000
0001
0100
,  // measure 40
0010
1000
0100
1000
0100
0010
0001
0010
,  // measure 41
0001
1000
0001
1000
0001
0100
0001
0100
,  // measure 42
0010
1000
0010
1000
0001
0010
0100
1000
,  // measure 43
0001
0010
0100
1000
0001
1000
0010
1000
,  // measure 44
0100
1000
0001
1000
0001
0010
0001
0100
,  // measure 45
0001
0010
0100
0010
0001
1000
0100
0010
,  // measure 46
0100
1000
0001
1000
0001
1000
0100
0010
,  // measure 47
1000
0010
0100
1000
0001
0010
0100
0001
,  // measure 48
0100
0010
0001
0010
0100
1000
0100
0010
,  // measure 49
0001
0000
0110
0000
1001
0000
1000
0100
,  // measure 50
0000
0110
0000
0100
0010
0001
0010
0100
,  // measure 51
1000
0000
0110
0000
1001
0000
0001
0010
,  // measure 52
0000
0110
0000
0010
0100
1000
0100
0010
,  // measure 53
0001
0000
0011
0000
1100
0000
1000
0010
,  // measure 54
0000
0101
0000
0010
1000
0001
1000
0001
,  // measure 55
0010
0000
1100
0000
0011
0000
0002
2000
,  // measure 56
0000
0000
0000
0000
0000
0000
0000
3003
,  // measure 57
0100
0000
0101
0000
1100
0000
0100
0100
,  // measure 58
0000
0011
0000
0100
1000
0010
0100
0001
,  // measure 59
0100
0000
1010
0000
0011
0000
0010
0010
,  // measure 60
0000
1100
0000
0010
0001
0100
0010
1000
,  // measure 61
0010
0000
0110
0000
1001
0000
1000
1000
,  // measure 62
0000
0001
0000
1000
0001
1000
0010
0100
,  // measure 63
0010
0000
0110
0000
1001
0000
0001
0001
,  // measure 64
0000
1000
0000
0001
1000
0001
0100
0010
,  // measure 65
0100
0000
0101
0000
0011
0000
0001
1000
,  // measure 66
0000
1001
0000
1000
0100
0010
0001
0010
,  // measure 67
0001
0000
1010
0000
1100
0000
1000
0001
,  // measure 68
0000
1001
0000
0001
0010
0100
1000
0100
,  // measure 69
1000
0000
0002
0000
0103
0000
0100
0010
,  // measure 70
0000
1001
0000
0100
0010
0100
0001
1000
,  // measure 71
0001
0000
2000
0000
3010
0000
0010
2002
,  // measure 72
0000
0000
0000
3003
;
