#TITLE:Faster;
#SUBTITLE:;
#ARTIST:Renard vs Kitsune²;
#GENRE:Speedpop;
#TITLETRANSLIT:;
#SUBTITLETRANSLIT:;
#ARTISTTRANSLIT:;
#CREDIT:;
#BANNER:;
#BACKGROUND:Faster-bg.png;
#LYRICSPATH:;
#CDTITLE:;
#MUSIC:faster.ogg;
#OFFSET:0.000;
#SAMPLESTART:30.815;
#SAMPLELENGTH:12.000;
#SELECTABLE:YES;
#BPMS:0.000=310.126,32.000=155.063,64.000=310.126,320.000=155.063,352.000=310.126;
#STOPS:;
#BGCHANGES:;

//---------------dance-single - Renard----------------
#NOTES:
     dance-single:
     Renard:
     Hard:
     10:
     0.869,1.000,0.092,0.231,0.018:
0000
0000
0000
0000
,
0000
0000
0000
0000
,
0000
0000
0000
0000
,
0000
0000
0000
0000
,
1001
0000
0000
0110
,
1010
0000
0000
0101
,
0011
0000
0001
0100
0001
0000
1000
0010
,
1000
0000
0001
0000
1000
0001
1000
0000
,
0002
0203
2000
0300
0200
3000
0020
0300
,
2000
0000
0000
0030
,
3200
0000
0000
0000
0000
0000
0302
0203
,
2000
0000
0000
3300
,
0020
0000
0032
0000
0200
0003
0010
0010
,
0320
0000
2000
0030
0200
3000
0020
0300
,
0002
0030
0203
0000
0320
0000
2030
3200
,
0320
0000
0000
0000
0032
0000
0000
0000
0200
0000
0003
0000
0301
0100
0001
0000
,
1000
0000
0001
0000
1000
0000
0010
0100
,
0000
0100
0001
0000
0100
0000
0010
0000
,
1000
0000
0100
0000
0010
0000
0001
0010
,
0000
0010
0100
0000
1000
0000
0001
0000
,
0100
0000
0001
0000
1000
0000
0100
0010
,
0000
0010
0100
0000
1000
0000
0001
0000
,
0100
0000
0010
0000
1000
0000
0001
0100
,
0000
0100
0001
0000
1000
0000
0100
1000
,
0001
0000
1000
0000
0001
0000
0100
0010
,
0000
0010
1000
0000
0010
0000
0100
0000
,
0001
0000
0010
0000
0100
0000
1000
0100
,
0000
0100
0010
0000
0001
0000
1000
0000
,
0010
0000
1000
0000
0001
0000
0010
0100
,
0000
0100
0010
0000
0001
0000
1000
0000
,
0010
0000
0100
0000
0001
0000
1000
0010
,
0000
0010
1000
0000
0001
0010
0001
0010
,
0001
1000
0100
0010
0001
1000
0100
0010
,
0001
0010
0100
1000
,
0100
1000
0010
0100
0001
0100
0010
1000
,
0001
0100
0010
1000
,
0100
1000
0100
0010
0001
0010
0100
1000
,
0100
0010
0001
0010
,
0100
1000
0001
0100
0010
1000
0001
1000
,
0100
0010
0001
1000
,
1000
0001
0010
0100
1000
0001
0010
0100
,
1000
0100
0010
0001
,
0010
0001
0100
0010
1000
0010
0100
0001
,
1000
0010
0100
0001
,
0010
0001
0010
0100
1000
0100
0010
0001
,
0010
0100
1000
0100
,
0010
0001
1000
0010
0100
0001
1000
0001
,
0010
0100
1000
0001
,
1000
0000
0100
0000
1000
0100
1000
0000
,
0001
0000
0010
0000
0001
0010
0001
0000
,
1000
0000
0010
0000
1000
0010
1000
0000
,
0001
0000
0100
0000
0001
0100
0001
0000
,
1000
0000
0100
0000
1000
0100
1000
0000
,
0001
0000
0100
0000
0001
0100
0001
0000
,
1000
0000
0010
0000
1000
0010
1000
0000
,
0001
0000
0010
0000
0001
0010
0001
0010
,
0001
0000
0010
0100
1000
0000
0100
0000
,
0010
0001
0010
0100
,
1000
0000
0010
0100
0001
0000
0100
0000
,
0010
1000
0100
0010
,
0001
0000
1000
0001
1000
0000
0001
0000
,
0010
0000
0100
1000
0001
0000
0100
0000
,
0010
0000
1000
0001
1000
0000
0001
0100
,
0010
0000
1000
0010
0100
0001
1000
0000
,
0101
0000
0010
0000
1000
0000
0100
1000
,
0100
1000
0010
0100
,
0001
0000
0010
0000
0100
0000
1000
0001
,
1000
0000
0001
0000
0100
0001
0100
0000
,
1010
0000
0100
0000
0001
0000
0010
0001
,
0010
0001
0100
0010
,
1000
0000
0100
0000
0010
0000
0001
1000
,
0001
0000
1000
0000
0010
1000
0010
0000
,
0101
0000
0010
0000
1000
0000
0100
1000
,
0100
1000
0010
0100
,
0001
0000
0010
0000
0100
0000
1000
0001
,
1000
0000
0001
0000
0100
0001
0100
0000
,
1010
0000
0100
0000
0001
0000
0010
0001
,
0010
0001
0100
0010
,
1000
0000
0100
0000
0010
0000
0001
1000
,
0001
0000
1000
0000
0010
1000
0010
1000
,
0010
1000
0100
0010
0001
0010
0100
0100
,
1000
0010
0100
0001
0010
0100
1000
1000
,
0001
1000
0100
1000
0001
0100
0010
0010
,
1000
0100
0010
0001
0010
0100
0001
0001
,
0100
1000
0010
0100
0001
0100
1000
1000
,
0100
0010
1000
0100
0010
0001
0010
0010
,
0001
0010
0100
1000
0001
0100
0001
0001
,
0100
0010
1000
0001
0100
0000
0000
0000
0000
0000
0000
0000
0001
1000
0001
0000
,
1000
0100
0010
0001
1000
0100
0010
0001
,
0010
0100
1000
0001
,
0010
0100
1000
0001
0010
0100
1000
0001
,
0010
0001
1000
0100
,
0010
0001
0100
0010
1000
0010
0100
0001
,
0100
0010
1000
0001
,
0100
0010
1000
0001
0100
0001
1000
0010
,
0100
0001
1000
0010
,
1000
0000
0010
0100
0010
0000
0100
0001
,
0100
0010
1000
0100
,
0010
0000
0001
0010
0001
0000
0010
0100
,
0010
0100
1000
0010
,
1000
0000
0001
0100
0001
0000
1000
0100
,
1000
0000
0001
0010
0001
0000
1000
0010
,
1000
1000
0001
0001
,
0100
0001
1000
0100
1000
0000
1000
0000
,
0001
0010
0100
1000
0001
0010
0100
1000
,
0100
0010
0001
1000
,
0100
0010
0001
1000
0100
0010
0001
1000
,
0100
1000
0001
0010
,
0100
1000
0010
0100
0001
0100
0010
1000
,
0010
0100
0001
1000
,
0010
0100
0001
1000
0010
1000
0001
0100
,
0010
1000
0001
0100
,
0001
0000
0100
0010
0100
0000
0010
1000
,
0010
0100
0001
0010
,
0100
0000
1000
0100
1000
0000
0100
0010
,
0100
0010
0001
0100
,
0001
0000
1000
0010
1000
0000
0001
0010
,
0001
0000
1000
0100
1000
0000
0001
0100
,
0001
1000
0001
1000
0100
0010
0001
1000
,
0001
1000
0001
0010
0100
1000
0001
0000
,
1001
0000
0000
0000
;

//---------------dance-single - BlueChaos----------------
#NOTES:
     dance-single:
     BlueChaos:
     Challenge:
     12:
     1.000,1.000,0.194,0.369,0.051:
0000
0000
0000
0000
,
0000
0000
0000
1000
,
1001
0000
0001
0100
0010
0000
1000
0100
,
0010
0000
0100
1000
0001
0000
1000
0000
,
1010
0000
0010
1000
0100
0000
0010
0000
,
0011
0000
0001
0010
0100
0000
1000
0010
,
1010
0000
1000
0001
1001
0000
0001
0100
,
0101
0000
0001
1000
0100
0010
0001
0010
,
0200
2300
3002
0200
,
2020
0000
0000
0303
0000
0000
0030
0000
,
3200
0302
2003
0200
,
0022
0000
3300
0000
,
1033
1000
2000
0010
3020
0100
0100
0100
,
0230
0001
0302
1000
2003
0100
0100
0100
,
3200
0010
0320
0001
0032
0100
0100
0100
,
0203
0000
0000
0000
0320
0000
0000
0000
2030
0000
0000
0000
3100
0010
0001
0010
,
0001
0000
0010
0001
0100
0010
1000
0000
,
0100
0000
1000
0100
1000
0010
0100
0000
,
0010
0000
0100
0001
1000
0001
0010
0100
,
1000
0000
0100
0000
0010
0001
0000
0001
,
0100
0000
0001
0100
0001
0100
0010
0100
,
0010
0000
1000
0010
1000
0010
1000
0100
,
1000
0000
0100
0010
0001
0010
0100
1000
,
0010
0000
1000
0100
1000
0010
0100
0001
,
0010
0000
0001
0010
0100
0010
0001
1000
,
0010
0000
1000
0010
0100
0010
1000
0100
,
0010
0000
0100
1000
0100
0010
0001
1000
,
0010
0000
1000
0010
0100
0001
0010
0001
,
0100
0000
0001
0100
0010
0100
0001
1000
,
0100
0000
1000
0000
0010
1000
0000
1000
,
0001
0000
1000
0000
0100
0010
0001
0100
,
0010
1001
0100
1001
,
0001
0010
0100
1000
0100
0010
0001
0010
,
0100
1000
0100
0010
0002
0000
0100
0000
,
0103
0010
1000
0010
0100
0001
0100
0010
,
1000
0010
0100
0001
0100
0010
0000
0010
,
1000
0000
0001
0010
0001
0100
0010
1000
,
0100
0000
1000
0100
1000
0010
0100
0001
,
0010
0000
0001
0010
0100
1000
0010
1000
,
0010
0100
0001
0100
0001
1000
0001
0010
,
0100
0000
1000
0100
0010
0001
0100
0001
,
0100
0000
0001
0100
0010
1000
0100
1000
,
0100
0000
1000
0100
1000
0010
0100
0001
,
1000
0000
0001
1000
0100
1000
0010
0100
,
0001
0000
0100
0001
1000
0001
0010
0100
,
1000
0100
0010
0100
1000
0001
0100
0000
,
0001
0100
0010
1000
0010
0100
0001
1000
,
0100
1000
0100
0010
0100
1000
0001
0100
,
0010
1010
1000
1001
,
0001
0010
0000
0100
1000
0000
1001
0000
,
0001
0000
0101
0000
0001
1000
0100
1000
,
0010
0000
1010
0000
1000
0000
0001
1000
,
0100
0000
1000
0000
0100
0000
1000
0010
,
0100
0000
0010
0000
0100
0000
0001
0010
,
0100
0000
0010
0000
0100
0000
1000
0001
,
0100
0000
0101
0000
0001
1000
0000
1000
,
0100
0000
1000
0100
0010
0000
0100
0010
,
0001
0000
0010
0001
0100
0000
0001
0000
,
0100
0000
0001
0010
0100
0000
0010
0001
,
0100
0000
0001
0100
0010
0000
1000
0010
,
1010
1000
0100
0010
,
0100
0000
1000
0100
0010
0000
0001
0000
,
0101
0100
0101
0001
,
1001
1000
1100
0100
,
1000
0100
0010
0001
0010
0100
1000
0100
,
1000
0010
1000
0001
1000
0100
0010
0001
,
0100
0010
1000
0010
0100
0001
0010
0100
,
0010
0001
1000
0010
0100
0010
1000
0100
,
0010
0001
0010
0001
0100
0001
0100
0001
,
1000
0001
1000
0001
0010
0100
0010
0001
,
1000
0100
0010
0100
1000
0001
0100
0001
,
1000
0001
0010
0100
0010
0001
1000
0010
,
0100
0010
1000
0010
0200
0000
0010
0000
,
0001
0320
1000
0230
,
0001
0302
0010
2003
,
0010
3200
0010
2300
,
0001
3020
1000
0230
,
0010
0320
1000
2030
,
0100
3002
0010
0103
,
0010
1000
0100
0010
0001
0100
0010
1000
,
0100
0100
0010
0010
0001
0001
1000
1000
,
0010
1000
0010
1000
0010
1000
0001
0000
0010
0000
0100
0000
1000
0000
0100
0000
,
0010
0001
0010
0001
1000
0000
0010
0000
0100
0001
0100
0000
0010
0000
1000
0000
,
0100
0010
0100
0000
0010
0000
0001
0000
1000
0000
1000
0000
0010
0000
0010
0000
,
0100
0100
0010
0010
1000
1000
0001
0001
,
0010
0100
1000
0100
0001
0001
0100
0100
,
1000
1000
0010
0001
0010
1000
0100
0010
,
0001
0000
0001
0000
0010
0000
1000
0000
0010
0000
0001
0000
0001
0100
0010
1000
,
0100
1000
0100
0010
0001
0100
0010
1000
,
0010
0100
0001
1000
0200
0000
0000
0000
,
1300
0010
0100
0010
1000
0100
0010
0001
,
0010
0100
1000
0000
0100
1000
0000
1000
,
0010
0000
1000
0010
0100
0001
0010
0100
,
1000
0000
0100
0010
0001
0100
0010
1000
,
0001
0000
1000
0100
0010
0001
0100
0010
,
1000
0100
0010
0001
1000
0010
0100
0010
,
1000
0000
0001
0100
0001
0000
1000
0010
,
1000
0000
0001
0010
0001
0000
1000
0100
,
1000
0000
0100
0010
0001
0000
0010
0001
,
0100
0001
0100
0000
0001
0100
0000
0001
,
0010
0000
0100
1000
0001
0000
1000
0001
,
0100
0001
1000
0100
0010
0000
0100
0000
,
1000
0100
0000
0100
0010
0000
0001
0000
,
0010
0001
0000
0001
0100
0010
1000
0100
,
0010
0000
0001
0010
0100
1000
0100
0010
,
0001
1000
0010
0100
0002
0000
0000
0000
,
1003
0010
0100
0010
1000
0100
0010
0001
,
0010
0100
1000
0000
0100
0010
0000
0100
,
1000
0000
0001
0100
0001
0100
0010
1000
,
0010
0000
1000
0100
1000
0100
0010
0001
,
0010
0000
0001
0010
0001
0100
0010
0100
,
0001
1000
0001
0100
0020
0000
0000
0000
,
1030
0100
0010
0001
0010
0001
0100
0010
,
1000
0010
0100
0001
0010
0100
1000
0001
,
1000
0010
1000
0100
1000
0100
0010
0001
,
0010
0001
0100
0001
1000
0001
0010
0100
,
0010
0001
0100
0010
0100
0010
1000
0100
,
0010
0100
1000
0010
1000
0001
1000
0100
,
0010
0001
1000
0001
0010
0001
1000
0001
,
1000
0010
0100
0010
1000
0100
0010
0001
,
0200
0000
0000
0000
,
0300
0000
0000
0000
;

//---------------dance-single - BlueChaos----------------
#NOTES:
     dance-single:
     BlueChaos:
     Medium:
     8:
     0.716,0.949,0.102,0.369,0.000:
0000
0000
0000
0000
,
0000
0000
0000
0000
,
1001
0000
1000
0000
,
0100
0000
0010
0000
,
0011
0000
0001
0000
,
0101
0000
0001
0000
,
1001
0000
0000
0001
1000
0000
0000
1000
,
0010
0000
0000
0010
0100
0000
0001
0000
,
2000
3200
0320
0032
,
2000
0003
0000
0000
,
0020
3000
0000
2030
,
0002
3000
0000
0000
,
2003
3200
0320
0032
,
0203
0320
2030
3200
,
0320
0230
2300
3002
,
0203
0000
0320
0000
1030
0000
0001
1000
,
0001
0100
0001
1000
,
0001
0000
0010
0000
0100
1000
0000
1000
,
0100
1000
0010
0100
,
0001
0000
0100
0000
0010
0100
0000
0100
,
0001
0100
0010
1000
,
0001
1000
0001
0010
,
0100
1000
0100
0010
,
0001
0100
0010
1000
,
0010
0100
0010
0000
0100
0000
0001
0000
,
1000
0100
0000
0100
0010
0000
0100
0000
,
0010
0001
0100
0001
,
1000
0100
0000
0100
0010
0000
0001
0100
,
0010
0100
0010
1000
,
0001
0000
1000
0000
0100
1000
0100
1000
,
0001
1000
0001
1000
,
0010
0100
0101
0001
,
0010
0000
0100
1000
0000
1000
0010
0000
,
0010
0100
0001
0000
2000
0000
0000
0000
,
3100
0000
0010
0001
0000
0001
0100
0000
,
0001
0000
0100
0001
0000
0001
1000
0000
,
0001
0000
0010
0000
0100
1000
0100
0000
,
1000
0000
0001
0000
0100
0001
0100
0000
,
0001
1000
0100
0010
,
0001
0010
0001
0000
0100
0000
0010
0000
,
1000
0000
0100
0000
1000
0100
1000
0000
,
0100
0000
0010
0000
0001
0010
0001
0000
,
1000
0000
0010
0000
0100
0010
0100
0000
,
0001
0000
1000
0010
0000
0010
0100
0000
,
0001
1000
0100
0000
1000
0000
0100
0000
,
0010
0001
1000
0000
0001
0000
0100
0000
,
0010
0100
0010
0000
0100
0000
0001
1000
,
0100
1000
0010
1000
,
1010
0000
0000
0010
1000
0000
0000
0010
,
0100
0000
0000
0001
0010
0000
0000
0100
,
1000
0000
0000
0010
0100
0000
0000
0001
,
0010
0000
0000
0100
1000
0010
0000
0010
,
0100
0000
0000
0100
0001
0000
0000
0100
,
0010
0000
0000
1000
0001
0000
0000
1000
,
0100
0000
0000
0010
0001
0000
0000
1000
,
0010
0000
0000
1000
0100
0010
0000
0010
,
0001
0100
0010
1000
,
0010
0100
0001
1000
,
0100
1000
0100
0010
,
0001
0000
0100
0000
0010
1000
0000
1000
,
0001
0100
0010
0100
,
0001
1000
0100
0010
,
0001
0100
0010
1000
,
0001
0000
0010
0000
0100
0010
0000
0010
,
0001
2000
0010
0010
,
3010
0000
1010
0000
,
0001
0200
0001
0001
,
0301
0000
1001
0000
,
1000
0200
1000
1000
,
1300
0000
0011
0000
,
0001
2000
0010
0010
,
3010
0000
0101
0000
,
0001
0000
1000
0001
1000
0000
0001
0000
,
1000
0100
0010
0001
,
2000
0000
0010
0000
,
0001
0000
3100
1000
,
0010
0100
0010
0000
0100
0000
0001
0000
,
1000
0100
0010
0001
,
0100
0001
0100
0000
0002
0000
0000
0000
,
1003
0100
1000
0000
0200
0000
0000
0000
,
2300
0010
0100
0001
,
3020
0100
0001
0100
,
2030
0100
0010
0100
,
3002
0010
0100
1000
,
0023
0001
1000
0100
,
0032
0100
1000
0100
,
0023
0100
0001
1000
,
0230
0000
0000
0000
0000
0000
1300
0010
,
0100
0001
0100
0001
,
0100
0001
1000
0000
1001
0000
0000
0000
,
1000
0000
0100
0000
1000
0100
1000
0000
,
0100
0000
1000
0000
0001
0100
0000
0100
,
0010
0000
0100
0000
0001
1000
0001
0000
,
1000
0000
0100
0000
0010
0001
0010
0000
,
0001
0100
0010
1000
,
0100
0000
1000
0000
0001
1000
0000
1000
,
0001
0000
0100
0000
0010
0000
0100
0010
,
0100
0000
0001
0000
1000
0000
0100
0010
,
0100
0010
0001
1000
,
0001
0000
0100
0000
0001
0010
0000
0010
,
0001
0010
0001
0100
,
0010
1000
0001
0010
,
0100
0010
0001
1000
,
0001
1000
0001
0000
1000
0000
0001
1000
,
0001
1000
0100
0010
,
0001
1000
0001
0000
2000
0000
0000
0000
,
3001
0010
0100
0010
,
0001
0000
1000
0000
0010
1000
0000
1000
,
0010
0000
0100
0000
0001
0100
0001
0000
,
0100
0000
0001
0000
1000
0100
1000
0000
,
0100
0010
0001
1000
,
0001
0100
0010
1000
,
0100
0000
1000
0000
0100
0010
0001
0000
,
0010
0000
0001
0000
0010
0001
1000
0000
,
0100
1000
0010
0100
,
0010
0000
1000
0000
0100
0010
0000
0010
,
0001
0010
0001
0100
,
0010
1000
0100
0010
,
0100
1000
0001
0100
,
0010
1000
0010
0000
1000
0000
0001
1000
,
0002
0000
0000
0000
,
0003
0000
0000
0000
;

//---------------dance-single - BlueChaos----------------
#NOTES:
     dance-single:
     BlueChaos:
     Easy:
     5:
     0.447,0.554,0.295,0.434,0.000: // measure 1
0000
0000
0000
0000
,  // measure 2
0000
0000
0000
0000
,  // measure 3
1000
0000
0000
0000
,  // measure 4
0000
0000
0000
0001
,  // measure 5
0100
0000
0000
0001
,  // measure 6
0010
0000
0000
0100
,  // measure 7
1000
0000
1001
0000
,  // measure 8
0101
0000
0110
0000
,  // measure 9
2002
0000
0000
0000
0000
3003
0000
0000
,  // measure 10
0220
0000
0000
0000
0000
0330
0000
0000
,  // measure 11
0202
0000
0000
0000
0000
0303
0000
0000
,  // measure 12
2020
0000
0000
0000
0000
3030
0000
0000
,  // measure 13
2000
0000
3200
0000
,  // measure 14
0320
0000
0032
0000
,  // measure 15
0203
0000
0320
0000
,  // measure 16
2030
0000
0000
0001
,  // measure 17
3001
0100
0001
0000
,  // measure 18
0100
0000
0010
0000
,  // measure 19
1000
0001
1000
0000
,  // measure 20
0001
0000
0001
0000
,  // measure 21
0010
0001
0010
0000
,  // measure 22
0100
0000
0100
0000
,  // measure 23
1000
0010
0100
0000
,  // measure 24
0010
0000
0100
0000
,  // measure 25
0002
0100
0000
0103
,  // measure 26
0020
1000
0000
1030
,  // measure 27
0200
0010
0000
0310
,  // measure 28
0002
0000
2003
0000
,  // measure 29
3001
0100
0000
0100
,  // measure 30
0010
0000
0010
1000
,  // measure 31
0100
0000
0100
0010
,  // measure 32
0000
0010
0001
1000
,  // measure 33
0002
0100
0103
0000
,  // measure 34
0200
0010
0310
0000
,  // measure 35
0010
1000
0001
0000
,  // measure 36
0001
1000
0100
0000
,  // measure 37
0020
0001
0031
0000
,  // measure 38
0002
1000
1003
0000
,  // measure 39
1000
0000
0001
0000
,  // measure 40
0010
0000
0200
1000
,  // measure 41
2300
0010
3010
0000
,  // measure 42
1001
0000
1001
0000
,  // measure 43
0001
0100
0010
0000
,  // measure 44
0110
0000
0110
0000
,  // measure 45
0010
1000
0010
0000
,  // measure 46
0100
0001
0100
0000
,  // measure 47
0101
0000
1010
0000
,  // measure 48
1100
0000
1001
0000
,  // measure 49
0001
0000
0001
0000
,  // measure 50
0001
0000
1001
0000
,  // measure 51
1000
0000
1000
0000
,  // measure 52
1000
0000
1010
0000
,  // measure 53
0010
0000
0010
0000
,  // measure 54
0010
0000
0110
0000
,  // measure 55
0100
0000
0100
0000
,  // measure 56
0100
0000
0101
0000
,  // measure 57
0001
1000
0000
1000
,  // measure 58
0010
0000
1010
0000
,  // measure 59
1000
0001
0000
0001
,  // measure 60
0010
0000
0011
0000
,  // measure 61
0001
0000
1000
0000
,  // measure 62
0001
0000
0010
0000
,  // measure 63
0001
0000
0100
0000
,  // measure 64
0010
0000
1000
0000
,  // measure 65
0100
1000
0100
1000
,  // measure 66
0100
0000
0000
0000
,  // measure 67
1000
0010
1000
0010
,  // measure 68
1000
0000
0000
0000
,  // measure 69
0001
0100
0001
0100
,  // measure 70
0001
0000
0000
0000
,  // measure 71
1000
0001
1000
0001
,  // measure 72
1000
0000
0000
0000
,  // measure 73
0002
0000
0203
0000
,  // measure 74
0310
1000
0000
1000
,  // measure 75
0100
0000
1000
0000
,  // measure 76
0001
0000
0200
0000
,  // measure 77
0302
0000
2003
0000
,  // measure 78
3100
1000
0000
1000
,  // measure 79
0001
0000
1001
0000
,  // measure 80
0010
0000
1001
0000
,  // measure 81
0002
0000
0000
0000
,  // measure 82
2003
0000
0000
0000
,  // measure 83
3200
0000
0000
0000
,  // measure 84
0320
0000
0000
0000
,  // measure 85
0032
0000
0000
0000
,  // measure 86
0203
0000
0000
0000
,  // measure 87
0320
0000
0000
0030
,  // measure 88
2002
0000
3003
1000
,  // measure 89
1100
0000
1000
0000
,  // measure 90
0001
0100
0010
0000
,  // measure 91
0100
0000
0001
0000
,  // measure 92
1000
0100
0010
0000
,  // measure 93
0100
1000
0010
0000
,  // measure 94
0100
1000
0010
0000
,  // measure 95
0100
1000
0010
0000
,  // measure 96
0100
0000
0101
0000
,  // measure 97
0002
0000
1000
0000
,  // measure 98
0100
0000
1003
0000
,  // measure 99
2000
0000
0010
0000
,  // measure 100
0001
0000
3100
0000
,  // measure 101
0200
0000
0010
0000
,  // measure 102
1000
0000
0310
0000
,  // measure 103
0020
0000
0001
0000
,  // measure 104
0100
0000
0031
0000
,  // measure 105
0011
0000
0001
0000
,  // measure 106
0001
0000
0001
0000
,  // measure 107
1001
0000
1000
0000
,  // measure 108
1000
0000
1000
0000
,  // measure 109
1010
0000
0010
0000
,  // measure 110
1000
0000
0100
0000
,  // measure 111
0010
0000
0001
0000
,  // measure 112
0010
0000
0100
0000
,  // measure 113
2000
0000
0001
0000
,  // measure 114
0001
0000
3001
0000
,  // measure 115
1001
0000
0002
0000
,  // measure 116
0100
0000
0100
0000
,  // measure 117
0103
0000
0110
0000
,  // measure 118
0020
0000
1000
0000
,  // measure 119
1000
0000
1030
0000
,  // measure 120
0100
1000
0001
0000
,  // measure 121
1001
0000
0000
0000
;
