#TITLE:Fasten Your Seatbelts;
#SUBTITLE:;
#ARTIST:Pendulum & Freestylers;
#TITLETRANSLIT:;
#SUBTITLETRANSLIT:;
#ARTISTTRANSLIT:;
#CREDIT:;
#BANNER:seat.img;
#BACKGROUND:seat-bg.img;
#LYRICSPATH:;
#CDTITLE:;
#MUSIC:seat.ogg;
#OFFSET:0.000;
#SAMPLESTART:13.873;
#SAMPLELENGTH:11.000;
#SELECTABLE:YES;
#BPMS:0.000=138.020;
#STOPS:;
#BGCHANGES:;
#GENRE:Nustyle Breaks;

//---------------dance-single - Renard----------------
#NOTES:
     dance-single:
     Renard:
     Hard:
     7:
     0.553,0.628,0.468,0.214,0.034:
0000
0000
0000
0000
,
0000
0000
0000
0000
,
0000
0000
0000
0000
,
0000
0000
0000
0000
,
1000
0001
0100
0000
0010
0000
1000
0000
,
0100
0010
0001
0000
0010
0000
0100
0000
,
1000
0001
0100
0000
0001
0000
0010
0000
,
0001
1000
0010
0000
0100
0000
2010
0000
,
3100
0000
0100
1000
0001
1000
0100
0000
,
1010
0000
0101
0000
1001
0010
0101
0000
,
1001
0000
1000
0010
0001
1000
0200
0000
,
0010
0302
0013
1001
,
0011
0000
0010
0001
1000
0001
0010
0000
,
0101
0000
1010
0000
1001
0100
1010
0000
,
1001
0000
0001
0100
1000
0001
0020
0000
,
0100
2030
3100
1001
,
0200
0000
0310
0010
1000
0100
0020
0000
,
0031
0100
0001
0010
0100
1000
0010
0000
,
0201
0000
0310
0010
1000
0100
0010
0000
,
0011
0110
1100
1001
,
0102
0000
0103
0100
0001
0010
0200
0000
,
1300
0010
1000
0100
0010
0001
0100
0000
,
1020
0000
0130
0100
0001
0010
0100
0000
,
1100
0000
0000
0000
0110
0000
0000
0000
0010
0000
0001
0000
1000
0100
1000
0000
,
0100
0000
0000
0100
0000
0000
0100
0000
1000
0000
0100
0000
1000
0000
0000
0000
,
0100
1000
0010
0100
0001
0010
0100
1000
,
0001
0010
0001
1000
0100
0100
0010
0001
,
1000
0020
2000
0000
0001
0000
3130
0000
,
0010
1000
0100
0010
0001
0010
0100
1000
,
0100
0010
0010
0001
0010
0000
1001
0000
,
1010
0000
0000
0110
0000
0000
0101
0000
0000
0011
0000
0000
1001
0000
0000
1000
,
0100
0100
0010
0010
0001
0000
1001
0000
,
1000
1000
0010
0000
0000
0100
0001
0000
,
0010
0010
0100
0000
0000
1000
0001
0000
,
0100
0010
1001
0000
0000
0100
1001
0000
,
0010
0100
1001
0000
0000
0010
1001
0000
,
1000
0100
0001
0100
1000
0010
0001
0010
,
0100
0001
0100
1000
0100
0001
0010
1000
,
0010
0100
0001
0100
1000
0010
0100
0001
,
0010
0100
1000
0100
1000
0000
1001
0000
,
1002
1000
1000
1000
1003
0000
1010
0000
,
0102
0000
0013
0000
0100
1000
0010
0000
,
0201
0001
0001
0001
0301
0000
1010
0000
,
0202
1313
2020
3131
,
2001
0001
0001
0001
3001
0000
0101
0000
,
2010
0000
3100
0000
0010
0001
0100
0000
,
0010
1000
0100
0001
0100
1000
0010
0100
,
0001
0010
0100
0001
0100
1000
0010
0000
,
0100
0001
1000
0010
0010
0100
0001
0010
,
0100
1000
0010
0100
0100
0001
0010
0100
,
1000
0001
0010
0001
0001
0100
0010
1000
,
0100
1000
0010
0100
0100
0001
1000
0000
,
0010
1000
0001
0100
0100
0010
1000
0100
,
0010
0001
0100
0010
0010
1000
0100
0010
,
0001
0000
1000
0000
0100
0000
0010
0001
0010
0000
0001
0000
0010
0000
0100
0000
,
1000
0000
0010
0000
0100
0000
0001
1000
0001
0000
0100
0000
0010
0000
0010
0000
,
1001
0000
0000
0000
;

//---------------dance-single - Renard----------------
#NOTES:
     dance-single:
     Renard:
     Medium:
     5:
     0.345,0.464,0.078,0.019,0.000:
0000
0000
0000
0000
,
0000
0000
0000
0000
,
0000
0000
0000
0000
,
0000
0000
0000
0000
,
1000
0001
0100
0000
,
0000
0100
0000
0100
0010
0000
1000
0000
,
0001
1000
0001
1000
,
0001
1000
0001
1000
0001
0000
1001
0000
,
1000
0000
0010
0010
0100
0100
0001
0000
,
1000
0100
1000
0001
,
0010
0000
0100
0100
1000
1000
0001
0000
,
0100
0010
1000
0001
,
0010
0000
0001
0001
1000
1000
0010
0000
,
0100
0001
1000
0100
,
1000
0000
0010
0010
0100
0100
0001
0000
,
1000
0001
1000
1001
,
1010
0000
0101
0000
1000
0100
1000
0000
,
0010
0100
0001
0010
,
0002
0000
1003
0000
0010
0100
0001
0000
,
1000
1000
0100
1000
,
0010
0000
0101
0000
0010
1000
0100
0000
,
1000
0010
0100
0001
,
2000
3001
1000
0010
,
0100
0001
1000
0001
,
1000
0000
0001
0000
0100
0010
1000
0000
,
0001
0001
1000
1000
,
0100
1000
0001
0100
,
0001
1000
0010
1001
,
0110
1000
0010
0100
,
0001
0010
0100
1000
,
0001
0001
0001
0001
,
0100
0001
1000
0100
1000
0000
1000
0000
,
0010
0010
0010
0000
0000
0100
0100
0000
,
0001
0001
0001
0000
0000
1000
1000
0000
,
0100
0100
0100
0000
0000
0010
0010
0000
,
0001
0001
0001
0000
0000
1000
0001
0000
,
1000
0010
0100
0001
,
1000
0100
1000
0001
,
0010
0001
1000
0010
,
0100
0000
0001
0000
1000
0001
1000
0000
,
0001
0001
1000
0000
,
0010
0100
0001
0100
,
0010
0010
0010
0000
0100
0000
0000
0000
,
0001
0001
1000
0000
0100
0100
1000
0000
,
0010
0100
0001
0000
,
1000
0000
0100
0000
1000
0010
0100
0000
,
0001
0001
1000
0000
0010
0010
0100
0000
,
0001
0000
0100
0010
1000
0000
0001
0000
,
0100
0001
1000
0100
,
1000
0001
0010
0001
,
0100
0010
1000
0000
,
0010
0100
0001
0010
,
0001
1000
0010
0000
,
0100
0001
1000
0100
,
1000
0001
1000
0001
1000
0001
1000
0001
,
1000
0010
0100
0001
1000
0001
1000
0000
,
1001
0000
0000
0000
;

//---------------dance-single - Renard----------------
#NOTES:
     dance-single:
     Renard:
     Challenge:
     10:
     0.735,0.928,1.000,0.000,0.161: // measure 1
0000
0000
0000
0000
,  // measure 2
0000
0000
0000
0000
,  // measure 3
0000
0000
0000
0000
,  // measure 4
0000
0000
0000
0000
,  // measure 5
0001
0000
0000
0001
1000
0000
0100
0000
0010
0000
0001
0000
0010
0000
0100
0000
,  // measure 6
1000
0000
0000
1000
0010
0000
0100
0000
0001
0000
1000
0000
0100
0000
0010
0000
,  // measure 7
0001
0000
0000
0001
0010
0000
0100
0000
1000
0000
0010
0000
0100
0000
0001
0000
,  // measure 8
1000
0010
0100
0001
0100
1000
0100
0000
,  // measure 9
0101
0000
0100
0010
1000
0100
0010
0000
,  // measure 10
0011
0100
1010
0000
0101
0010
1001
0000
,  // measure 11
0100
0010
1000
0100
0010
0001
0010
0000
,  // measure 12
1001
0010
0101
0010
1001
0010
0101
0000
,  // measure 13
1010
0000
0100
0001
0010
0100
1000
0000
,  // measure 14
0110
0001
1010
0001
0110
0000
1001
0000
,  // measure 15
0110
0000
1000
0010
0100
0001
0010
0000
,  // measure 16
1100
0001
0011
0000
1010
0001
0101
0000
,  // measure 17
1010
0000
0100
0001
0010
0100
1000
0010
,  // measure 18
0100
0001
0100
0010
0100
1000
0100
0010
,  // measure 19
1001
0000
0110
0001
0010
0100
1000
0010
,  // measure 20
0101
0010
1001
0010
0101
0000
0110
0000
,  // measure 21
1001
0000
0000
0000
1000
0000
0100
0000
0010
0000
0001
0010
0001
0000
0010
0000
,  // measure 22
0100
1000
0010
0100
1001
0010
0101
0010
,  // measure 23
1001
0000
0110
0001
0010
0100
1000
0010
,  // measure 24
0100
0000
0000
0000
0001
0000
0000
0000
0010
0001
0010
0001
0010
0000
0001
0000
,  // measure 25
0010
0100
1000
0010
0100
0001
1010
0000
,  // measure 26
0101
0000
1000
0100
0010
0001
0010
0100
,  // measure 27
1000
1000
1000
0010
0100
0001
0010
0100
,  // measure 28
1000
0000
0001
0000
1010
0001
0110
0000
,  // measure 29
1010
0000
0100
0001
0010
0100
1000
0010
,  // measure 30
0101
1010
0101
1010
0101
0000
1010
0000
,  // measure 31
1100
0000
0000
0011
0000
0000
0101
0000
0000
1010
0000
0000
1100
0000
0000
0000
,  // measure 32
1000
0000
0010
0000
0100
0001
0100
0000
0001
0100
0001
0100
0001
0000
0100
0000
,  // measure 33
0010
0000
1000
0000
0100
0000
0000
0000
0000
0000
0100
0010
0100
0000
0000
0000
,  // measure 34
0100
0000
1000
0000
0010
0000
0000
0000
0000
0000
0010
0100
0001
0000
0000
0000
,  // measure 35
0100
0000
0010
0000
1000
0000
0000
0000
0000
0000
0100
0010
0001
0000
0000
0000
,  // measure 36
0010
0000
0100
0000
1000
0000
0010
0000
0100
0000
0001
1000
0001
0000
1000
0000
,  // measure 37
0100
0000
1000
0001
1000
0000
0100
0000
1000
0000
0001
1000
0100
0000
1000
0000
,  // measure 38
0001
0000
1000
0100
1000
0000
0001
0000
1000
0000
0100
1000
0001
0000
1000
0000
,  // measure 39
0100
1000
0001
1000
0100
1000
0001
1000
0100
1000
0001
1000
0100
1000
0001
1000
,  // measure 40
0100
1000
0001
1000
0100
1000
0001
1000
0100
0000
1000
0000
0001
0000
0000
0000
,  // measure 41
1000
0010
0100
0001
1000
0000
0010
0000
,  // measure 42
0100
0100
0100
0100
0010
0010
0010
0000
,  // measure 43
1001
0110
0011
1100
0110
0000
0000
0000
,  // measure 44
1010
0101
0110
1001
1100
1010
1001
0000
,  // measure 45
1010
0101
0011
1100
1010
0000
0101
0000
,  // measure 46
1000
0000
0001
0000
0100
0000
0010
0000
1000
0000
0100
1000
0100
0000
1000
0000
,  // measure 47
0110
1001
0110
1001
1010
0000
0101
0000
,  // measure 48
0011
1100
0011
1100
0011
0101
1010
0101
,  // measure 49
1010
0101
1010
1100
0011
1100
1010
0101
,  // measure 50
1010
0101
0110
1001
1010
1100
1001
0000
,  // measure 51
1001
0011
0101
1010
0101
1010
1100
0011
,  // measure 52
0101
0011
1001
0101
0011
1001
0101
0000
,  // measure 53
1M1M
M1M1
M11M
1M1M
M1M1
1M1M
M1M1
11MM
,  // measure 54
1M1M
11MM
MM11
M1M1
1M1M
11MM
MM11
1M1M
,  // measure 55
M1M1
1M1M
11MM
MM11
M1M1
1M1M
11MM
MM11
,  // measure 56
11MM
0000
1M1M
0000
M1M1
0000
M11M
0000
1M1M
0000
M1M1
0000
1MM0
0001
1MM0
0000
,  // measure 57
1M1M
0000
0000
0000
;

//---------------dance-single - Renard----------------
#NOTES:
     dance-single:
     Renard:
     Easy:
     4:
     0.317,0.464,0.078,0.068,0.000:
0000
0000
0000
0000
,
0000
0000
0000
0000
,
0000
0000
0000
0000
,
0000
0000
0000
0000
,
1000
0001
0000
0000
,
0001
1000
0000
0000
,
0010
0010
0100
0100
,
0001
0000
1000
0000
0001
1000
0001
0000
,
1000
1000
0010
0100
,
0001
0001
1000
0001
,
0010
0000
0100
0010
0100
0000
1000
0000
,
0001
0001
0100
0010
,
1000
0000
1000
0000
0001
0010
0001
0000
,
0010
0010
0010
0000
,
0001
0000
0010
0000
0001
0100
0010
0000
,
1000
1000
1000
0100
,
1010
0101
0100
0001
,
0100
0001
0100
0010
,
1000
0000
0100
0000
1000
0010
1000
0000
,
0010
0100
0001
0010
,
1001
1001
1000
0010
,
0100
0001
0010
0100
,
1001
1001
1000
0010
,
0100
0000
0001
0000
1000
0001
1000
0000
,
0010
0000
0000
1001
,
1010
0100
0001
0010
,
0100
1000
0100
1000
0100
0000
0100
0000
,
1000
0100
1000
0100
1000
0000
1000
0000
,
0010
0100
0001
1000
,
0001
0100
0001
1000
,
0100
0010
0001
0010
,
0100
0000
1000
0000
0001
0100
0001
0000
,
1000
0001
0000
0001
,
1000
0001
0000
0001
,
1000
0001
0000
0001
,
1000
0001
0000
0001
,
0001
1000
0001
1000
,
0001
1000
0001
1000
,
0001
0100
0010
0100
,
0010
0000
1000
0000
0001
0000
1000
0001
,
1000
0010
0100
0000
,
0002
0000
0200
0003
,
0010
0010
0310
0200
,
0001
0001
1000
1000
,
0010
0010
0310
1000
,
0200
1000
0001
0300
,
0020
0001
1000
0000
,
0100
0100
0001
0031
,
0001
0000
0010
0100
1000
0000
0000
0000
,
0002
0000
0200
0003
,
0010
0010
0310
0100
,
0010
1000
0001
0100
,
0001
0000
1000
0100
0010
0000
0001
0000
,
1000
0000
0010
0100
0001
0000
1000
0000
,
0100
1000
0100
1000
0100
1000
0100
1000
,
0100
1000
0100
1000
0100
1000
0100
1000
,
0100
0000
0000
0000
;
