#TITLE:Euphorium;
#SUBTITLE:;
#ARTIST:DM Ashura;
#TITLETRANSLIT:;
#SUBTITLETRANSLIT:;
#ARTISTTRANSLIT:;
#GENRE:Electronic Orchestra;
#CREDIT:;
#BANNER:euphorium.png;
#BACKGROUND:euphorium-bg.png;
#LYRICSPATH:;
#CDTITLE:;
#MUSIC:euphorium.ogg;
#OFFSET:-0.020;
#SAMPLESTART:24.282;
#SAMPLELENGTH:12.000;
#SELECTABLE:YES;
#BPMS:0.000=158.000;
#STOPS:;
#BGCHANGES:;
#KEYSOUNDS:;

//---------------dance-single - Renard----------------
#NOTES:
     dance-single:
     Renard:
     Hard:
     9:
     0.629,0.000,0.191,0.477,0.139:
0000
0000
0000
0000
,
0000
0000
0000
0000
,
0000
0000
0000
0000
,
0000
0000
0000
0000
,
1100
0000
0010
0001
0000
0101
0000
1010
,
0000
0001
0100
0000
1001
0000
1100
0000
,
0011
0000
0001
1000
0000
1010
0000
0101
,
0000
1000
0100
0000
0010
0001
1000
0000
,
0201
0000
0010
0010
0000
2300
0000
3002
,
0000
0023
2030
0000
3200
0302
0203
0000
,
2300
0000
3020
0032
0000
0023
0000
0230
,
0000
0302
0100
0000
2003
0000
3001
0000
,
1001
0000
2000
0200
3000
0002
0300
2000
,
0003
3020
0002
0030
0200
0003
0020
0300
,
2000
0030
3200
0302
0000
0203
0000
2300
,
0000
3020
0230
0302
1003
0001
0100
0010
,
1000
0100
0010
0001
0000
0001
1000
0001
,
1000
0000
0000
0100
0010
0000
0001
0000
0100
0000
0000
0010
1000
0000
0001
0000
,
0200
0000
0320
2030
0000
3020
0032
0000
,
0013
0100
0001
1000
0100
0000
0010
0001
,
0010
0100
1000
0001
0000
0001
0100
0010
,
1000
0000
0000
1000
0001
0000
0100
0000
0010
0000
0000
0010
1000
0000
0100
0000
,
0010
0001
0010
0100
1000
0010
0001
1000
,
0100
0001
0100
0010
1000
0001
1000
0000
,
0101
0000
0010
1000
0100
0010
0001
0010
,
0100
0000
0000
1000
0001
0000
0100
0000
0010
0000
0000
1000
0001
0000
0100
0000
,
0010
1000
0100
0001
0000
0100
0010
0001
,
0010
1000
0010
0100
0000
1000
0010
0001
,
0010
0100
0001
1000
0000
0100
1000
0010
,
0100
0000
0000
0001
1000
0000
0100
0000
0010
0000
0000
0001
1000
0000
0001
0000
,
0100
0010
1000
0010
0001
0010
0100
0001
,
1000
0100
0010
0001
1000
0100
0010
1000
,
0020
0000
0001
0001
0001
0000
0100
0000
,
1000
0000
1000
0100
0032
0000
0203
0000
,
0320
0000
1000
1000
1000
0000
0100
0000
,
0001
0032
2000
0003
0200
3000
0302
0000
,
2003
0000
3100
0010
0001
0000
0001
0000
,
0002
0000
0013
0100
1000
0000
1000
0000
,
0001
0100
1000
0000
1000
0001
0100
0000
,
0100
0010
0001
1000
0100
0000
1001
0000
,
1020
0000
0100
0000
0001
0000
0100
0100
,
0100
0001
2030
0000
,
3200
0000
0001
0000
1000
0000
0010
0010
,
0010
0302
0023
2030
,
3200
0000
0301
0100
1000
0010
0001
0000
,
1010
0000
0001
0100
0010
1000
0100
0000
,
0101
0000
0100
1000
0010
0001
0010
0000
,
0110
0000
0001
0100
1000
0100
0001
0000
,
1001
0000
0000
0000
0000
0000
0000
0000
0000
0000
0000
0000
1000
0100
0010
0001
,
1000
0000
0000
0000
0000
0000
0000
0000
0000
0000
0000
0000
0000
0000
0000
0001
,
0100
0000
0000
0000
0000
0000
0000
0000
0000
0000
0010
0000
1000
0001
0100
0010
,
1000
0000
0001
0100
0000
1001
0000
0100
,
0110
0000
0000
0000
0000
0000
0000
0000
0000
0000
0000
0000
1000
0010
0100
0001
,
1000
0000
0000
0000
0000
0000
0000
0000
0000
0000
0001
0000
0100
0001
1000
0100
,
0010
0000
0010
0001
0000
0001
0010
0000
,
0011
0000
0000
0000
0000
0000
0000
2000
0200
0000
0000
0000
0000
0000
0000
0000
,
0011
0000
3300
0000
0000
1000
0100
0010
,
0001
0000
0000
0000
0000
0000
1000
0100
1000
0000
0010
0000
0100
0000
0001
0000
,
1000
0000
0000
1000
0001
0000
0100
0000
0010
0000
0000
0010
1000
0000
0100
0000
,
0010
0000
0001
0010
0001
0000
0010
0000
0100
0000
1000
0000
0010
0000
0000
0000
,
0100
0000
0001
1000
0001
0000
1000
0000
0001
0000
0100
0000
0010
0000
0000
0000
,
1000
0000
0000
0000
0000
0000
0001
0010
0001
0000
0100
0000
0010
0000
1000
0000
,
0001
0000
0000
0001
1000
0000
0010
0000
0100
0000
0000
0100
0001
0000
0010
0000
,
0100
0000
1000
0100
1000
0000
0100
0000
0010
0000
0001
0000
0100
0000
0000
0000
,
0010
0000
1000
0001
1000
0000
0001
0000
1000
0000
0010
0000
0100
0000
0000
0000
,
0001
0100
0010
1000
0100
0001
0100
0010
,
0001
0000
0010
0000
1000
0000
0010
0000
0100
0000
1000
0000
0001
0000
0100
0001
,
0100
0010
1000
0001
0100
1000
0100
0010
,
0001
0000
0010
0000
1000
0000
0010
0000
0100
0000
0001
0000
1000
0000
0100
1000
,
0100
0010
0001
0010
1000
0010
0100
1000
,
0100
0000
0001
0000
0100
0000
1000
0000
0010
0000
0100
0000
0001
0000
1000
0001
,
0100
0010
1000
0001
0100
0001
1000
0100
,
0001
0000
0100
0000
1000
0000
0001
1000
0001
0000
1000
0000
0100
0000
0010
0000
,
1001
0000
0000
0000
;

//---------------dance-single - Renard----------------
#NOTES:
     dance-single:
     Renard:
     Medium:
     7:
     0.385,0.000,0.139,0.104,0.000:
0000
0000
0000
0000
,
0000
0000
0000
0000
,
0000
0000
0000
0000
,
0000
0000
0000
0000
,
1000
0000
0001
0100
0000
0010
0000
1000
,
0000
0100
0010
0000
0001
0100
0001
0000
,
1000
0000
0100
0010
0000
0001
0000
1000
,
0000
0010
0100
0000
0001
1000
0001
0000
,
1000
0000
0100
0000
0010
0001
0010
0000
,
0100
1000
0020
0000
,
0130
0000
0001
0000
1000
0100
0010
0000
,
0001
1000
0020
0000
,
0130
0000
0001
1000
0100
0000
1000
0001
,
0100
0000
0001
0001
1000
0000
1000
0000
,
0010
0000
0100
0001
1000
0000
0100
0000
,
0020
0000
0032
0000
,
0103
0000
0010
0000
1000
0000
0100
0010
,
0001
0010
0100
1000
,
0010
0000
0100
0001
0000
0001
1000
0000
,
0100
0000
0010
0000
0001
0000
0010
0100
,
1000
0000
0010
0100
0000
0000
0001
0000
,
0100
0010
1000
0100
,
0010
0000
0001
1000
0000
0000
0010
0100
,
0000
0001
1000
0100
,
0010
0000
0010
0001
0000
0001
0100
0000
,
0010
1000
0100
0000
,
0010
0000
0010
0100
0000
0100
1000
0000
,
0010
0100
0001
0000
,
0010
0000
0010
0100
0000
0100
1000
0000
,
0010
0000
0010
0100
0000
0100
0001
0000
,
1000
0000
0000
1000
0001
0000
0000
0001
,
0100
0010
1000
0100
,
0020
0000
0000
0000
,
0001
0001
0032
0000
,
0203
0000
0320
1030
,
0100
0000
0010
0000
0001
0010
0100
0000
,
1000
0000
0000
1000
0010
0000
0000
0010
,
0100
0001
1000
0100
,
0010
0000
0001
0000
1000
0000
0010
0100
,
0010
0000
1000
0010
1000
0000
0001
0100
,
0020
0000
0000
0000
,
1000
1000
2030
0000
,
3200
0000
0000
0320
,
0031
0000
0100
0000
0010
0000
1000
0100
,
1000
0000
0000
1000
0010
0000
0010
0100
,
0010
0000
0000
0100
0001
0000
0010
0001
,
0010
0000
0000
0010
0100
0000
1000
0010
,
0100
0001
1000
0001
,
0100
0000
0000
0010
,
1000
0000
0000
0100
,
0010
0000
0000
0001
,
0100
0000
0010
0000
1000
0000
0010
0001
,
0100
0000
0000
0000
0000
0000
0001
1000
,
0100
0000
0010
0001
,
1000
0000
0000
0010
0100
0000
0000
0001
,
1000
0000
0000
0100
0010
0000
0001
0000
,
1001
0000
0000
0000
,
1000
0000
0010
0100
0001
0000
0100
0010
,
1000
0001
1000
0100
,
0010
0000
0001
1000
0000
0000
0001
1000
,
0000
0010
0100
0000
0001
0000
0010
0000
,
0100
0000
0000
0100
1000
0000
0000
0000
,
0011
0000
0000
0100
1000
0000
0010
0000
,
0101
0000
0010
1000
0000
0000
0100
1000
,
0000
0011
0101
1010
,
1001
0000
1000
0100
0000
0010
0001
0000
,
1100
0000
0010
0001
0000
1000
0100
0000
,
0101
0000
0010
1000
0000
0001
0100
0000
,
1100
0011
0101
1010
,
1001
0000
1000
0010
0000
0100
0001
0000
,
0110
0000
0100
1000
0000
0010
0001
0000
,
0010
1000
0100
0010
,
0001
0000
1000
0000
0001
0100
0001
0000
,
1001
0000
0000
0000
;

//---------------dance-single - Renard----------------
#NOTES:
     dance-single:
     Renard:
     Easy:
     4:
     0.282,0.000,0.156,0.225,0.000:
0000
0000
0000
0000
,
0000
0000
0000
0000
,
0000
0000
0000
0000
,
0000
0000
0000
0000
,
1000
0000
0001
0000
,
0100
0010
1000
0100
,
0010
0000
0001
0000
,
0100
0000
0000
0000
0001
0000
1000
0100
,
0010
0010
0010
0010
,
0010
0001
0100
0010
,
1000
1000
1000
1000
,
1000
0100
0010
0001
,
0100
0100
0100
0100
,
0100
0010
1000
0100
,
0010
0010
0001
0001
,
0100
0100
1000
1000
,
0020
0000
0000
0000
,
0032
0000
0203
0000
,
0310
0000
1000
0100
,
0001
0000
0000
0000
,
1001
0000
0000
1000
,
0020
0000
0230
0000
,
0302
0000
0000
0000
,
2003
0000
3200
0000
,
0310
0000
0000
0001
0010
0000
1100
0000
,
0011
0000
0101
0000
,
1010
0000
0000
0001
0100
0000
0010
0000
,
1000
0000
0100
0000
,
0010
0000
0000
0001
0010
0000
0100
0000
,
1000
0000
0011
0000
,
1100
0000
0000
0001
0100
0000
0000
0010
,
1000
0000
0000
0100
0010
0000
0001
0000
,
2000
0000
0000
0000
,
0000
0000
3002
0000
,
0203
0000
0000
0320
,
2030
0000
0000
0000
,
3200
0000
0000
0000
,
0000
0000
0320
0000
,
0032
0000
0000
0000
,
0203
0000
0320
2030
,
3200
0000
0000
0000
,
0000
0000
2300
0000
,
3020
0000
0000
0230
,
0302
0000
0000
0013
,
0200
0000
0000
1300
,
0020
0000
0000
0130
,
0001
0000
0000
1000
0100
0000
0000
0001
,
0010
0000
0000
1000
0100
0000
0001
0000
,
0010
0000
0000
0000
,
1001
0000
0000
0100
,
1001
0000
0000
0000
,
1001
0000
0000
0010
,
1001
0000
0100
0010
,
1000
0000
0010
0001
,
0100
0001
1000
0010
,
0100
1000
0001
0100
,
1001
0000
0000
0000
,
1000
0000
0000
0000
0000
0000
0000
0001
,
0100
0000
0010
0000
,
1000
0000
0000
0000
0000
0000
0000
0100
,
0010
0001
0010
0000
,
1100
0000
0000
0000
0000
0000
0000
0010
,
0001
0100
0010
1000
,
0100
0000
0000
0000
0000
0000
0000
0010
,
0001
0100
0010
1000
,
0011
0000
0000
0000
0000
0000
0000
0100
,
1000
0010
0100
0001
,
1000
0000
0000
0000
0000
0000
0000
0010
,
0100
0101
0110
1100
,
0101
0000
0000
1000
0100
0000
0000
0000
,
0010
0000
0000
1000
0010
0000
0000
0001
,
0100
0000
0000
1000
0001
0000
0000
0010
,
1000
0000
0100
0000
0001
1000
0010
0000
,
0001
0000
0000
0000
;

//---------------dance-single - Blank----------------
#NOTES:
     dance-single:
     Alezay:
     Challenge:
     11:
     0.872,0.000,0.312,0.139,0.819: // measure 1
0000
0000
0000
0000
,  // measure 2
0000
0000
0000
0000
,  // measure 3
0000
0000
0000
0000
,  // measure 4
0000
0000
0000
0000
,  // measure 5
0001
0100
0001
1000
0100
1000
0001
0010
,  // measure 6
0001
1000
0010
1000
0010
0100
0001
0100
,  // measure 7
0010
0100
0010
1000
0010
0100
0010
1000
0100
0010
0100
1000
0100
0010
0100
1000
,  // measure 8
0100
0010
0001
0010
0100
0010
0001
0010
0100
0010
0001
1000
0100
0010
0001
1000
,  // measure 9
0001
0100
1010
0100
0001
0100
1010
0100
,  // measure 10
0001
0010
0011
0100
1000
0100
0011
0100
,  // measure 11
1000
0010
0110
1000
0001
1000
0110
1000
,  // measure 12
0001
0000
1000
0000
0110
0000
1000
0001
1000
0000
0010
0000
1001
0000
0010
0000
,  // measure 13
0100
0010
1001
0100
0010
0100
1001
0100
,  // measure 14
0001
0100
1010
0100
0001
0010
1001
0001
,  // measure 15
0100
0001
0100
0010
1000
0100
0010
0100
1000
0001
0010
0100
0010
0001
1000
0100
,  // measure 16
0010
0100
1000
0001
0010
0100
0010
0001
0100
0010
1000
0000
0100
0000
0010
0000
,  // measure 17
0100
1000
0001
0100
0000
0010
1000
0100
,  // measure 18
1000
0000
0000
0001
1000
0000
0010
0000
1001
0000
0000
1000
0001
0000
0100
0000
,  // measure 19
1001
0000
0100
22MM
0000
0000
3300
0000
,  // measure 20
1000
0010
0100
0001
1000
0100
0010
0100
1000
0000
0001
0000
1000
0000
0010
0000
,  // measure 21
1000
0100
1000
0010
0000
0100
0001
0010
,  // measure 22
0100
0000
0000
1000
0010
0000
0100
0000
0011
0000
0000
0001
0100
0000
0010
0000
,  // measure 23
1100
0000
0100
M2M2
0000
0300
1000
2000
,  // measure 24
0000
0000
0000
3003
0000
0001
0100
0001
,  // measure 25
0010
0001
1000
0001
0000
1000
0010
0100
,  // measure 26
0001
0000
0000
0100
0010
0000
0100
0000
1001
0000
0000
0010
0100
0000
0010
0000
,  // measure 27
1001
0000
0010
2M2M
0000
0030
0001
0000
,  // measure 28
0200
0000
0000
3300
0000
1000
0010
0100
,  // measure 29
0001
1000
0001
1000
0000
0001
1000
0010
,  // measure 30
0100
0000
0000
0010
0100
0000
0100
0000
1010
0000
0000
0100
0010
0000
0010
0000
,  // measure 31
0101
0000
0010
MM22
0000
0033
1001
0000
,  // measure 32
0110
0000
0000
M00M
0000
0000
0110
0000
2002
0000
0000
0000
0000
0000
3003
0000
,  // measure 33
0001
0100
0001
0100
0001
0100
1000
0100
,  // measure 34
1000
0100
0001
1000
0100
1000
0100
1000
,  // measure 35
0100
0001
0100
0001
0100
1000
0010
1000
,  // measure 36
0010
1000
0010
0001
0010
0001
0010
1000
,  // measure 37
0100
1000
0100
0010
0001
0010
0001
0010
,  // measure 38
1000
0010
1000
0010
0001
0100
0010
1000
,  // measure 39
0010
0100
0001
1000
0100
0010
0001
1000
,  // measure 40
0100
0010
0001
0010
0100
1000
0001
0010
,  // measure 41
0100
1000
0010
0100
0010
0100
0010
1000
,  // measure 42
0100
1000
0100
1000
0001
0100
0001
0100
,  // measure 43
0001
1000
0010
1000
0010
1000
0001
0010
,  // measure 44
0001
0010
0001
1000
0001
1000
0010
1000
,  // measure 45
0001
1000
0100
1000
0001
1000
0001
0010
,  // measure 46
0001
1000
0001
0100
0001
1000
0001
1000
,  // measure 47
0001
0010
0100
1000
0001
0010
0100
1000
0001
0010
0100
1000
0001
0010
0100
1000
,  // measure 48
0100
0010
0001
1000
0100
0010
0001
1000
0100
0010
0001
1000
0100
0010
0001
1000
,  // measure 49
1001
0000
0000
0000
0000
0000
0000
0000
0000
0000
0000
0000
0000
0000
0100
0010
,  // measure 50
1000
0000
0000
0000
0000
0000
0000
0000
0000
0000
0000
0000
0000
0000
0000
0001
,  // measure 51
0100
0000
0000
0000
0000
0000
0000
0000
0000
0000
0100
0000
0010
1000
0100
0010
,  // measure 52
0001
0000
0000
1000
0000
0001
0000
0000
,  // measure 53
1001
0000
0000
0000
0000
0000
0000
0000
0000
0000
0000
0000
1000
0010
0100
0001
,  // measure 54
0010
0000
0000
0000
0000
0000
0000
0000
0000
0000
0010
0000
0100
1000
0010
0100
,  // measure 55
0001
0000
0000
0011
0000
0000
1100
0000
,  // measure 56
1001
0000
0000
0000
0000
0000
0000
1000
0010
0000
0000
0000
0000
0000
0000
0000
,  // measure 57
0202
0000
0000
0000
0303
0010
1000
0100
,  // measure 58
1000
0000
0000
0000
1001
0000
1000
0001
1000
0000
1000
0000
0010
0000
0100
0000
,  // measure 59
0001
0100
0010
1000
0100
0010
0100
1000
0100
0010
0100
1000
0001
0010
0100
0010
,  // measure 60
0001
0010
0100
0010
0001
1000
0001
1000
0001
0100
0010
0100
0010
1000
0100
1000
,  // measure 61
0100
0010
0001
0010
0001
0100
0010
1000
0010
0100
0001
0100
0010
1000
0100
0010
,  // measure 62
0001
0010
0100
1000
0100
0010
0001
0010
0100
1000
0010
0100
0001
0100
0010
0100
,  // measure 63
0001
1000
0010
0100
0010
1000
0001
0100
0010
0100
0001
1000
0010
0100
0010
1000
,  // measure 64
0100
0010
0001
0010
0001
1000
0001
1000
0001
0100
0010
0100
0010
0100
1000
0100
,  // measure 65
1000
0100
0010
0100
0001
1000
0100
0010
0100
0001
0100
1000
0010
0100
0010
0001
,  // measure 66
0010
1000
0010
0001
0010
1000
0100
0010
1000
0010
0100
1000
0010
0100
0010
0001
,  // measure 67
0010
1000
0100
0010
0100
0010
0100
0001
0100
0001
0100
1000
0010
0100
0001
1000
,  // measure 68
0001
0010
0100
0001
0100
0010
0001
1000
0010
0100
1000
0100
0010
0100
0010
1000
,  // measure 69
0100
0010
0100
1000
0010
0100
0001
0010
0100
1000
0001
0010
0100
1000
0100
0010
,  // measure 70
0001
1000
0100
0010
0001
0100
0010
0100
0001
0010
0100
1000
0010
0100
0010
1000
,  // measure 71
0100
0010
0001
1000
0001
1000
0001
1000
0001
1000
0001
0100
0001
0100
0001
0100
,  // measure 72
0001
0100
0010
1000
0010
1000
0010
1000
0010
1000
0010
1000
0001
0010
0001
0010
,  // measure 73
0001
0010
0001
0010
0001
0010
0100
1000
0010
0001
0010
1000
0100
0001
0100
1000
,  // measure 74
0220
0000
0000
0330
;
