#TITLE:Eternal;
#SUBTITLE:;
#ARTIST:Electronic Elation;
#GENRE:Trancecore;
#TITLETRANSLIT:;
#SUBTITLETRANSLIT:;
#ARTISTTRANSLIT:;
#CREDIT:;
#BANNER:eternal.png;
#BACKGROUND:eternal-bg.png;
#LYRICSPATH:;
#CDTITLE:;
#MUSIC:eternal.ogg;
#OFFSET:0.000;
#SAMPLESTART:32.914;
#SAMPLELENGTH:10.000;
#SELECTABLE:YES;
#BPMS:0.000=175.000;
#STOPS:;
#BGCHANGES:;

//---------------dance-single - Renard----------------
#NOTES:
     dance-single:
     Renard:
     Hard:
     8:
     0.526,0.614,0.318,0.290,0.000:
0000
0000
0000
0000
,
0000
0000
0000
0000
,
0000
0000
0000
0000
,
0000
0000
0000
0000
,
0000
0000
0000
0000
,
0000
0000
0000
0000
,
0000
0000
0000
0000
,
0000
0000
0000
0000
,
0001
0000
0001
0100
0000
0100
1000
0000
,
1000
0100
0000
0100
0001
0010
1000
0010
,
0001
0000
0001
0010
0000
0010
1000
0000
,
1000
0010
0000
0010
0100
1000
0100
0001
,
0100
0000
0100
1000
0000
1000
0010
0000
,
0010
0001
0000
0001
1000
0000
1000
0100
,
0001
0100
0001
0100
1000
0100
1000
0100
,
0001
0010
0001
0010
1000
0010
1000
0010
,
0001
0010
1000
0000
0001
0100
1000
0010
,
0100
0001
0100
0010
,
1000
0100
0001
0000
1000
0010
0001
0000
,
0001
0010
0100
1000
0010
0100
0001
0000
,
0001
0100
1000
0000
0001
0010
1000
0000
,
1000
0010
0100
0001
0010
0100
1000
0000
,
0011
0000
0100
1000
0010
0000
0100
0000
,
0101
0000
0000
1010
0000
1000
0100
0010
,
0001
0000
0001
1000
0010
0100
0001
0010
,
0100
1000
0010
0100
0001
0000
0001
1000
,
0100
0000
0100
1000
0010
0100
0001
1000
,
0100
0010
0001
1000
0001
0000
0001
1000
,
0100
0000
0100
1000
0010
0100
0001
1000
,
0100
0010
0001
1000
0010
0100
0001
0000
,
0001
1000
0100
0000
0100
1000
0001
0000
,
1010
0000
0100
0001
0010
0000
1001
0000
,
1001
0000
0000
0000
,
1000
0000
1000
0001
0000
0001
0100
0001
,
1000
0100
0000
0100
0010
0001
1000
0010
,
0100
0000
0100
0001
0000
0001
1000
0100
,
0010
0001
0000
0001
1000
0010
0100
0001
,
1000
0000
1000
0100
0000
0100
1000
0010
,
0100
0001
0000
0001
0010
0001
0100
0010
,
1000
0000
1000
0001
0000
0001
0100
0010
,
1000
0001
0000
0001
1000
0100
1000
0000
,
0001
0100
0010
1000
0100
0010
0001
0000
,
0001
1000
0010
0100
0001
1000
1001
0000
,
1000
0010
0100
0001
0010
0100
1000
0000
,
0010
0100
0001
1000
0001
1000
1001
0000
,
1000
0000
1010
0000
0100
0001
0011
0000
,
0001
0000
1001
0000
1000
0100
1100
0000
,
1000
0000
1000
0001
0000
0001
0100
0000
,
0010
1000
0001
1000
0100
1000
0001
0000
,
1001
1010
0101
0011
,
1010
0110
1100
0101
,
1100
1010
0101
0110
,
1100
0101
0011
1010
,
0011
0000
1000
0010
0110
0000
0010
0100
,
0101
0000
0001
0100
0110
0000
1010
0000
,
1001
0000
1000
0100
0010
0001
0010
0100
,
1000
0010
0100
0001
0100
0001
1000
0000
,
0002
0000
0203
0000
,
2300
0000
3200
0000
,
0320
0000
2030
0000
,
3020
0032
0013
2000
,
3020
0000
0230
0000
,
0302
0000
0023
0000
,
0230
0000
0000
1000
,
2300
0000
0000
0001
,
3002
0000
0200
0003
,
2000
0000
3000
0000
,
0020
0300
2000
3000
,
0002
0000
0000
0003
,
0230
0000
0302
0000
,
2000
0003
3200
0000
,
0320
0000
0002
0030
,
0203
0320
2030
3002
,
0103
0000
0000
0000
;

//---------------dance-single - Renard----------------
#NOTES:
     dance-single:
     Renard:
     Medium:
     6:
     0.383,0.512,0.168,0.000,0.000:
0000
0000
0000
0000
,
0000
0000
0000
0000
,
0000
0000
0000
0000
,
0000
0000
0000
0000
,
1000
0000
0000
0001
0000
0000
0100
0000
,
0000
0010
0000
0000
1000
0000
0100
0000
,
0010
0000
0000
0001
0000
0000
1000
0000
,
0000
0001
0000
0000
0100
0000
0010
0000
,
1000
1000
0001
0001
,
0100
0000
0100
0000
0001
0000
0000
0001
,
1000
0010
0100
0001
,
1000
0000
1000
0000
0100
0000
0000
0100
,
1000
1000
0001
0001
,
1000
1000
0010
0100
,
0101
0100
0110
0100
,
0101
1001
1001
1001
,
1000
1000
0001
0001
,
0100
0000
0001
0000
1000
0001
1000
0000
,
0001
0001
1000
1000
,
0100
0000
0100
0000
1000
0001
0100
0001
,
1000
0000
1000
0000
0001
1000
0100
1000
,
0001
0000
0001
0000
0001
1000
0010
1000
,
0001
0000
0000
1000
0001
0000
0000
0001
,
0010
0000
0000
0001
1000
0000
1000
0010
,
1000
0001
0100
0001
,
1000
0000
0001
0000
1000
0000
0000
1000
,
0001
0100
0010
1000
,
0100
0000
0010
0000
0001
0000
0000
0001
,
1000
0001
1000
0001
,
1000
0010
0100
0001
,
1000
1000
0010
0010
,
0100
0000
0000
0001
0000
0000
1001
0000
,
1001
0000
0000
0000
,
1000
0000
0000
1000
0000
0000
0001
0000
,
0000
0001
0000
0000
0100
0000
0010
0000
,
1000
0000
0000
0100
0000
0000
0010
0000
,
0000
0001
0000
0000
1000
0000
0001
0000
,
0100
0000
0000
0100
0000
0000
0010
0000
,
0000
0010
0000
0000
1000
0000
0001
0000
,
1000
0000
1000
0001
0000
0001
1000
0000
,
0001
0000
1000
0000
0001
0000
1000
0001
,
1000
1000
0001
0001
,
1000
1000
1001
1001
,
0010
0010
0100
0100
,
0010
0010
0110
0110
,
0010
0010
0010
0010
0010
0000
0010
0000
,
0100
0100
0100
0100
0100
0000
0100
0000
,
0001
0001
0001
0001
,
1000
0000
0001
1000
0001
1000
0001
1000
,
0001
0001
1000
1000
,
1001
1000
1001
1000
,
0001
0001
1000
1000
,
1001
0001
1001
0001
,
0100
0100
0010
0010
,
0100
0010
0100
0000
0010
0100
0010
0000
,
0100
0000
0000
0010
0000
0000
0100
0000
,
0010
0000
0100
0000
0010
0100
0010
0000
,
1000
0000
0000
0001
0000
0000
0100
0000
,
0001
1000
0100
0010
,
0001
0000
0000
1000
0000
0000
0010
0000
,
0100
0001
1000
0100
,
1000
0000
0000
0001
0000
0000
0010
0000
,
0100
1000
0100
0010
,
0001
0000
0000
1000
0000
0000
0001
0000
,
0100
0010
0100
0000
,
1001
0000
0000
1000
0000
0000
0010
0000
,
0000
0100
0000
0000
0001
0000
0000
0010
,
0001
0000
0000
0010
0000
0000
0100
0000
,
0000
1000
0000
0000
0010
0000
0000
0010
,
0100
0000
0000
0001
0000
0000
1000
0000
,
0000
0100
0000
0000
0010
0000
0001
0000
,
1000
0000
0000
0001
0000
0000
0100
0000
,
0001
0000
0000
1000
0000
0000
0100
0000
,
1001
0000
0000
0000
;

//---------------dance-single - Renard----------------
#NOTES:
     dance-single:
     Renard:
     Easy:
     4:
     0.321,0.307,0.000,0.000,0.000: // measure 1
0000
0000
0000
0000
,  // measure 2
0000
0000
0000
0000
,  // measure 3
0000
0000
0000
0000
,  // measure 4
0000
0000
0000
0000
,  // measure 5
0100
0000
0010
0001
,  // measure 6
0000
1000
0100
0001
,  // measure 7
1000
0000
0010
0100
,  // measure 8
0000
0010
0001
1000
,  // measure 9
0100
0100
0010
0010
,  // measure 10
0001
0001
0010
0000
,  // measure 11
0010
1000
0001
0010
,  // measure 12
0100
0100
0001
0000
,  // measure 13
0001
0100
0010
0010
,  // measure 14
0100
0100
1000
0001
,  // measure 15
0001
0001
0001
0001
,  // measure 16
0001
0010
0010
0010
,  // measure 17
0100
0100
0010
0010
,  // measure 18
0001
0010
0100
0010
,  // measure 19
0010
0010
0100
0100
,  // measure 20
0001
0001
0100
0001
,  // measure 21
0010
0100
0010
0001
,  // measure 22
0010
0010
0010
0100
,  // measure 23
0010
0000
0010
0000
,  // measure 24
0010
0000
0010
0100
,  // measure 25
0100
0010
0001
0010
,  // measure 26
0100
0010
0100
0000
,  // measure 27
0010
0001
1000
0100
,  // measure 28
0001
1000
0010
0000
,  // measure 29
0010
0010
0100
0010
,  // measure 30
0100
1000
0001
0010
,  // measure 31
0100
0100
1000
1000
,  // measure 32
0001
0000
0010
0010
,  // measure 33
0010
0000
0000
0000
,  // measure 34
0100
0000
0100
0010
,  // measure 35
0000
0010
0001
1000
,  // measure 36
0100
0000
0001
1000
,  // measure 37
0000
0010
0100
0010
,  // measure 38
0001
0000
0001
1000
,  // measure 39
0000
1000
0100
0010
,  // measure 40
0100
0100
0010
0010
,  // measure 41
0010
0100
0010
0100
,  // measure 42
0010
0100
0010
0010
,  // measure 43
0100
0100
0010
0010
,  // measure 44
1000
1000
0001
0001
,  // measure 45
1000
1000
0001
0001
,  // measure 46
1000
1000
1000
1000
,  // measure 47
0001
0001
0001
0001
,  // measure 48
0010
0010
0010
0010
,  // measure 49
0100
0010
0010
0010
,  // measure 50
0010
0010
0100
0100
,  // measure 51
0010
0100
0010
0100
,  // measure 52
0010
0010
0100
0100
,  // measure 53
0010
0010
0010
0010
,  // measure 54
0001
0001
1000
1000
,  // measure 55
0001
0001
1000
0001
,  // measure 56
0001
0000
1000
0001
,  // measure 57
1000
0001
1000
0001
,  // measure 58
0100
0000
0010
0001
,  // measure 59
0010
0100
0001
1000
,  // measure 60
0010
0000
0100
1000
,  // measure 61
0001
0010
0100
0001
,  // measure 62
0100
0000
0010
1000
,  // measure 63
0001
0100
0001
1000
,  // measure 64
0010
0000
0100
0010
,  // measure 65
0001
1000
0001
0000
,  // measure 66
0010
0000
0100
1000
,  // measure 67
0000
0001
0010
0000
,  // measure 68
0010
0000
1000
0001
,  // measure 69
0000
0100
1000
0000
,  // measure 70
0001
0000
0010
0100
,  // measure 71
0000
0001
1000
0010
,  // measure 72
0100
0000
0010
0001
,  // measure 73
0010
0000
0100
0001
,  // measure 74
0010
0000
0000
0000
;
