#TITLE:Engel Der Nacht;
#SUBTITLE:;
#ARTIST:Blümchen;
#GENRE:Dance;
#TITLETRANSLIT:;
#SUBTITLETRANSLIT:;
#ARTISTTRANSLIT:;
#CREDIT:;
#BANNER:engel der nacht.png;
#BACKGROUND:engel der nacht-bg.png;
#LYRICSPATH:;
#CDTITLE:;
#MUSIC:engel der nacht.ogg;
#OFFSET:-0.000;
#SAMPLESTART:22.280;
#SAMPLELENGTH:17.624;
#SELECTABLE:YES;
#BPMS:0.000=165.020;
#STOPS:;
#BGCHANGES:;

//---------------dance-single - Renard----------------
#NOTES:
     dance-single:
     Renard:
     Challenge:
     11:
     0.750,0.854,0.516,0.283,0.243:
0000
0000
0000
0000
,
0000
0000
0000
0000
,
0000
0000
0000
0000
,
0000
0000
0000
0000
,
0000
0000
0000
0000
,
0000
0000
0000
0000
,
1000
0100
1000
0001
0010
0001
1000
0100
,
1000
0001
0010
0001
1000
0010
0100
0000
,
2002
3103
0000
0110
,
0202
0313
0000
1010
,
2200
3301
0000
0101
,
2002
0010
0100
3013
,
2020
3031
0000
0101
,
0022
1033
0000
1001
,
2000
0000
0000
0020
0000
0000
3130
0000
,
1111
0000
0000
0000
1000
0000
0001
1000
0001
0000
0100
0000
0101
0000
0000
0000
,
0010
0000
1000
0100
1000
0000
0000
0001
0100
0000
0001
0000
1000
0000
0000
0000
,
0100
0000
0010
0001
0010
0000
0000
0100
1000
0000
0010
0000
0100
0000
0000
0000
,
0001
0000
0100
0010
1000
0000
0000
0100
1000
0000
0010
0000
0100
0000
0000
0000
,
0001
0000
0100
0000
0101
0000
0000
0000
1000
0000
0100
1000
0100
0000
1000
0000
,
0100
0000
1000
0100
1000
0000
0000
0001
0100
0000
0001
0000
1000
0000
0000
0000
,
0100
0000
0010
0001
0010
0000
0000
0100
1000
0000
0010
0000
0100
0000
0000
0000
,
0001
0000
0100
0010
1000
0000
0000
0100
1000
0000
0010
0000
0100
0000
0000
0000
,
0001
0000
0100
0000
0101
0000
0000
0000
1000
0000
0100
1000
0100
0000
0000
0000
,
1000
0100
1000
0010
1000
0100
1000
0010
,
1000
0000
0100
0000
1000
0000
0010
0000
1000
0000
0100
0000
0010
0000
0001
0010
,
0011
0010
0100
1000
0010
0100
1000
0100
,
0001
0000
0010
0000
0001
0000
0100
0000
0010
0000
1000
0000
0100
1000
0100
1000
,
1100
0100
0010
0100
0001
0100
1000
0100
,
0010
0000
0001
0000
0010
0000
0100
0000
1000
0000
0010
0000
0100
0000
0001
0100
,
0101
0010
1000
0100
1000
0100
0010
0001
,
0010
0000
0100
0000
1000
0000
0010
0000
0100
0000
0001
0000
0100
0001
0100
0001
,
0101
0001
0100
0001
0001
0100
0001
0001
,
0100
0001
0001
0100
0001
0001
0100
0001
,
1000
0010
1000
0010
1000
0010
1000
0010
,
0100
0001
0100
0001
0010
0001
0010
0001
,
1000
1000
0100
1000
1000
0100
1000
1000
,
0100
1000
1000
0100
1000
0100
1000
0100
,
0010
0001
0010
0001
0010
0001
0010
0001
,
1000
0010
1000
0100
2000
0002
0200
0020
,
3333
0000
0000
0000
0001
0000
0010
0001
0010
0000
0100
0000
1000
0000
0010
0000
,
0100
0000
0001
0000
1000
0000
0100
1000
0100
0000
1000
0000
0010
0000
0100
0000
,
0001
0000
1000
0000
0100
0000
1000
0010
1000
0000
0100
0000
0010
0000
0001
0010
,
0001
0000
1000
0100
1000
0000
0001
0010
0001
0000
0100
0000
0110
0000
0000
0000
,
0100
0000
0001
0010
0001
0000
0010
0001
0010
0000
0100
0000
1000
0000
0010
0000
,
0100
0000
0001
0000
1000
0000
0100
1000
0100
0000
1000
0000
0010
0000
0100
0000
,
0001
0000
1000
0000
0100
0000
1000
0010
1000
0000
0010
0000
0100
0000
0010
1000
,
0010
0000
1000
0100
1000
0000
0001
0000
0200
0000
0020
0000
2000
0000
0002
0000
,
3333
0000
0000
0000
1000
0100
1000
0000
0100
0000
0010
0000
0001
0010
0001
0000
,
1000
0000
0100
0000
0010
0001
0010
0000
0001
0000
1000
0000
0100
0010
0100
0000
,
0010
0000
0001
0000
1000
0100
1000
0000
0100
0000
0010
0000
0001
0010
0001
0000
,
1000
0000
0100
0000
0010
0100
0010
0000
0001
0000
1000
0000
0100
1000
0100
0000
,
1000
0000
0010
0000
0100
0001
0100
0000
0010
0000
1000
0000
0010
0100
0001
0000
,
0100
0000
0010
0000
1000
0010
0100
0000
0001
0000
0100
0000
0010
1000
0010
0000
,
0100
0000
0001
0000
1000
0100
1000
0000
0001
0010
0001
1000
0001
0000
0100
0000
,
0202
1000
0010
1313
,
0001
0101
0000
0001
1001
0000
1100
0000
,
1000
1010
0000
1000
1001
0000
0101
0000
,
0001
0011
0000
0001
0101
0000
1001
0000
,
1000
1100
0000
1000
1010
0000
1001
0000
,
0101
0001
0011
0001
0101
0001
0011
0001
,
0101
0001
0011
0001
0101
0001
0011
0001
,
0101
0100
0110
0010
1010
1000
1100
1000
,
1010
1000
1100
1000
1010
0000
2002
0220
,
0000
0000
0000
0000
,
3333
0000
0000
0000
;

//---------------dance-single - Renard----------------
#NOTES:
     dance-single:
     Renard:
     Hard:
     8:
     0.597,0.558,0.121,0.051,0.010:
0000
0000
0000
0000
,
0000
0000
0000
0000
,
0000
0000
0000
0000
,
0000
0000
0000
0000
,
0000
0000
0000
0000
,
0000
0000
0000
0000
,
0000
0000
0000
0000
,
0000
0000
0000
1000
0100
0010
0001
0010
,
0100
0000
0100
1000
0000
0010
0000
0200
,
0001
0010
1000
0310
,
1000
0000
1000
0100
0000
0100
0010
0000
,
0002
0000
0000
0010
0000
0000
0100
0000
1000
0000
0010
0003
,
0010
0001
0100
0000
0010
1000
0100
0000
,
0010
0001
0100
0000
0010
1000
0100
0000
,
1000
0010
0100
0001
0100
0010
1000
0100
,
2002
0000
0010
3013
,
1000
0100
0010
0001
0100
0010
1000
0100
,
0010
0001
0010
0001
0100
0010
0100
0010
,
1000
0100
0010
0100
1000
0001
0010
0001
,
1000
0000
0001
0100
0001
1000
0001
1000
,
0010
0100
0001
1000
0100
0010
0001
1000
,
0100
1000
0010
0100
0001
0100
0001
0100
,
0010
1000
0100
0010
0001
0100
0010
0000
,
0010
0100
0010
1000
0100
1000
0100
1000
,
0010
0100
0010
0100
0001
0100
0001
0000
,
0001
1000
0001
1000
0001
0010
0001
0000
,
1000
0001
1000
0001
1000
0010
1000
0010
,
1000
0100
1000
0100
1000
0010
0100
0000
,
0001
0100
0001
0100
1000
0100
1000
0100
,
0010
0100
0010
0100
0001
0100
1000
0000
,
0001
0010
1000
0010
0100
0010
1000
0010
,
0001
0010
0100
0010
1000
0010
0100
0000
,
0001
0010
1000
0001
0100
1000
0001
0010
,
1000
0001
0100
1000
0001
0010
1000
0010
,
0001
0100
0001
0100
0001
0100
0001
1000
,
0100
0010
0100
0010
0001
0010
0001
0010
,
0100
1000
0001
0010
1000
0001
0100
1000
,
0001
0010
1000
0001
0100
1000
0010
0100
,
0001
0100
0001
0100
0001
0100
0010
1000
,
0100
0010
0100
0010
0001
0010
0100
1000
,
0010
0100
0001
0100
0010
1000
0100
1000
,
0010
0100
0001
0100
0010
1000
0100
1000
,
0010
0100
0010
0100
0001
0100
0001
0100
,
0001
1000
0001
1000
0010
1000
0100
1000
,
0001
0010
0001
0010
0001
0100
0010
1000
,
0100
1000
0100
1000
0010
0100
0001
0100
,
0010
1000
0001
0100
0010
1000
0001
0100
,
0010
1000
0100
0010
0001
0010
0100
1000
,
0010
0000
0010
0100
0000
0100
0001
0000
,
0100
0010
1000
0100
0010
0000
1001
0000
,
0001
0000
0001
0010
0000
0010
0100
0000
,
1000
0010
0100
0001
0100
0000
1001
0000
,
1010
0000
1000
0010
0000
0010
0100
0000
,
0001
0100
0010
1000
0100
0000
1001
0000
,
0101
0000
0100
0010
0000
0010
1000
0000
,
0100
0010
0001
0010
0100
1000
0010
0100
,
0001
0101
0000
0001
0101
0000
0100
0000
,
0010
1000
0100
0010
0001
0010
0100
1000
,
0100
1100
0000
1000
1100
0000
0100
0000
,
1000
0010
0100
0001
0100
0010
1000
0000
,
0001
1001
0000
0100
0101
0000
0100
0000
,
0010
1000
0100
1000
0001
0100
0010
1000
,
0100
1000
0100
1000
0001
0010
0001
0010
,
0100
1000
0100
1000
0001
0010
0001
0020
,
0000
0000
0000
0000
0000
0000
0000
0030
;

//---------------dance-single - Renard----------------
#NOTES:
     dance-single:
     Renard:
     Medium:
     5:
     0.371,0.492,0.192,0.030,0.000:
0000
0000
0000
0000
,
0000
0000
0000
0000
,
0000
0000
0000
0000
,
0000
0000
0000
0000
,
0000
0000
0000
0000
,
0000
0000
0000
0000
,
0000
0000
0000
0000
,
0000
0000
0000
0000
,
0000
1010
0000
0101
,
0000
0011
0000
1100
,
0000
1010
0000
1100
,
0000
0011
0000
0101
,
0000
1010
0000
1100
,
0000
1001
0000
0011
,
0101
0000
0000
1001
0000
0000
1010
0000
,
0200
0000
0010
0310
,
1000
0000
0010
0100
0001
0000
1000
0000
,
0100
1000
0010
0000
,
0100
0000
0001
0010
0100
0000
1000
0000
,
0010
0100
0001
0000
,
0100
0000
0001
1000
0100
0000
1000
0001
,
0100
0001
1000
0000
,
0100
0000
1000
0001
0100
0000
0001
0010
,
0001
1000
0010
1000
,
0001
0100
0010
1000
,
0100
0000
0010
0000
0001
0000
1000
0001
,
1000
0010
0100
0001
,
1000
0000
0100
0000
0010
0000
0001
1000
,
0001
1000
0010
0100
,
0001
0000
1000
0000
0100
0000
1000
0001
,
1000
0010
0100
0001
,
1000
0000
0010
0000
0100
0001
0100
0000
,
0010
0010
1000
1000
,
0010
0010
0100
0100
,
0001
0000
0001
0000
0001
0000
0001
0001
,
1000
0000
1000
0000
1000
0000
1000
1000
,
0010
0100
0001
1000
,
0100
1000
0010
0100
,
0001
0000
0001
0000
0001
0000
0001
0001
,
1000
0000
1000
0000
1000
0000
1000
1000
,
0010
0000
0100
0000
0001
0000
1000
0100
,
1000
0001
0100
0000
,
0001
0000
0010
0000
0001
0000
0100
0001
,
1000
0000
0100
0000
1000
0000
0010
0100
,
0001
1000
0100
0000
,
1000
0000
0010
0000
0100
0000
0001
1000
,
0100
0000
1000
0000
0001
0000
0010
0001
,
1000
0010
0100
0001
,
1000
0100
1000
0010
,
0100
0001
1000
0000
0001
0000
0100
0000
,
0001
1000
0100
1000
,
0010
0100
0001
0000
1000
0000
0001
0000
,
0100
0000
0001
0000
1000
0000
0100
1000
,
0001
1000
0001
0010
,
0001
1000
0010
1000
,
0001
0000
0100
0001
1000
0000
1000
0000
,
0001
0100
0000
0000
1001
0000
0000
0000
,
0100
1000
0000
0000
1001
0000
0000
0000
,
0100
0001
0000
0000
1001
0000
0000
0000
,
0100
1000
0000
0000
1001
0000
0000
0000
,
0100
0001
0100
0000
0001
0100
0001
0000
,
0100
0001
0100
0000
0001
0100
0001
0000
,
0100
0001
0100
0001
0100
0001
0100
0001
,
0100
0001
0100
0001
0100
0000
0002
0200
,
0000
0000
0000
0000
0000
0000
0000
0303
;

//---------------dance-single - Renard----------------
#NOTES:
     dance-single:
     Renard:
     Easy:
     3:
     0.238,0.324,0.020,0.020,0.000: // measure 1
0000
0000
0000
0000
,  // measure 2
0000
0000
0000
0000
,  // measure 3
0000
0000
0000
0000
,  // measure 4
0000
0000
0000
0000
,  // measure 5
0000
0000
0000
0000
,  // measure 6
0000
0000
0000
0000
,  // measure 7
0000
0000
0000
0000
,  // measure 8
0000
0000
0000
0000
,  // measure 9
1000
0000
1000
0001
0000
1000
0000
0001
,  // measure 10
0000
0000
0000
0000
,  // measure 11
1000
0000
1000
0001
0000
1000
0000
0001
,  // measure 12
0000
0000
0100
0100
,  // measure 13
0100
0000
0010
0010
,  // measure 14
0010
0000
1000
1000
,  // measure 15
0001
0000
0000
0100
0000
0000
0010
0000
,  // measure 16
2000
0000
0000
0000
,  // measure 17
3001
0000
0001
1000
0000
1000
0010
0000
,  // measure 18
0100
0000
0001
0000
,  // measure 19
1000
0000
1000
0001
0000
0001
0100
0000
,  // measure 20
0001
0000
1000
0000
,  // measure 21
0010
0000
0100
0000
,  // measure 22
0001
0000
1000
0000
,  // measure 23
0200
0000
0010
0000
,  // measure 24
0310
0000
0000
0000
,  // measure 25
0001
0000
1000
0001
,  // measure 26
0100
0000
0000
0000
0010
0000
0000
1000
,  // measure 27
0001
0000
0100
0010
,  // measure 28
1000
0000
0000
0000
0100
0000
0000
0100
,  // measure 29
0010
0000
0001
0100
,  // measure 30
0010
0000
0000
0000
1000
0000
0000
0001
,  // measure 31
0100
0000
0010
1000
,  // measure 32
0100
0000
0000
0000
1000
0000
0000
1000
,  // measure 33
0001
0000
0001
0000
,  // measure 34
0001
0000
0001
0000
,  // measure 35
0001
0000
0000
0001
0000
0000
0001
0000
,  // measure 36
0001
0000
0000
0001
0000
0000
0001
0000
,  // measure 37
1000
0000
1000
0000
,  // measure 38
1000
0000
1000
0000
,  // measure 39
1000
0000
0000
1000
0000
0000
1000
0000
,  // measure 40
1000
0000
0000
1000
0000
0000
1000
0000
,  // measure 41
0001
0001
0100
0100
,  // measure 42
0001
1000
0001
0000
,  // measure 43
1000
1000
0100
0100
,  // measure 44
1000
0000
1000
0000
,  // measure 45
0010
0010
0100
0100
,  // measure 46
0001
0010
0001
0000
,  // measure 47
0100
0100
0010
0010
,  // measure 48
1000
0000
0100
0000
,  // measure 49
1000
0000
0010
0100
,  // measure 50
0001
0000
1000
0010
,  // measure 51
0100
0000
0001
0010
,  // measure 52
0100
0000
1000
0010
,  // measure 53
0100
0000
0001
0100
,  // measure 54
0010
0000
1000
0010
,  // measure 55
0100
0000
0100
0000
,  // measure 56
1001
0000
0000
0000
,  // measure 57
1000
0001
0000
0000
1000
0000
0000
0000
,  // measure 58
0001
1000
0000
0000
0001
0000
0000
0000
,  // measure 59
1000
0001
0000
0000
1000
0000
0000
0000
,  // measure 60
0001
1000
0000
0000
0001
0000
0000
0000
,  // measure 61
1000
0001
0000
0000
1000
0000
0000
0000
,  // measure 62
0001
1000
0000
0000
0001
0000
0000
0000
,  // measure 63
1000
0001
0000
0000
0001
1000
0000
0000
,  // measure 64
1000
0001
0000
0000
0001
1000
0000
0000
,  // measure 65
1001
0000
0000
0000
;
