#TITLE:Empyrean (Instrumental);
#SUBTITLE:;
#ARTIST:Sonitus Vir;
#GENRE:Electronic Orchestra;
#TITLETRANSLIT:;
#SUBTITLETRANSLIT:;
#ARTISTTRANSLIT:;
#CREDIT:;
#BANNER:;
#BACKGROUND:;
#LYRICSPATH:;
#CDTITLE:;
#MUSIC:empyrean.ogg;
#OFFSET:0.000;
#SAMPLESTART:24.000;
#SAMPLELENGTH:12.000;
#SELECTABLE:YES;
#BPMS:0.000=160.000;
#STOPS:;
#BGCHANGES:;

//---------------dance-single - Renard----------------
#NOTES:
     dance-single:
     Renard:
     Challenge:
     9:
     0.640,0.752,0.519,0.032,0.228:
0000
0000
0000
0000
,
0000
0000
0000
0000
,
0000
0000
0000
0000
,
0000
0000
0000
0000
,
0000
0000
0000
0000
,
0000
0000
0000
0000
,
0000
0000
0000
0000
,
0000
0000
0000
0000
,
1000
0000
0101
0000
0010
1000
0000
0110
,
0000
0000
0011
0000
1000
0000
0000
0000
0010
0000
0000
0100
0000
0000
0001
0000
,
1000
0000
0000
0100
0010
0000
0000
0001
,
0100
0000
0010
0000
1000
0000
0000
0000
0100
0000
0000
0000
0010
0000
0001
1000
,
0001
0000
0100
0010
1000
0000
0100
0010
,
0000
0000
0001
0000
0100
0000
0000
0000
0010
0000
0000
0010
0000
0000
0010
0000
,
1000
0000
0100
0010
0001
0000
1000
0010
,
0100
0000
0001
0000
1000
0000
0100
0000
0010
0001
0010
0001
0010
0000
0001
0000
,
0010
0010
0100
0000
1010
1010
0100
0000
,
0001
0000
0010
0100
1000
0000
0010
0000
0101
0000
0000
0000
1010
0000
0000
0000
,
1001
0000
1000
0100
0010
0000
0001
0000
0010
0000
0100
1000
0010
0000
0100
0000
,
0001
0000
0000
0001
1000
0000
0000
1000
0100
0000
0010
0001
0010
0000
0001
0000
,
1000
0000
0010
0000
1001
0000
0010
0000
0100
0000
0001
1000
0010
0000
0100
0000
,
0001
1000
1100
0010
0011
0000
1010
0000
,
1001
0000
1000
0100
0010
0000
0001
0000
0110
0000
0000
0000
1010
0000
0100
0000
,
0101
0000
0000
0000
0010
1000
0001
0100
0010
0000
1000
0000
0001
0000
0000
0000
,
0200
0000
0000
0000
,
0310
1000
0100
0010
0001
0010
0100
0000
,
1010
0000
0101
0000
1001
0000
1000
0100
,
0000
0000
0011
0000
0000
0000
0010
0000
0100
0000
0000
0000
1000
0000
0010
0100
,
0010
0100
0001
1000
0100
0010
0001
1000
,
0010
0000
0000
0000
0010
0000
0100
0000
0001
0000
0000
0000
0000
0000
0001
1000
,
0100
1000
0001
0000
0010
0100
1000
0010
,
0000
0000
0101
0000
0000
0000
0010
0000
1000
0000
0000
0000
0100
0000
0010
0001
,
0010
0000
0001
0000
1000
0000
0010
0000
0100
0000
0001
0000
1000
0001
1000
0001
,
1000
0000
0000
0000
0010
0000
0100
0000
0001
0000
0000
0000
0010
0000
0100
1000
,
0001
1000
0010
0000
0101
0000
1000
0010
,
1000
0000
0000
0000
0100
0000
0000
0000
0011
0000
0000
0000
0100
0000
1000
0010
,
0100
0001
1000
0010
0100
0001
1000
0100
,
0010
0000
0000
0000
0000
0000
0000
0000
1001
0000
0000
0000
0000
0000
0010
1000
,
0001
0100
0010
1000
0100
0010
0001
0010
,
0100
0000
0000
0000
1000
0000
0000
0000
1001
0000
0000
0000
0010
0000
1000
0001
,
0100
0000
0010
0000
1000
0000
0001
0000
1000
0001
1000
0001
1000
0000
0001
0000
,
1000
0010
0101
0000
0010
1000
0100
0000
,
0010
1001
1010
0101
,
1001
0000
1000
0100
0010
0000
0001
0000
0010
0000
0100
0000
1000
0000
0010
0000
,
0200
0000
0000
0000
,
0301
0100
0110
0000
1000
0010
0110
0000
,
1000
0001
0110
0000
1001
0000
1000
0000
,
0100
0000
0010
0001
0010
0000
0100
0000
1000
0000
0010
1000
0010
0000
1000
0000
,
0010
0000
0100
0000
0001
1000
0100
0010
0001
0000
0010
0000
0100
0000
1000
0000
,
0020
0000
0000
0000
0000
0000
0000
0000
0000
0000
0000
0000
0000
0000
0000
0030
,
0100
0100
0010
0000
1000
1000
0100
0000
,
0010
1001
1010
0101
,
1010
0000
1000
0100
0010
0000
0001
0000
0011
0000
0010
0100
1000
0000
0010
0000
,
0100
0001
1000
0100
0010
0001
0010
0100
,
1000
0010
0101
0010
1000
0100
0011
0100
,
1000
0010
1001
0010
0101
0000
1010
0000
,
1001
0000
1000
0100
0010
0000
0001
0000
0010
0000
0100
1000
0010
0000
0100
0000
,
0001
0000
1000
0000
0100
0010
0001
0010
0100
0000
1000
0000
0010
0000
0100
0000
,
1001
0000
1000
0100
0010
0000
0001
0000
0010
0000
0100
0000
1000
0000
0010
0000
,
0100
0000
0000
0000
0001
0100
0010
1000
0100
0000
0010
0000
0001
0000
0000
0000
,
0011
0000
0010
0100
1000
0000
0010
0000
0101
0000
0010
0000
0100
0000
0100
0000
,
1000
0000
0001
0000
0010
0100
1000
0010
0100
0000
0001
0000
1001
0000
0000
0000
;

//---------------dance-single - Renard----------------
#NOTES:
     dance-single:
     Renard:
     Hard:
     9:
     0.487,0.556,0.413,0.011,0.138:
0000
0000
0000
0000
,
0000
0000
0000
0000
,
0000
0000
0000
0000
,
0000
0000
0000
0000
,
0000
0000
0000
0000
,
0000
0000
0000
0000
,
0000
0000
0000
0000
,
0000
0000
0000
0000
,
1001
0000
1100
0000
0010
0001
0000
0101
,
0000
0000
0010
0000
1000
0000
0000
0000
0100
0000
0000
0010
0000
0000
0001
0000
,
0010
0000
0000
0100
0000
0000
1000
0000
,
0010
0000
0100
0001
0100
0000
0010
1000
,
0100
0000
1000
0010
0000
0000
0100
0000
,
0001
0000
0010
0100
0000
1000
0010
0100
,
0001
0000
1000
0100
1000
0000
0001
0010
,
0001
1000
0010
0000
0100
0000
0001
0000
,
1100
0000
0011
0000
,
0100
0000
0001
1000
0001
0000
0000
0000
1001
0000
0000
0000
0000
0000
0000
0000
,
1000
0000
0000
1000
0010
0000
0000
0010
0100
0000
0001
0000
0010
0000
0100
0000
,
1000
0000
0001
1000
0001
0100
0001
0000
,
1000
0101
0010
1001
,
0100
1001
1010
0101
,
0001
0000
0010
0100
0010
0000
0100
0000
0010
0000
0000
0000
0100
0000
1000
0000
,
0010
0000
0000
0000
0100
0001
0100
0001
0100
0000
0000
0000
0001
0000
0000
0000
,
2000
0000
0000
0000
,
3001
0000
0100
0000
0010
1000
0100
0000
,
0010
0000
0001
0000
1000
0000
0010
0100
,
0000
0000
1001
0000
0000
0000
0000
0000
1000
0000
0000
0000
0000
0000
0100
0010
,
0100
0010
0100
1000
0010
0000
0100
0000
,
1001
0000
0010
0000
1000
0100
0010
0000
,
1001
0000
0000
0000
0110
0000
1000
0010
,
0000
0101
0000
0000
1000
0000
0100
0010
,
0001
0000
0010
0000
0100
0000
1000
0000
0010
0000
0000
0000
1000
0001
1000
0000
,
0010
0000
0100
0001
0010
0100
1000
0000
,
1001
0000
1000
0000
0010
0100
0001
0010
,
0000
0110
0000
0000
0100
1000
0010
0000
,
0100
0000
0001
0000
1000
0100
0000
1000
0100
0000
1000
0000
0010
0000
0100
0000
,
0001
0000
0010
0000
0001
0100
0010
0000
,
1000
0000
0101
0000
0010
1000
0100
0010
,
0000
1001
0000
0000
1000
0000
0010
0100
,
0001
0000
0000
0000
1000
0000
0000
0000
0100
0000
0000
0000
0010
0000
0001
1000
,
0001
1000
0000
0000
0110
0000
0000
0000
,
1001
0000
1000
0100
0010
0000
0000
0000
0011
0000
0000
0000
0000
0000
0000
0000
,
0001
0000
1000
0010
1000
0000
0001
0000
0100
0000
0000
0000
0001
0000
1000
0000
,
0100
0011
0000
1010
,
1001
0000
1000
0100
0010
0000
0001
0010
,
0100
1010
0101
0000
,
1000
0000
0100
1000
0100
0000
1000
0000
0010
0000
0000
0000
0100
0000
0001
0000
,
0010
0000
0000
0000
0001
1000
0001
0000
1000
0000
0000
0000
0000
0000
0000
0000
,
0000
0000
0000
0000
,
0101
0000
1010
0000
,
0000
1100
0011
0000
,
0001
0000
0100
0010
1000
0000
0100
0000
0010
0000
0001
0000
1000
0000
0001
0000
,
0100
1001
0000
1001
,
1000
0110
1000
0110
,
0001
0110
1001
0000
,
1000
0000
0100
1000
0100
0000
1000
0000
0001
0000
0000
0000
0010
0000
0001
0000
,
0100
0000
0000
0000
0001
1000
0001
1000
0001
0000
0000
0000
1000
0000
0000
0000
,
0010
0000
1000
0100
1000
0000
0001
0000
0010
0000
0000
0000
0001
0000
0100
0000
,
0001
0000
0000
0000
1000
0001
1000
0001
1000
0000
0000
0000
0001
0000
0000
0000
,
0010
0000
0001
0100
0001
0000
1000
0000
0001
0000
0010
0000
0100
0000
1000
0000
,
0001
0000
0000
0000
0001
0010
0100
1000
0001
0000
0000
0000
1001
0000
0000
0000
;

//---------------dance-single - Renard----------------
#NOTES:
     dance-single:
     Renard:
     Medium:
     7:
     0.377,0.490,0.371,0.042,0.000:
0000
0000
0000
0000
,
0000
0000
0000
0000
,
0000
0000
0000
0000
,
0000
0000
0000
0000
,
0000
0000
0000
0000
,
0000
0000
0000
0000
,
0000
0000
0000
0000
,
0000
0000
0000
0000
,
1000
0000
0001
0000
0100
0010
0000
1000
,
0000
0100
0010
0000
0001
0000
0000
0000
,
0110
0000
0000
1001
0000
0000
0000
0000
,
1000
0000
0010
0000
0100
0000
0001
1000
,
0100
0000
1000
0010
0100
0000
0000
0000
,
0000
1001
1000
0010
,
0100
0000
0001
0000
,
0010
0100
1000
0001
,
1000
0100
0000
0000
0010
0001
0000
0000
,
1000
0001
0100
0000
1010
0000
0000
0000
,
0001
0100
0001
0100
0001
0100
0001
0100
,
0001
0000
0001
0000
1000
0100
1000
0000
,
1001
0010
1001
0100
,
1001
1100
0011
0000
,
1000
0000
0001
0100
0010
0000
1000
0100
,
0010
0000
0001
0010
0100
0000
1000
0000
,
1001
0000
0000
0000
,
1000
0000
0000
0000
0010
0100
0001
0000
,
0000
0000
0110
0000
0000
0000
0000
1000
,
0000
0110
0000
0000
0000
0000
0000
0000
,
0001
0000
0000
0000
1000
0000
0100
0010
,
0001
0000
0000
0000
0010
0100
1000
0000
,
0110
0000
0101
0000
,
1010
0000
1000
0100
,
0010
0000
0001
0010
0100
0000
1000
0000
,
0110
0000
0000
0000
1000
0100
0010
0000
,
0000
0000
0011
0000
0010
0000
0100
1000
,
0000
0110
0000
0000
0000
0000
0000
0000
,
0101
0001
1000
0000
,
1100
0000
0000
0000
0010
0001
0100
0000
,
0110
0000
1010
0000
,
0101
0000
1000
0000
0100
0000
0010
0001
,
0010
0100
1000
0000
,
0001
0100
0000
0000
0010
1000
0000
0000
,
0000
0001
1000
0000
0200
0000
0000
0000
,
0310
0000
0001
0100
0010
0000
1000
0000
,
0200
0000
0000
0000
,
0310
0011
0100
1100
,
0010
0000
1001
0000
0220
0000
0000
0330
,
1000
1000
0001
0001
,
1000
0000
0001
0010
0100
0000
1000
0000
,
1000
0000
0000
0000
,
0001
0100
0000
0000
0001
0100
0000
0000
,
0000
0010
1000
0000
1100
0000
0000
0000
,
0010
0001
0010
0001
0010
0001
0010
0001
,
0010
0010
0010
0010
,
0100
1000
0010
0000
0000
0100
0001
0000
,
0000
0010
0001
0000
1001
0000
0000
0000
,
1100
0010
0101
0010
,
1001
1100
0011
1000
,
0001
0100
0010
0000
1000
0100
0010
0000
,
0001
0010
0100
1000
0010
0000
1000
0000
,
0001
0010
0100
1000
0100
0010
0001
0010
,
0100
1000
0100
0010
0001
0000
1001
0000
;

//---------------dance-single - Renard----------------
#NOTES:
     dance-single:
     Renard:
     Easy:
     2:
     0.257,0.360,0.159,0.053,0.000: // measure 1
0000
0000
0000
0000
,  // measure 2
0000
0000
0000
0000
,  // measure 3
0000
0000
0000
0000
,  // measure 4
0000
0000
0000
0000
,  // measure 5
0000
0000
0000
0000
,  // measure 6
0000
0000
0000
0000
,  // measure 7
0000
0000
0000
0000
,  // measure 8
0000
0000
0000
0000
,  // measure 9
1000
0000
0001
0000
,  // measure 10
0100
0010
1000
0000
,  // measure 11
0100
0000
0000
0010
0000
0000
0000
0000
,  // measure 12
0001
0000
0100
0000
,  // measure 13
0010
0000
0000
1000
0000
0000
0000
0000
,  // measure 14
0100
0000
0010
0000
,  // measure 15
0001
0000
0001
0000
,  // measure 16
1000
0100
0010
0000
,  // measure 17
0001
0000
1010
0000
,  // measure 18
0000
0101
1001
0000
,  // measure 19
1000
1000
0100
0010
,  // measure 20
1002
2000
0000
0000
0000
0000
3003
0000
,  // measure 21
1000
1000
0010
0010
,  // measure 22
0100
0001
1001
0000
,  // measure 23
0001
0010
0100
1000
,  // measure 24
0001
0000
1000
0001
1000
0000
0000
0000
,  // measure 25
0101
0000
0000
0000
,  // measure 26
1000
0000
0001
0000
,  // measure 27
0100
0000
0000
0000
0010
0000
0000
1000
,  // measure 28
0000
0100
0000
0000
0010
0000
0000
0000
,  // measure 29
0001
0000
0010
0000
,  // measure 30
1100
0000
0010
0001
,  // measure 31
0000
0000
0101
0000
0000
0000
0000
1000
,  // measure 32
0000
0010
0000
0000
0100
0000
0000
0000
,  // measure 33
0001
0000
1000
0100
,  // measure 34
0010
0000
0001
0100
,  // measure 35
0010
0000
0000
0000
1000
0000
0000
0100
,  // measure 36
0000
0010
0000
0000
0001
0000
0000
0000
,  // measure 37
0010
0000
0100
1000
,  // measure 38
0010
0000
0100
0001
,  // measure 39
0000
0000
1001
0000
0000
0000
0000
1000
,  // measure 40
0000
0100
0000
0000
0010
0000
0000
0000
,  // measure 41
0001
0100
0001
0000
,  // measure 42
1000
0000
0010
0000
,  // measure 43
0000
0000
0100
0200
0001
0002
0000
0303
,  // measure 44
1000
1000
1000
1000
,  // measure 45
0001
0002
0000
0000
0000
0000
0000
0000
,  // measure 46
0103
0100
0010
1000
,  // measure 47
0100
0010
1001
0000
,  // measure 48
0001
0000
0100
0000
,  // measure 49
0010
0000
1000
0001
1000
0000
0000
0000
,  // measure 50
0000
0000
0000
0000
,  // measure 51
0100
0100
0010
0010
,  // measure 52
1000
0001
0100
0000
,  // measure 53
0001
0001
1000
0100
,  // measure 54
0010
0000
0000
0000
,  // measure 55
1001
0000
0110
0000
,  // measure 56
0000
1010
0101
0000
,  // measure 57
1000
0100
0010
0001
,  // measure 58
0010
0000
0100
0010
0100
0000
0000
0000
,  // measure 59
1000
1000
0010
0100
,  // measure 60
0001
0000
1000
0100
1000
0000
0000
0000
,  // measure 61
0001
0010
0100
1000
,  // measure 62
0010
0000
1000
0001
1000
0000
1001
0000
;
