#TITLE:Emiru Maniax;
#SUBTITLE:;
#ARTIST:DJ Sharpnel (remixed by m1dy);
#GENRE:Speedcore;
#TITLETRANSLIT:;
#SUBTITLETRANSLIT:;
#ARTISTTRANSLIT:;
#CREDIT:;
#BANNER:emiru.png;
#BACKGROUND:emiru-bg.png;
#LYRICSPATH:;
#CDTITLE:;
#MUSIC:EMIRU.ogg;
#OFFSET:-0.000;
#SAMPLESTART:2.320;
#SAMPLELENGTH:14.000;
#SELECTABLE:YES;
#BPMS:0.000=400.000;
#DISPLAYBPM:400;
#STOPS:144.000=1.200
,152.000=1.200
,160.000=1.200
;
#BGCHANGES:;

//---------------dance-single - Renard----------------
#NOTES:
     dance-single:
     Renard:
     Challenge:
     14:
     1.000,1.000,0.253,0.451,0.006:
0000
0000
0000
0000
,
0000
0000
0000
0000
,
0000
0000
0000
0000
,
0000
0000
0000
0000
1000
0001
0100
0010
,
1000
0000
0100
0000
1000
0100
1000
0000
,
0010
0000
0100
0000
0001
0100
0001
0000
,
0010
0000
0001
0000
0100
0010
0100
0000
,
0010
0000
1000
0000
0100
1000
0100
1000
,
0010
0000
0100
0000
0001
0100
0001
0000
,
0100
0000
0010
0000
1000
0100
1000
0010
,
0100
0000
0001
0000
0010
0001
0100
0000
,
0010
1000
0100
1000
0010
0100
0010
0100
,
0001
0000
0100
0000
0010
0100
0010
0100
,
0001
0000
0010
0000
0001
0100
0010
1000
,
0100
0000
1000
0000
0010
0100
0010
0000
,
0100
0001
0010
0001
0100
0000
0010
0000
,
1000
0000
0100
0000
1000
0010
1000
0000
,
0010
0100
0001
0010
0001
0000
0100
0000
,
0010
1000
0010
0000
0100
0001
0100
0000
,
0010
1000
0200
0000
2002
0000
3303
0000
,
1000
0100
0010
0001
0010
0100
1000
0000
,
0100
0010
0001
0010
0100
1000
0100
0000
,
0010
0001
0010
0100
1000
0100
0010
0000
,
0001
0010
0100
1000
0100
0010
0001
0000
,
1000
0010
0100
0001
0100
0010
1000
0000
,
0010
0100
0001
0100
0010
1000
0010
0000
,
0100
0001
0100
0010
1000
0010
0100
0000
,
0001
0100
0010
1000
0010
0100
0001
0000
,
1000
0100
1000
0010
0100
0001
0010
0001
,
0100
0010
1000
0100
1000
0010
0100
0001
,
0010
0001
0010
0001
0010
0001
0010
0001
,
1000
0100
1000
0100
1000
0010
0100
0001
,
1100
1000
1010
0010
,
0110
0100
0101
0001
,
2000
0000
0200
0020
,
0002
3333
1111
0000
,
2202
0000
0000
0000
,
0000
0000
0020
3333
,
2022
0000
0000
0000
,
0000
0000
0200
3333
,
2002
0000
0000
0000
,
0000
0000
0220
3333
,
1110
0000
0000
0000
,
0111
0000
0000
0000
,
2000
0000
0002
0000
,
0200
0000
0020
3333
,
1000
0001
0100
0010
,
1000
0000
0100
0000
1000
0010
1000
0000
,
0010
0100
0001
0010
,
0001
0100
0001
0100
0010
0000
1000
0000
,
0100
1000
0010
0100
,
0001
0000
0010
0000
0001
0100
0001
0000
,
0100
0010
1000
0100
1000
0000
0010
0000
,
0100
0001
0010
0001
0100
0000
0010
0000
,
0100
0001
1000
0100
,
1000
0000
0010
0000
0100
0001
0100
0000
,
0010
1000
0100
1000
,
0010
0000
0100
0000
0001
0010
0001
0000
,
0100
1000
0100
0001
,
0010
0000
1000
0000
0010
0001
0010
0000
,
0001
0100
1000
0000
1000
0100
0001
0000
,
0001
0010
1000
0010
0001
0000
0100
0000
,
0100
0010
1000
0100
0010
0001
0010
1000
,
0010
0001
0100
0010
,
1000
0100
0010
0001
0010
0100
1000
0100
,
0001
0100
1000
0010
,
0100
0001
0100
0010
1000
0100
1000
0000
,
0010
0100
0001
0100
,
0010
1000
0100
0010
0001
0010
0100
1000
,
0010
0100
0001
0100
,
1000
0100
0001
0100
1000
0100
0001
0000
,
0010
0001
0100
0001
,
1000
0100
0010
0001
0010
0000
0100
0000
,
1000
0001
0100
0001
,
1010
0000
1010
2200
,
0000
0010
3301
0000
,
0001
0001
0001
0001
,
0001
0001
0001
0001
,
1000
0100
0001
0100
,
1000
0010
0001
0010
,
1000
0100
0001
0100
,
1000
0010
0200
0000
,
0301
0010
0001
0100
,
0010
1000
0100
1000
,
0010
0100
0001
0010
,
0001
0100
0020
0000
,
1030
0100
0001
0100
,
1000
0010
0001
0010
,
1000
0100
0001
0100
,
1000
0010
0200
0000
,
0301
0010
0001
0100
,
0010
0000
0000
0000
1000
0000
0000
0000
0100
0000
0000
0000
1000
0100
1000
0000
,
0100
1000
0100
1000
0100
1000
0100
1000
,
0100
1000
0010
1000
0001
0100
0001
0010
,
0001
0000
0010
0001
0100
0000
0010
1000
,
0100
0000
1000
0010
0100
0001
0010
0000
,
0001
0100
0010
0000
1000
0100
1000
0000
,
0010
0100
0001
0100
0010
0000
1000
0000
,
0100
0000
1000
0010
0100
0000
0001
0010
,
0100
1000
0010
0100
0001
0000
1000
0000
,
0010
0100
0001
0000
0100
0010
1000
0000
,
0100
0010
0100
1000
0010
0100
0001
0000
,
1000
0000
0100
1000
0010
0000
0100
0001
,
0010
0000
0001
0100
0010
1000
0100
0000
,
1000
0010
0100
0000
0001
0010
0001
0000
,
0100
0010
1000
0010
0100
0000
0001
0000
,
0010
0000
0001
0100
0010
0000
1000
0100
,
0010
0001
0100
0010
1000
0000
0001
0000
,
1000
0001
1000
0001
0100
0010
0100
0010
,
1000
0010
1000
0010
0100
0001
0100
0001
,
1000
0100
0010
0100
1000
0010
0100
0000
,
0001
0100
0010
1000
0100
0000
1000
0000
,
0010
0100
0001
0010
0001
0100
0010
0000
,
1000
0100
1000
0000
0010
0100
0010
0000
,
0100
0001
0010
0001
0100
0000
0001
0000
,
1000
0100
1000
0010
0100
0001
0100
0000
,
0010
1000
0100
0000
1000
0000
0010
0000
,
0100
0001
0100
0010
1000
0100
1000
0000
,
0100
1000
0010
0100
,
0100
0001
0010
0001
,
0001
0100
0010
1000
,
0200
2000
0020
3330
,
0100
1000
0010
0100
,
0001
0010
0001
0000
,
2002
0000
0100
0010
,
0100
0000
3113
0000
,
1000
0100
1000
0000
0010
0000
0100
0000
,
0001
0010
0001
0100
0010
1000
0100
0000
,
1000
0010
0100
0000
0001
0000
0010
0000
,
0001
0100
0010
1000
0100
1000
0010
0000
,
0100
0001
0010
0000
0001
0000
0100
0000
,
0010
1000
0100
1000
0010
0100
0001
0000
,
1000
0100
0010
0100
1000
0010
0100
0001
,
0100
0010
1000
0100
0001
0000
0100
0000
,
1000
0010
0100
0001
0010
0001
0100
0010
,
1000
0000
0100
0000
1000
0010
0100
0000
,
0001
0010
0001
0100
0010
1000
0100
0001
,
0100
1000
0010
0100
0001
0000
0010
0000
,
0001
0100
0010
1000
0100
0000
1000
0000
,
0010
0100
0010
0100
0010
0100
0010
0000
,
0110
0000
0220
2002
,
3003
2332
0220
3333
,
1111
0000
0000
0000
;
