#TITLE:Emerge;
#SUBTITLE:;
#ARTIST:Fischerspooner;
#TITLETRANSLIT:;
#SUBTITLETRANSLIT:;
#ARTISTTRANSLIT:;
#CREDIT:;
#BANNER:emerge.jpg;
#BACKGROUND:emerge-bg.jpg;
#LYRICSPATH:;
#CDTITLE:;
#MUSIC:emerge.ogg;
#OFFSET:0.000;
#SAMPLESTART:12.933;
#SAMPLELENGTH:12.000;
#SELECTABLE:YES;
#BPMS:0.000=148.000,175.000=296.000,241.000=148.000,256.000=296.000,328.000=148.000;
#STOPS:;
#GENRE:Electroclash;

//---------------dance-single - Renard----------------
#NOTES:
     dance-single:
     Renard:
     Challenge:
     12:
     0.891,1.000,0.048,0.038,0.302:
0000
0000
0000
0000
,
0000
0000
0000
0000
,
0000
0000
0000
0000
,
0000
0000
0000
0000
,
1000
0000
0010
0000
0100
0000
0001
0100
0001
0000
1000
0000
0100
0000
1000
0000
,
0010
0000
0100
0001
0100
0000
0010
0000
1000
0000
0100
0000
0010
0000
0100
0000
,
1000
0000
0001
0000
0010
0000
1000
0001
0100
0000
0001
0000
1000
0000
0100
0000
,
0010
0000
0001
1000
0010
0000
1000
0000
0001
0000
0010
0000
0110
0000
0000
0000
,
0010
0001
0100
0010
0001
1000
0100
0001
,
0010
0100
0001
1000
0010
0001
0100
0010
,
0001
1000
0100
0001
0100
0010
1000
0001
,
0100
1000
0001
0010
0100
0001
1000
0100
,
0010
0001
0010
1000
0001
0100
0010
1000
,
0001
0100
1000
0010
0100
0001
0100
0010
,
1000
0001
0100
0010
0001
0010
0100
1000
,
0100
0001
0010
0100
1000
0010
0100
0002
,
0100
1000
0010
0100
,
1003
0000
0100
0010
1000
0010
0100
0001
,
2000
0100
0010
0001
,
3010
0000
0100
0010
1000
0001
0100
0020
,
0100
1000
0001
0100
,
0130
0000
0010
1000
0001
0100
0010
2000
,
0010
0100
0001
0010
,
3100
0000
0010
0100
0001
0010
0100
1000
,
0001
0000
0001
0100
0010
0000
0100
0000
1000
0000
1000
0100
0010
0000
0100
0000
,
0001
0000
0001
0010
0100
0000
1000
0000
1000
0000
0010
0100
0001
0100
0010
0000
,
0100
0000
0010
1000
0010
0100
1000
0000
0100
0000
0001
0000
0101
0000
0000
0000
,
0010
1000
0010
1000
0000
0010
0100
0000
0001
0010
0100
1000
0000
0010
0100
0000
,
0001
0100
0001
0100
0010
0000
1000
0000
0100
0000
0010
0000
1001
0000
0010
0000
,
0100
0001
0010
0100
0010
0000
0001
0000
0100
0010
1000
0100
0010
0000
0100
0000
,
1000
0100
1000
0100
1000
0010
1000
0000
0001
0010
0001
0010
0001
0100
0001
0000
,
1000
0100
0010
0100
1000
0000
0001
0000
0010
0100
0010
0001
0100
0000
0010
0000
,
1000
0100
0001
1000
0010
0001
1000
0100
0001
1000
0010
0001
1000
0100
0001
1000
,
0010
0001
1000
0100
0001
1000
0010
0001
1000
0100
0001
1000
0010
0001
1000
0100
,
0001
0100
0001
0100
0001
0100
0001
0100
0001
0100
0001
0100
0001
0100
0001
0100
,
0001
0100
0001
0100
0001
0100
0001
0100
0001
0100
0001
0100
0001
0000
0000
0000
,
0100
1000
0010
0100
1000
0001
0010
1000
,
0100
0010
1000
0001
0100
1000
0010
0100
,
1000
0001
0010
1000
0010
0100
0001
1000
,
0010
0001
1000
0100
0010
1000
0001
0010
,
0100
1000
0100
0001
1000
0010
0100
0001
,
1000
0010
0001
0100
0010
1000
0010
0100
,
0001
1000
0010
0100
1000
0100
0010
0001
,
0010
1000
0100
0010
0001
0100
0110
0000
,
0000
0000
0100
1000
0010
0100
1000
0001
,
0010
1000
0100
0010
1000
0001
0100
1000
,
0010
0100
1000
0001
0010
1000
0010
0100
,
0001
1000
0010
0001
1000
0100
0010
1000
,
0001
0010
0100
1000
0100
0001
1000
0010
,
0100
0001
1000
0010
0001
0100
0010
1000
,
0010
0100
0001
1000
0010
0100
1000
0100
,
0010
0001
0010
1000
0100
0010
0001
0000
,
0010
0000
0010
0001
0100
0010
0001
1000
,
0100
0001
0010
0100
0001
1000
0010
0001
,
0100
0010
0001
1000
0100
0001
0100
0010
,
1000
0001
0100
1000
0001
0010
0100
0001
,
1000
0100
0010
0001
0010
1000
0001
0100
,
0010
1000
0001
0100
1000
0010
0100
0001
,
0100
0010
1000
0001
0100
0010
0001
0010
,
0100
1000
0100
0001
0010
0100
1000
0010
,
0100
0000
0010
0010
0100
0100
0001
0001
,
1000
1000
0100
0100
0010
0010
0001
0001
,
0010
0010
0100
0100
1000
1000
0010
0010
,
0100
0100
0001
0001
0100
0100
0010
1000
,
0010
0000
0000
0000
0100
1000
0010
0100
,
1000
0001
0010
1000
0100
0010
1000
0001
,
0100
1000
0010
0100
1000
0001
0010
1000
,
0010
0100
0001
1000
0010
0001
1000
0100
,
0010
1000
0001
0010
0100
1000
0100
0001
,
1000
0010
0100
0001
1000
0010
0001
0100
,
0010
1000
0010
0100
0001
1000
0010
0100
,
1000
0100
0010
0001
0010
1000
0100
0010
,
0001
0100
0010
0000
0010
0001
0100
0010
,
0001
1000
0100
0001
0010
0100
0001
1000
,
0010
0001
0100
0010
0001
1000
0100
0001
,
0100
0010
1000
0001
0100
1000
0001
0010
,
0100
0001
1000
0100
0010
0001
0010
1000
,
0001
0100
0010
1000
0001
0100
1000
0010
,
0100
0001
0100
0010
1000
0001
0100
0010
,
0001
0010
0100
1000
0100
0001
0010
0100
,
1000
0010
0100
0010
0110
0000
0000
0000
;

//---------------dance-single - Renard----------------
#NOTES:
     dance-single:
     Renard:
     Hard:
     9:
     0.710,0.966,0.346,0.029,0.038:
0000
0000
0000
0000
,
0000
0000
0000
0000
,
0000
0000
0000
0000
,
0000
0000
0000
0000
,
0001
0100
0001
0100
0001
0001
0100
0100
,
0010
1000
0010
1000
0010
0010
1000
1000
,
0100
1000
0100
1000
0100
0100
1000
1000
,
0001
0001
0010
0100
0100
1000
1001
0000
,
1000
0100
0001
0100
0010
0100
0001
0100
,
0010
0001
0010
1000
0010
0100
0001
0100
,
0010
0001
0010
1000
0010
0100
1000
0100
,
0001
0100
0010
0001
0010
0100
1000
0100
,
0001
0100
0001
0100
1000
0010
0001
0010
,
0100
0010
1000
0010
0100
0001
0100
0010
,
0001
1000
0100
0001
0100
0010
1000
0100
,
0010
0001
0010
0100
1000
0001
0100
0010
,
1000
0100
1000
0000
0100
0000
1111
0000
,
0001
0010
0100
1001
0100
1001
0000
0000
,
1000
0010
0100
0001
0100
0000
1111
0000
,
0010
1000
0100
1001
0010
1001
0000
0000
,
1000
0100
0010
0001
0020
0000
1031
0000
,
0010
0100
1000
0100
0010
0001
0010
0100
,
1000
0010
0100
0001
0200
0000
1301
0000
,
0010
1000
0100
0010
0001
0010
0100
1000
,
1001
0000
0010
1001
0000
0000
0110
0000
,
0110
0000
0001
0110
0000
0000
1001
0000
,
0101
0000
0010
1000
0100
0010
1001
0000
,
1010
0000
0100
0011
0000
1000
0001
0100
,
1001
0000
0010
0001
0100
0010
1001
0000
,
0110
0000
1000
0101
0000
0010
1001
0000
,
0100
0000
1000
0100
1000
0000
0100
0010
0100
0000
0010
0001
0010
0000
0001
0100
,
0001
0000
0100
0010
0100
0000
0010
1000
0010
0000
1000
0100
1000
0000
0010
0100
,
0010
0100
1000
0001
0010
0001
1000
0100
,
1000
0010
0100
0001
1000
0100
0010
0100
,
1001
0010
0001
0100
1000
0100
0001
0010
,
1000
0010
0001
0010
0100
1000
0010
0000
,
0100
0001
1000
0010
1000
0001
0000
0010
,
1000
0010
0100
0001
0100
0010
0000
0100
,
1000
0100
0010
0100
0001
0100
0000
1000
,
0010
0100
0001
0010
0100
1000
0000
0010
,
0100
0100
0001
0001
0010
0100
1000
0010
,
0100
0100
0001
0001
0010
0100
0010
0001
,
1000
0010
0100
0001
0100
1000
0100
0001
,
0100
0010
1000
0100
0010
0001
0020
0000
,
0000
0031
0010
0001
,
0100
0001
0100
0000
0010
0000
1000
0000
,
0100
0010
0001
0000
0010
0000
0100
0000
,
1000
0100
1000
0000
0010
0000
1010
0000
,
0000
0100
0001
0010
,
0100
1000
0100
0000
0010
0000
0001
0000
,
0010
0100
1000
0000
0010
0000
0100
0000
,
0001
1000
0010
0000
0100
0000
0101
0000
,
0000
0000
1000
0000
0001
0000
1000
0100
,
1000
0000
0001
0000
0010
0000
0100
1000
,
0100
0000
1000
0000
0001
0000
0010
0001
,
0100
0000
0010
0000
1000
0000
0100
0010
,
0001
0000
0010
0000
0100
1000
0100
0000
,
1000
0100
1000
0000
0100
1000
0100
0000
,
1000
0100
1000
0000
0001
0010
0001
0000
,
0010
0001
0010
0000
0001
0010
0001
0000
,
0010
0000
0001
0001
1000
1000
0100
0100
,
0010
0010
0001
0001
1000
0010
0100
0001
,
0010
0100
1000
1000
0010
0100
0001
0001
,
0010
0100
1000
1000
0010
0100
0001
0010
,
1001
0000
0001
0100
,
0001
0100
0010
0000
1000
0000
0100
0000
,
0010
0100
1000
0000
0001
0000
0010
0000
,
0001
0010
0001
0000
0100
0000
0010
0000
,
1010
0000
1000
0010
,
0100
0001
0100
0000
0010
0000
1000
0000
,
0100
0010
0001
0000
0010
0000
0100
0000
,
1000
0001
0100
0000
0010
0000
1000
0000
,
0100
0010
0001
0000
0010
0000
0100
0000
,
1001
0100
0010
1001
,
0010
0100
0010
1000
,
0100
0011
0100
0011
,
0100
1000
0010
0100
,
0010
1001
0100
1001
,
0010
0100
0001
1000
,
0010
0000
0100
0000
0010
1000
0100
0010
,
0001
0100
0010
0000
0101
0000
0000
0000
;

//---------------dance-single - Renard----------------
#NOTES:
     dance-single:
     Renard:
     Medium:
     5:
     0.414,0.657,0.154,0.192,0.000:
0000
0000
0000
0000
,
0000
0000
0000
0000
,
2000
0000
0000
3010
0000
0000
0000
0000
,
0000
0000
0000
0000
,
0100
0001
0100
0001
0100
0000
0001
0000
,
1000
0010
1000
0010
1000
0000
0010
0000
,
0100
0010
0100
0010
0100
0000
0010
0000
,
1000
0001
1000
0001
1000
0000
1001
0000
,
1000
0000
1010
0000
0000
1001
0000
0000
,
0001
0000
0000
0011
0000
0101
0000
0000
,
1000
0000
0000
0110
0000
1001
0000
0000
,
0001
0000
0000
0110
0000
1001
0000
1010
,
0000
0000
0002
0000
0000
0023
0000
0000
,
0000
0000
0000
2030
0000
3020
0000
0000
,
0000
0000
0000
0032
0000
0203
0000
0320
,
1030
0000
1000
0000
0001
0100
0010
0000
,
1001
0200
0020
1330
,
0010
0000
0100
0000
,
1001
0020
0200
0331
,
0100
0000
0010
0000
,
1000
1000
0001
0002
,
0200
0000
1010
0303
,
0001
0001
0010
0200
,
2000
0000
0011
3300
,
1000
0000
1000
0100
0000
0010
0001
0000
,
0010
0100
1000
0010
,
0100
0000
0100
0001
0100
0010
0100
0000
,
0001
0100
0010
1000
,
0010
0000
0100
0001
0000
1000
0010
0000
,
0100
0001
0100
0000
0010
0000
1000
0000
,
0100
0000
0010
0000
0001
0010
0100
0000
,
1000
0001
0100
0010
,
1000
0001
1000
0001
1000
0001
1000
0001
,
1000
0001
1000
0001
1000
0001
1000
0001
,
1000
0001
1000
0001
1000
0001
1000
0001
,
1000
0001
1000
0001
1000
0001
1000
0000
,
0001
0000
0100
0001
0100
0000
0001
0000
,
0100
0010
1000
0010
,
0100
0000
0001
1000
0001
0000
1000
0000
,
0010
0100
0001
0100
,
0010
0000
1000
0100
1000
0000
0100
0000
,
0010
0001
0010
0001
,
0010
0000
0100
1000
0100
0000
1000
0000
,
0010
0000
0100
0000
2002
0000
0000
3003
,
0000
1000
0000
0001
,
0000
0100
0000
0001
,
0000
1000
0000
0100
,
0000
0010
0000
0001
,
0000
0010
0000
0100
,
0000
1000
0000
0001
,
0000
1000
0001
1000
,
0001
1000
0000
0001
,
0000
0100
0000
0010
,
0000
1000
0000
0100
,
0000
0010
0000
0001
,
0000
0010
0000
0100
,
0000
1000
0000
0001
,
0000
0100
0000
0010
,
0000
1000
0001
1000
,
0001
1000
0000
0001
,
0000
1000
0100
0010
,
0100
1000
0100
0010
,
0100
1000
0100
0010
,
0002
0020
0000
0000
0000
0000
0000
0000
,
0033
0000
0001
0000
,
0010
0000
0001
0100
,
0001
0000
0100
0000
,
0010
0000
1000
0000
,
0100
0000
0010
0000
,
0100
0000
1000
0010
,
0100
0000
0001
0000
,
0010
0000
0100
0000
,
1000
0000
0010
0000
,
0100
0000
0001
0100
,
0001
0000
0100
0000
,
0010
0000
1000
0000
,
0100
0000
0010
0000
,
0001
0000
0010
0001
,
0010
0000
0001
0000
,
1000
0001
0010
0100
,
0000
0000
1001
0000
;

//---------------dance-single - Renard----------------
#NOTES:
     dance-single:
     Renard:
     Easy:
     3:
     0.319,0.386,0.077,0.000,0.000: // measure 1
0000
0000
0000
0000
,  // measure 2
0000
0000
0000
0000
,  // measure 3
1000
0000
0000
0010
,  // measure 4
0000
0100
0000
0001
,  // measure 5
1000
0001
0100
0000
,  // measure 6
0001
1000
0100
0000
,  // measure 7
1000
1000
0010
0000
,  // measure 8
0100
0001
0100
0000
,  // measure 9
0010
1000
0001
0000
,  // measure 10
1000
0001
0100
0100
,  // measure 11
0010
1000
0100
0000
,  // measure 12
0010
0001
0100
0100
,  // measure 13
0010
1000
0000
0001
,  // measure 14
0100
0010
0000
1000
,  // measure 15
0100
0010
0000
0001
,  // measure 16
0010
0100
1000
0010
,  // measure 17
0100
1000
0010
1000
,  // measure 18
0100
0000
1000
0000
,  // measure 19
0010
0100
0001
0000
,  // measure 20
0010
0000
0001
0000
,  // measure 21
0010
0001
1000
0000
,  // measure 22
0010
0000
1000
0000
,  // measure 23
0001
0100
0010
0100
,  // measure 24
0001
0100
0010
0000
,  // measure 25
1001
0000
1010
0000
,  // measure 26
0100
1000
0010
0100
,  // measure 27
0011
0000
0101
0000
,  // measure 28
0010
0100
0001
0100
,  // measure 29
0110
0000
1010
0000
,  // measure 30
0001
0100
0010
1000
,  // measure 31
0100
0100
1000
1000
,  // measure 32
0010
0010
0100
0100
,  // measure 33
0010
0010
0010
0010
,  // measure 34
0010
0010
0010
0010
,  // measure 35
0010
0010
0010
0010
,  // measure 36
0010
0010
0010
0010
,  // measure 37
1000
0001
0100
0001
,  // measure 38
1000
0001
0100
0000
,  // measure 39
1000
0001
0010
0001
,  // measure 40
1000
0001
0010
0000
,  // measure 41
0001
0100
0010
1000
,  // measure 42
0100
0010
0001
0000
,  // measure 43
0001
0100
0010
0100
,  // measure 44
0001
1000
0100
1000
,  // measure 45
0000
0100
0000
1000
,  // measure 46
0000
0010
0000
0100
,  // measure 47
0000
0001
0000
0100
,  // measure 48
0000
0010
0000
1000
,  // measure 49
0010
1000
0000
0010
,  // measure 50
0000
0100
0000
0001
,  // measure 51
0000
0010
0000
0001
,  // measure 52
0000
0100
0000
0010
,  // measure 53
1000
0010
0000
0100
,  // measure 54
0000
0001
0000
0010
,  // measure 55
0000
0001
0000
0100
,  // measure 56
0000
0010
0000
1000
,  // measure 57
0100
1000
0000
0010
,  // measure 58
0000
0100
0000
0001
,  // measure 59
0000
1000
0000
0001
,  // measure 60
0000
1000
0000
0010
,  // measure 61
0000
0100
0100
0100
,  // measure 62
0100
0010
0010
0010
,  // measure 63
0010
1000
1000
1000
,  // measure 64
1000
0001
0001
1000
,  // measure 65
1001
0000
0001
0000
,  // measure 66
0100
0000
0010
1000
,  // measure 67
0010
0000
0100
0000
,  // measure 68
0001
0000
0100
0000
,  // measure 69
0010
0000
1000
0000
,  // measure 70
0100
0000
0010
0000
,  // measure 71
0001
0010
0001
0000
,  // measure 72
0010
0000
0100
0000
,  // measure 73
1000
0000
0010
0000
,  // measure 74
0100
0000
0001
0000
,  // measure 75
1000
0001
1000
0000
,  // measure 76
0001
0000
0100
0000
,  // measure 77
0010
0000
1000
0000
,  // measure 78
0100
0000
0010
0000
,  // measure 79
0001
0010
0001
0000
,  // measure 80
0010
0000
0100
0000
,  // measure 81
1000
0000
1001
0000
;
