#TITLE:Eisberg;
#SUBTITLE:;
#ARTIST:Blümchen;
#GENRE:Speed Dance;
#TITLETRANSLIT:;
#SUBTITLETRANSLIT:;
#ARTISTTRANSLIT:;
#CREDIT:;
#BANNER:Eisberg.png;
#BACKGROUND:Eisberg-bg.png;
#LYRICSPATH:;
#CDTITLE:;
#MUSIC:eisberg.ogg;
#OFFSET:-0.000;
#SAMPLESTART:37.333;
#SAMPLELENGTH:12.000;
#SELECTABLE:YES;
#BPMS:0.000=180.020;
#STOPS:104.000=0.661
,230.000=0.667
;
#BGCHANGES:;

//---------------dance-single - Renard----------------
#NOTES:
     dance-single:
     Renard:
     Challenge:
     9:
     0.731,0.678,0.236,0.127,0.027:
0000
0000
0000
0000
,
0000
0000
0000
0000
,
0000
0000
0000
0000
,
0000
0000
0000
0000
,
0010
1000
0010
0001
0010
0100
0001
0100
,
1000
0100
0001
0010
1000
0010
0001
0100
,
0010
1000
0100
0010
0001
0010
1000
0010
,
0001
0010
0100
0001
0100
1000
0010
0100
,
0001
0010
1000
0010
0100
0001
0100
1000
,
0010
0100
0001
0100
0010
1000
0010
0001
,
0010
0100
0001
0010
1000
0010
0100
1000
,
0010
0001
0010
0100
0001
0010
1000
0010
,
0001
0010
0100
1000
0010
0100
0000
1001
,
0000
0001
0100
0010
1000
0100
1000
0010
,
0100
0001
1000
0010
0100
0001
0000
1001
,
0000
0010
0100
0001
1000
0100
1000
0010
,
0100
0001
1000
0010
0100
0010
0000
1001
,
0000
0010
1000
0100
0010
0001
0010
0100
,
1000
0010
0100
0001
1000
0100
0000
1001
,
0000
0010
0100
0001
1000
0100
0010
0100
,
1000
0100
1000
0100
0010
0001
0010
0001
,
0100
0001
0100
0001
0100
1000
0100
1000
,
0100
0001
1000
0010
0001
1000
0100
0001
,
0010
1000
0010
0001
0010
0100
1000
0010
,
1000
0100
1000
0100
0010
0001
0010
0001
,
0100
0001
0100
0000
0001
0100
0001
0000
,
2002
0000
0000
0000
0000
0000
3000
0000
1003
0000
0001
0000
0100
0010
0100
0000
,
0010
1000
0000
1000
0010
0000
0100
0000
0001
0000
0100
0000
0010
0000
1000
0000
,
0100
1000
0010
0100
0001
1000
0100
0000
,
1010
0000
0101
0000
0001
0100
0010
1000
,
0100
1000
0010
0100
0001
1000
0010
0000
,
1010
0000
0101
0000
1000
0100
0010
0000
,
0100
1000
0001
0000
0010
0001
1000
0000
,
0100
0010
0001
0010
0100
0000
1010
0000
,
0101
0000
1010
0000
1000
0001
0100
0010
,
1000
0100
0010
0100
1000
0010
0100
0001
,
1000
0010
0100
0000
0001
0100
0010
1000
,
0100
1000
0010
0100
0001
1000
0010
0100
,
0001
1000
0100
0010
0100
1000
0001
1000
,
0000
2200
0011
3300
1000
0010
0100
0001
,
0010
0001
0100
0010
1000
0010
0100
0001
,
0010
0001
0100
0010
1000
0010
0001
0000
,
0001
0010
1000
0000
1000
0100
0001
0000
,
0001
0100
1000
0010
0100
0001
0100
0010
,
1000
0200
0000
1301
0000
0001
0100
0010
,
1000
0100
0010
0001
0100
0010
1000
0010
,
0100
0020
0000
1031
0000
0001
0100
0010
,
1000
0100
1000
0000
0010
0100
0001
1000
,
0100
2000
0000
3011
0000
0001
0100
0010
,
1000
0010
0100
0001
1000
0100
0010
0001
,
0100
0002
0000
1013
0000
0001
0100
0010
,
1000
0100
1000
0000
0001
0100
0001
0100
,
1000
0100
1000
0100
0001
0100
0001
0100
,
0001
0010
0001
0010
1000
0010
1000
0010
,
0001
0010
1000
0001
0100
1000
0010
0100
,
0001
0000
1000
0000
0010
0100
0001
0000
,
0001
0100
0010
0000
0010
1000
0100
0000
,
0100
1000
0010
0000
2002
0000
0000
3000
,
1003
0000
0001
0000
1000
0001
0100
0000
0010
1000
0000
0100
0010
0000
0001
0000
,
1000
0010
0100
0001
1000
0010
0100
0001
,
1000
0100
0010
0001
0010
0100
1000
0000
,
0001
0010
0100
1000
0001
0010
0100
1000
,
0001
0100
0010
1000
0010
0100
0001
0000
,
0100
0010
1000
0010
0100
0001
0100
0010
,
1000
0000
1000
0010
0100
0000
0001
0100
,
0010
0000
1000
0010
0100
0001
1000
0010
,
0100
1010
0101
1001
,
1000
0010
0100
0001
1000
0000
0010
0100
,
0001
0000
1000
0100
0010
0100
1000
0001
,
0100
0000
0010
0000
1000
0100
0010
0001
,
0010
0100
1000
0010
0000
0202
1010
0303
,
0001
0100
0010
1000
0100
1000
0010
0000
,
0100
0001
1000
0000
0010
0100
0001
0000
,
1000
0100
0010
0100
1000
0001
0010
0000
,
0001
1000
0010
0100
0001
1000
0001
0100
,
0001
1000
0010
0100
0001
0000
1000
0000
,
2020
0000
0030
3001
0100
0000
0010
1000
,
0100
1000
0010
0100
0001
0000
0100
0000
,
0010
1000
0100
0000
1001
0000
0000
0000
;

//---------------dance-single - Renard----------------
#NOTES:
     dance-single:
     Renard:
     Hard:
     8:
     0.725,0.645,0.282,0.245,0.000:
0000
0000
0000
0000
,
0000
0000
0000
0000
,
0000
0000
0000
0000
,
0000
0000
0000
0000
2002
0000
0000
3000
,
1003
0100
1000
0010
0100
0001
0100
0001
,
0010
0001
0100
0001
0100
0010
1000
0010
,
0100
0010
1000
0010
0100
0001
0010
0100
,
1000
1010
0100
0011
,
0100
0010
1000
0100
0010
0100
1000
0010
,
0100
0010
1000
0100
0010
1000
0010
0100
,
1000
0010
0100
0010
1000
0100
0010
0001
,
0010
0100
0001
0100
0010
0001
0010
0100
,
0010
0100
1000
0010
0100
0001
0010
0100
,
1000
0010
1001
0000
0001
0010
1001
0000
,
1000
0010
0100
0001
0010
0100
1000
0010
,
0100
0010
1001
0000
0100
0010
1001
0000
,
0010
0100
0001
0010
0100
1000
0010
0100
,
0001
0010
1001
0000
1000
0010
1001
0000
,
0010
0100
0001
0010
0100
1000
0010
0100
,
0010
0100
1001
0000
0100
0010
1001
0000
,
0100
0010
1000
0010
0100
0010
0100
0001
,
0100
0010
1000
0010
0100
0001
0010
0100
,
1000
0100
0001
0100
1000
0100
0010
0001
,
0010
1000
0010
0001
0010
0100
1000
0010
,
0100
0010
0100
0010
0100
0010
0100
0010
,
1000
0001
1000
0001
1000
0001
1000
0001
,
1001
0000
0000
0000
1000
0010
0100
0001
,
0010
0100
1001
0000
0100
0010
1000
0200
,
0000
0000
0010
0000
0310
0100
1000
0010
,
0100
0001
0010
0100
1000
0010
0100
0002
,
0000
0000
0100
0000
0103
0001
0100
0010
,
1000
0100
0010
0100
1000
0010
0100
1001
,
0000
0000
0110
0000
0001
0100
0010
1001
,
0000
0000
0110
0000
1010
0000
0010
0100
,
0001
0000
0010
0100
1001
0000
0010
0100
,
0001
0100
0010
1000
0100
0010
0100
1000
,
0020
0000
0200
0030
0002
0300
0020
0003
,
0031
0100
0010
1000
0100
0010
0100
1000
,
0010
0100
0010
0100
0001
0000
0100
0010
,
0000
0101
1010
0000
1000
0100
1000
0000
,
0001
0010
0001
0000
0100
0010
1000
0000
,
0100
0010
0001
0000
0010
0100
1000
0010
,
0100
0001
0010
0100
1000
0010
0100
0001
,
0100
0010
1000
0001
0100
0010
0100
0010
,
1000
0001
1000
0001
0100
0010
0100
0010
,
1000
0001
1000
0001
1000
0010
1000
0010
,
0100
0001
0100
0001
0010
0001
0010
0001
,
1000
0100
1000
0100
1000
0010
0100
0001
,
0010
0100
0000
1001
0000
0010
0100
0001
,
0010
0100
1000
0100
0010
0001
0010
0100
,
1000
0010
0000
1001
0000
0010
0100
0001
,
0100
0010
1000
0000
0010
0100
0001
0100
,
0010
1000
0010
0100
0010
0100
0001
0100
,
0010
1000
0010
0100
0010
1000
0100
0010
,
0100
1000
0010
0100
0010
1000
0100
0010
,
0001
0010
0100
0001
0100
0010
0001
0100
,
0010
1000
0100
0010
1000
0010
0100
1000
,
0010
0100
0001
0100
1001
0000
0000
0000
,
1000
0010
0100
0001
0010
0100
1001
0000
,
2002
0000
0000
0020
0000
0000
3033
0000
,
1000
0010
0100
0001
0010
0100
1000
0010
,
2002
0000
0000
0200
0000
0000
3303
0000
,
0010
1000
0100
0010
0100
1000
0010
0000
,
2200
0000
0000
0001
0000
0000
3310
0000
,
2002
0000
0000
0100
0000
0000
3013
0000
,
0202
0000
0000
0010
0000
0000
1303
0000
,
0001
0100
0010
1000
0100
0010
0100
0000
,
2000
0000
0200
3000
0020
0300
0002
0030
,
2000
0000
0000
3003
,
0010
0100
0001
0100
0010
1000
0100
1000
,
0010
0100
0002
0000
0200
0010
1313
0000
,
0001
0100
0001
0100
0000
0010
1000
0000
,
0100
0010
0001
0010
0000
0100
1000
0000
,
0010
0100
0001
0100
0010
0100
0001
0100
,
0010
1000
0100
0010
0100
1000
0010
0100
,
0010
1000
0010
0000
0100
0001
0010
0100
,
1000
0010
0100
0000
0001
0100
0010
1000
,
0010
0100
0001
0100
0010
0000
1000
0100
,
1000
0010
0100
0000
1000
0100
0010
0001
;

//---------------dance-single - Renard----------------
#NOTES:
     dance-single:
     Renard:
     Medium:
     7:
     0.478,0.466,0.009,0.000,0.000:
0000
0000
0000
0000
,
0000
0000
0000
0000
,
0000
0000
0000
0000
,
1000
0001
1000
0000
1001
0000
0000
0000
,
1000
0000
0010
0000
0100
0000
0001
0100
,
0001
0000
0100
0010
0100
0010
0100
0000
,
0010
0000
1000
0000
0100
0000
0010
0001
,
0010
0000
0001
0010
0001
0010
0001
0000
,
0010
0000
0100
0000
1000
0000
0001
1000
,
0001
0000
1000
0001
1000
0001
1000
0000
,
0010
0000
0100
0000
0001
0000
1000
0100
,
1000
0000
0001
1000
0001
1000
0001
0000
,
0001
0000
0100
0000
0001
0100
0001
0000
,
0100
0000
0001
0000
0100
0001
0100
0000
,
0001
0000
1000
0000
0100
1000
0100
0000
,
1000
0000
0100
0000
1000
0100
1000
0000
,
0010
1000
0010
0000
0010
1000
0010
0000
,
0010
1000
0010
0000
0010
1000
0010
0000
,
0100
0001
0100
0000
0100
0001
0100
0000
,
0100
0001
0100
0000
0100
0001
0100
0000
,
0100
0010
1000
0100
,
0010
0001
0100
0010
,
1000
0100
0010
0001
,
0100
0010
1000
0100
,
0010
0001
0010
0100
,
1000
0100
0010
0001
,
0010
0000
0000
0000
0001
1000
0001
1000
,
0001
0000
0001
0000
1000
0000
0001
1000
,
0000
0010
0100
0001
0010
0000
0100
0000
,
1000
0000
0000
0000
0010
0000
0010
0100
,
0000
0001
0010
0100
1000
0000
0010
0000
,
0100
0001
0100
0000
0001
0000
0001
0100
,
0000
0100
0010
0000
1000
0000
1000
0100
,
0000
0100
0010
0000
0001
0000
0010
0000
,
0100
1000
0010
0100
,
0001
0100
0010
1000
,
0100
1000
0010
0100
,
0001
0000
1000
0100
0010
0000
0001
0000
,
0010
0100
1000
0010
,
0100
0001
0100
0000
0001
0000
0100
0000
,
0010
1000
0100
0010
,
0001
0000
0010
0000
0100
1000
0100
0000
,
1000
0100
1000
0000
0100
1000
0100
0000
,
1000
0100
1000
0000
1000
0000
0010
0000
,
0100
0001
0010
0100
,
1000
0000
0010
0000
0100
0000
0001
0100
,
0001
0000
0100
0001
0100
0000
0001
0100
,
0001
0000
0100
0001
0100
0000
0010
0000
,
1000
0100
0010
0001
,
0100
0000
0010
0000
0100
0000
0001
0100
,
0010
0000
0100
0001
0100
0000
0010
0100
,
0001
0000
0100
0010
1000
0000
0100
0000
,
0010
0100
0010
0001
,
0010
1000
0001
0100
,
0010
1000
0010
0100
,
0001
0100
1000
0010
,
0001
0010
0100
1000
,
0100
0000
0001
0100
0001
0000
0000
0000
,
1000
0001
1000
0001
1000
0000
0001
0000
,
1000
0000
0100
1000
0010
0000
1000
0100
,
1000
0000
0010
1000
0100
0000
1000
0001
,
0010
0000
0001
0100
0001
0000
0010
0001
,
0100
0000
0001
0010
0001
0000
0100
0010
,
1000
0100
0010
0001
,
0010
0000
0010
0100
0000
0100
1000
0000
,
0010
0100
0001
0100
,
0010
1000
0100
0010
,
0001
0010
0100
1000
,
0010
0000
0100
0000
0001
0100
0001
0000
,
0100
0010
1000
0100
,
0010
0000
0001
0000
0010
0100
0100
0000
,
0010
0100
1000
0010
,
0100
0001
0010
0100
,
1000
0010
0100
0001
,
0100
1000
0100
0001
,
0010
0000
0100
0000
1000
0000
0010
0100
,
0001
0000
0100
0010
1000
0000
0000
0010
,
0100
0001
0010
0100
,
1000
0010
0100
0000
0001
0010
0100
1000
;

//---------------dance-single - Renard----------------
#NOTES:
     dance-single:
     Renard:
     Easy:
     4:
     0.351,0.395,0.191,0.055,0.000: // measure 1
0000
0000
0000
0000
,  // measure 2
0000
0000
0000
0000
,  // measure 3
0000
0000
0000
0000
,  // measure 4
0000
0000
0000
0000
,  // measure 5
1000
0000
1000
0000
,  // measure 6
0001
0000
0001
0000
,  // measure 7
1000
0000
1000
1001
,  // measure 8
1000
0000
1000
0000
,  // measure 9
0001
0000
0001
0000
,  // measure 10
1000
0000
1000
0000
,  // measure 11
0001
0000
1000
0001
,  // measure 12
1001
0000
0001
0000
,  // measure 13
1000
0010
0100
0001
,  // measure 14
1000
0100
0010
0001
,  // measure 15
1000
0010
0100
0000
,  // measure 16
0101
0000
0101
0000
,  // measure 17
0100
0010
1000
0100
,  // measure 18
0010
0001
0100
0010
,  // measure 19
1000
0100
1100
0000
,  // measure 20
1100
0000
1000
0010
,  // measure 21
0100
0100
0010
0010
,  // measure 22
1000
1000
0001
0001
,  // measure 23
0010
0001
0100
0010
,  // measure 24
1000
0100
0010
0001
,  // measure 25
0010
0010
0010
0010
,  // measure 26
0010
0010
0010
0010
,  // measure 27
0002
0000
1003
0010
,  // measure 28
0100
0000
0101
0000
,  // measure 29
1010
0000
1000
0100
,  // measure 30
0010
0001
1010
0000
,  // measure 31
0101
0000
0001
0100
,  // measure 32
0010
1000
0100
0000
,  // measure 33
0010
0001
0100
0000
,  // measure 34
0010
1000
0100
1000
,  // measure 35
0010
0000
0100
0001
,  // measure 36
0100
0000
0010
1000
,  // measure 37
0200
0000
0010
0010
,  // measure 38
0310
0000
0010
0001
,  // measure 39
0100
0010
1000
0100
,  // measure 40
0000
1100
1000
0010
,  // measure 41
0100
0001
0010
0001
,  // measure 42
0100
0010
1000
1000
,  // measure 43
0100
0100
0010
0010
,  // measure 44
0002
0000
1003
0010
,  // measure 45
0100
0001
1000
0000
,  // measure 46
1000
0000
0001
1000
,  // measure 47
0100
0010
0001
0000
,  // measure 48
0001
0000
1000
0100
,  // measure 49
0001
0100
1000
0000
,  // measure 50
1000
0000
0001
0010
,  // measure 51
1000
0010
0001
0000
,  // measure 52
0001
0000
0100
0010
,  // measure 53
0100
0010
0100
0001
,  // measure 54
0100
0001
1000
0001
,  // measure 55
1000
0001
0010
0001
,  // measure 56
0010
0001
0100
0010
,  // measure 57
1000
0100
0010
0001
,  // measure 58
0100
0010
2000
0000
,  // measure 59
0001
0100
0010
3010
,  // measure 60
1010
0001
0000
0100
,  // measure 61
0010
1000
0100
0010
,  // measure 62
0001
0100
0000
0010
,  // measure 63
1000
0100
0010
0001
,  // measure 64
0100
0000
0110
0000
,  // measure 65
1000
0000
1010
0000
,  // measure 66
0100
0000
0101
0000
,  // measure 67
0011
0101
1001
0000
,  // measure 68
1000
0010
0100
0100
,  // measure 69
0001
0100
0010
1000
,  // measure 70
0100
0000
0100
0010
,  // measure 71
0000
0010
0001
1000
,  // measure 72
0010
0100
0001
0100
,  // measure 73
0010
1000
0100
0010
,  // measure 74
0001
0001
1000
1000
,  // measure 75
0010
0100
0001
1000
,  // measure 76
1000
0000
0010
0100
,  // measure 77
0101
0000
1010
0000
,  // measure 78
1000
0100
0010
0001
,  // measure 79
0010
0100
2002
0000
,  // measure 80
3003
0000
0000
0000
;
