#TITLE:Eerie Aura;
#SUBTITLE:;
#ARTIST:Sonitus Vir feat. Ryvard;
#GENRE:Psychestral;
#TITLETRANSLIT:;
#SUBTITLETRANSLIT:;
#ARTISTTRANSLIT:;
#CREDIT:;
#BANNER:;
#BACKGROUND:;
#LYRICSPATH:;
#CDTITLE:;
#MUSIC:eerie.ogg;
#OFFSET:0.000;
#SAMPLESTART:64.825;
#SAMPLELENGTH:12.000;
#SELECTABLE:YES;
#BPMS:0.000=148.000;
#STOPS:;
#BGCHANGES:;

//---------------dance-single - Renard----------------
#NOTES:
     dance-single:
     Renard:
     Challenge:
     11:
     0.930,0.897,0.168,0.290,1.000:
0000
0000
0000
0000
,
0000
0000
0000
0000
,
0000
0000
0000
0000
,
0000
0000
0000
0000
,
1000
0100
1000
0100
1000
0000
0001
0010
0001
0000
0100
0001
0100
0000
0010
0000
,
1000
0001
1000
0001
1000
0000
0010
0100
0010
0000
0100
0001
0100
0000
0100
0000
,
0010
0000
1000
0010
1000
0000
0001
0100
0001
0000
0001
0000
1000
0000
1000
0000
,
0100
1000
0000
0001
0010
0000
0100
1000
0000
0001
0100
0001
0100
0010
1000
0010
,
0100
0000
0000
0000
0000
0000
0001
0000
0000
1000
0000
0000
0100
0000
0000
0000
0000
0000
0100
0000
0000
1000
0000
0000
0000
0000
0000
0001
0000
0000
0100
0000
0000
0001
0000
0000
1000
0000
0000
0100
0000
0000
1000
0000
0100
0000
1000
0000
,
0100
0000
0000
0000
0000
0000
1000
0000
0000
0010
0000
0000
0100
0000
0000
0000
0000
0000
0100
0000
0000
0001
0000
0000
0000
0000
0000
0001
0000
0000
1000
0000
0000
0100
0000
0000
0010
0000
0001
0000
0010
0000
0001
0000
0000
0010
0000
0000
,
0100
0000
0000
0000
0000
0000
1000
0000
0000
0010
0000
0000
0100
0000
0000
0000
0000
0000
0100
0000
0000
0001
0000
0000
0000
0000
0000
0001
0000
0000
0010
0000
0000
0100
0000
0000
1000
0000
0000
0001
0000
0000
0100
0000
0001
0000
0100
0000
,
0001
0000
0000
0000
0000
0000
1000
0000
0000
0100
0000
0000
1000
0000
0000
0000
0000
0000
1000
0000
0000
0010
0000
0000
0000
0000
0000
0010
0000
0000
0100
0000
0000
0001
0000
0000
1000
0000
0001
0000
1000
0000
0001
0000
0000
1000
0000
0000
,
0010
0000
0000
0000
0000
0000
1000
0000
0000
0001
0000
0000
0010
0000
0000
0000
0000
0000
0010
0000
0000
0001
0000
0000
0000
0000
0000
1000
0000
0000
0010
0000
0000
1000
0000
0000
0001
0000
0000
0010
0000
0000
0001
0000
0010
0000
0001
0000
,
0010
0000
0000
0000
0000
0000
0001
0000
0000
0100
0000
0000
0010
0000
0000
0000
0000
0000
0010
0000
0000
1000
0000
0000
0000
0000
0000
1000
0000
0000
0001
0000
0000
0010
0000
0000
0100
0000
1000
0000
0100
0000
1000
0000
0000
0100
0000
0000
,
0010
0000
0000
0000
0000
0000
0001
0000
0000
0100
0000
0000
0010
0000
0000
0000
0000
0000
0010
0000
0000
1000
0000
0000
0000
0000
0000
1000
0000
0000
0100
0000
0000
0010
0000
0000
0001
0000
0000
1000
0000
0000
0010
0000
1000
0000
0010
0000
,
1000
0000
0000
0000
0000
0000
0001
0000
0000
0010
0000
0000
0001
0000
0000
0000
0000
0000
0001
0000
0000
0100
0000
0000
0000
0000
0000
0100
0000
0000
0010
0000
0000
1000
0000
0000
0001
0000
1000
0000
0001
0000
1000
0000
0000
0001
0000
0000
,
1000
0000
0100
1000
0100
0000
1000
0000
0001
0000
0010
0001
0010
0000
0001
0000
,
1000
0000
0010
1000
0010
0000
1000
0000
0001
0000
0100
0001
0100
0000
0001
0000
,
1000
0100
0010
0001
1000
0010
0100
0001
,
1000
0000
0100
1000
0100
0000
1000
0001
0000
1000
0000
0001
1000
0000
0000
0000
,
0001
0000
0010
0001
0010
0000
0001
0000
1000
0000
0100
1000
0100
0000
1000
0000
,
0001
0000
0100
0001
0100
0000
0001
0000
1000
0000
0010
1000
0010
0000
1000
0000
,
0001
0010
0100
1000
0001
0100
0010
1000
,
0001
0010
0000
0100
1000
0000
0001
0010
0000
0100
1000
0000
0001
0010
0100
1000
,
0001
0000
0000
0100
0001
0100
0001
0000
0000
0100
0000
0000
0010
0000
0000
1000
0010
1000
0010
0000
0000
1000
0000
0000
,
0010
0000
0000
0000
0000
0000
1000
0000
0100
0000
1000
0000
0100
0000
0000
0000
0000
0000
0000
0000
0000
1000
0000
0000
0001
0000
0000
0000
0000
0000
0010
0000
0000
0001
0000
0000
0010
0000
0000
0000
0000
0000
0001
0000
0000
0000
0000
0000
,
1000
0010
0100
0001
0100
1000
0001
0010
,
1000
0010
0100
0001
1000
0001
1001
0000
,
1000
0000
0000
0010
1000
0010
1000
0000
0000
0010
0000
0000
0100
0000
0000
0001
0100
0001
0100
0000
0000
0001
0000
0000
,
0100
0000
0000
0000
0000
0000
0001
0000
0010
0000
0001
0000
0010
0000
0000
0000
0000
0000
0000
0000
0000
0001
0000
0000
1000
0000
0000
0000
0000
0000
0100
0000
0000
1000
0000
0000
0100
0000
0000
0000
0000
0000
1000
0000
0000
0000
0000
0000
,
0001
0100
0010
1000
0010
0001
1000
0100
,
0001
0100
0010
1000
0001
1000
0001
0000
,
1000
2000
0100
3200
0010
0320
0001
0032
,
1000
2003
0001
0002
0020
0000
3033
0000
,
1000
2000
0001
3002
0100
0203
0010
0320
,
1000
2030
0001
0002
0020
0000
3033
0000
,
1000
0000
0000
0000
0000
0000
0100
0000
0000
0000
0000
0000
0010
0000
0000
0000
0000
0000
0001
0000
0000
0000
0000
0000
1000
0000
0000
0001
0000
0000
1000
0000
0000
0000
0000
0000
0001
0000
0000
0000
0000
0000
0100
0000
0001
0000
0100
0000
,
0001
0100
0001
0000
1000
0002
2000
0000
0010
0000
0000
0000
3013
0000
0000
0000
,
1000
0100
0010
0001
0010
0100
1000
0010
,
0100
0001
0000
1000
0010
0000
0100
0001
0000
1000
0010
0100
0001
1000
0010
0100
,
0001
0100
0001
0100
0001
0000
0100
0000
0010
0000
1000
0010
1000
0000
0010
0000
,
1000
0000
0000
0100
0000
0000
1000
0000
0000
0100
0000
0000
1000
0000
0000
0000
0000
0000
0001
0000
0010
0000
0001
0000
0010
0000
0000
0000
0000
0000
0001
0000
0000
0000
0000
0000
0011
0000
0000
0000
0000
0000
0000
0000
0000
0000
0000
0000
,
1000
0010
1000
0010
1000
0000
0010
0000
0100
0000
0001
0100
0001
0000
0100
0000
,
0001
0000
0000
0010
0000
0000
0001
0000
0000
0010
0000
0000
0001
0000
0000
0000
0000
0000
1000
0000
0100
0000
1000
0000
0100
0000
0000
0000
0000
0000
1000
0000
0000
0000
0000
0000
1100
0000
0000
0000
0000
0000
0000
0000
0000
0000
0000
0000
,
0010
0001
1000
0001
1000
0000
0001
0000
1000
0100
0000
0010
0001
0000
1000
0000
,
0001
0000
0100
0000
0001
0000
0100
0000
0000
0000
0000
0000
0010
0000
1000
0000
0010
0000
1000
0000
0000
0000
0000
0000
0001
0000
0000
1000
0000
0000
0001
0000
0000
1000
0000
0000
0001
0000
0000
0000
0000
0000
1000
0000
0000
0000
0000
0000
,
0001
0100
0010
1000
0010
0000
0100
0000
0001
1000
0100
0010
0001
0000
1000
0000
,
0001
0010
0000
0100
1000
0000
0001
0100
0000
0010
1000
0000
0001
1000
0001
1000
,
0001
0100
0010
1000
0000
1001
0000
1001
0000
1000
0100
0010
0001
1000
0001
0100
,
0001
1000
0100
1000
0001
1000
0000
1001
0000
0001
0000
0010
0100
1000
0001
0100
,
0001
1000
0100
1000
0000
1001
0000
1001
0000
0001
0010
0100
1000
0010
0100
0001
,
1000
0001
1000
0100
1000
0001
0000
0101
0000
0001
0000
0100
0001
1000
0100
0010
,
0001
0100
0010
1000
0000
1001
0000
1001
0000
1000
0100
0010
0001
1000
0001
0100
,
0001
1000
0100
1000
0001
1000
0000
1001
0000
0001
0000
0010
0100
1000
0001
0100
,
0001
1000
0100
1000
0000
1001
0000
1001
0000
0001
0010
0100
1000
0010
0100
0001
,
1000
0001
1000
0100
1000
0001
0000
0101
0000
0001
0000
0100
0001
1000
0100
0010
,
0001
0002
0010
0023
0100
0230
1000
2300
,
0001
3002
0100
0200
0010
1000
1313
0000
,
0001
0000
0000
1000
0100
1000
0100
0000
0000
1000
0000
0000
0001
0000
0000
0100
0001
0100
0001
0000
0000
1000
0000
0000
,
0100
0000
0000
0000
0000
0000
1000
0000
0010
0000
1000
0000
0010
0000
0000
0000
0000
0000
0100
0000
0000
0000
0000
0000
0001
0000
0000
0100
0000
0000
0010
0000
0000
0000
0000
0000
1001
0000
0000
0000
0000
0000
0000
0000
0000
0000
0000
0000
,
1000
0000
1000
0001
0000
0001
1000
0000
0001
0100
0001
0000
1000
0010
1000
0000
,
0001
0001
0200
2000
0000
0000
3301
0000
,
1000
0000
0000
0100
0001
0100
0001
0000
0000
0010
0000
0000
0100
0000
0000
1000
0001
1000
0001
0000
0000
0100
0000
0000
,
0020
2030
3200
0302
0023
2030
0020
3030
,
1001
0000
0000
0000
;

//---------------dance-single - Renard----------------
#NOTES:
     dance-single:
     Renard:
     Hard:
     9:
     0.590,0.598,0.084,0.009,0.164:
0000
0000
0000
0000
,
0000
0000
0000
0000
,
0000
0000
0000
0000
,
0000
0000
0000
0000
,
1000
0000
0001
0100
0010
1000
0100
0010
,
0001
0000
0001
0010
0100
1000
0010
0100
,
0001
0000
0001
0100
0010
0000
0010
1000
,
0200
0000
0010
0010
,
0310
0000
0100
1000
0010
0100
0001
0100
,
1000
0000
1000
0100
0001
0010
1000
0010
,
0001
0000
0001
0010
0100
1000
0100
0001
,
0100
0000
0100
1000
0010
0001
0010
0100
,
1000
0000
1000
0100
0001
0010
1000
0010
,
0001
0000
0001
0010
0100
1000
0100
0001
,
0100
0000
0100
1000
0010
0001
0010
0100
,
1000
0000
1000
0100
0001
0100
0010
0000
,
1010
1100
0011
0101
,
1100
1010
0101
0011
,
1000
1000
0001
0100
,
0010
0000
0000
0010
1000
0000
0001
0000
0100
0000
0001
0000
0100
0000
0000
0000
,
0010
0000
0010
0000
0010
0100
0010
0000
,
0100
0000
0100
0000
0100
0010
0100
0000
,
0001
1000
0100
0010
,
0001
0000
0010
0000
0100
0000
1000
0000
0010
0000
0100
0001
0100
0001
0100
0000
,
0001
0000
1000
0000
0100
0000
1000
0000
0001
0000
0100
0001
0100
0000
0001
0000
,
1000
0000
0100
0000
0010
0000
0001
0000
1000
0000
0010
1000
0010
0000
1000
0000
,
0010
0100
0100
0100
0001
0010
0010
0010
,
0100
1000
1000
1000
0010
0100
0001
0000
,
1000
0000
0100
1000
0100
0000
1000
0000
0010
0000
0100
0000
0001
0000
0010
0000
,
0100
0000
1000
0001
1000
0000
0001
0000
0100
0000
0010
0000
1000
0000
0100
0000
,
0010
0010
0001
0001
,
1000
1000
0010
0010
0100
0001
0000
0000
,
1000
0000
0010
0000
0100
0000
0001
0000
0010
0001
0010
0000
0100
0000
1000
0000
,
0010
0100
0001
1000
0001
0000
1000
0000
,
0010
0000
0100
0000
0001
0000
0010
0000
0100
1000
0100
0000
1000
0000
0010
0000
,
0100
0000
0001
0000
1000
0000
0001
1000
0001
0000
0000
0000
1000
0000
0000
0000
,
0010
0000
0100
0000
0001
0000
0010
0001
0010
0000
0001
0000
0010
0000
0100
0000
,
1000
0000
0001
0000
1000
0000
0001
1000
0001
0000
0000
0000
1000
0000
0000
0000
,
0010
0000
0100
0000
0001
0000
1000
0100
1000
0000
0001
0000
0010
0000
0100
0000
,
1000
0010
0000
0010
0100
0000
0100
0001
0000
1000
0100
0000
0010
0000
0001
0000
,
1000
0010
0100
0001
1000
0100
0100
0100
,
0010
0001
0100
0010
1000
0100
0100
0100
,
0010
0001
1000
0100
0010
0001
0001
0001
,
0010
0100
1000
0010
0100
0001
0001
0001
,
1000
0010
0100
0001
0010
0100
0100
0100
,
1000
0010
0100
0001
0010
0100
0100
0100
,
0010
0001
1000
0100
0010
0001
0001
0001
,
0010
0100
1000
0010
0100
0001
0001
0001
,
1000
0000
0001
0000
0100
0010
1000
0100
,
0010
0000
0000
0000
0001
0000
0000
0000
0100
0000
0010
1000
0010
0000
1000
0000
,
0010
0000
0100
0000
0001
1000
0100
0010
,
0001
0000
0000
0000
0010
0000
0000
0000
0100
0000
1000
0001
1000
0000
0001
0000
,
1000
0000
0000
1000
0010
0000
0100
0000
0001
0000
0000
0001
0010
0000
0100
0000
,
1000
0000
0000
1000
0010
0000
0100
0000
0001
0000
0010
0000
0100
0000
0000
0000
,
0100
0100
0010
0010
0001
0001
1000
1000
,
0010
0100
0001
1000
0000
0001
1000
0000
,
0010
0000
0000
0010
1000
0000
0010
0000
0100
0000
0000
0100
0001
0000
0100
0000
,
0010
0000
0000
0010
1000
0000
0001
0000
0100
0001
0100
0000
0001
0000
0000
0000
,
1000
0100
1000
0000
0100
0000
1000
0000
0001
0010
0001
0000
0010
0000
0001
0000
,
1000
0010
1000
0000
0001
0100
0001
0000
1000
0000
0100
0000
0010
0000
0000
0000
,
0001
0000
0000
0010
0000
0000
0100
0000
1000
0000
0010
0000
0100
0000
0001
0000
,
0100
0001
0100
0000
0001
0000
1000
0000
0100
0000
1000
0000
0001
0000
0000
0000
,
0010
0000
0000
0100
0000
0000
1000
0000
0010
0000
0100
0000
0001
0000
1000
0000
,
0100
0000
0000
0010
0000
0000
0001
0000
0010
0000
0100
1000
0100
0000
0000
0000
,
1001
0000
0000
0000
;

//---------------dance-single - Renard----------------
#NOTES:
     dance-single:
     Renard:
     Medium:
     6:
     0.395,0.448,0.047,0.000,0.000:
0000
0000
0000
0000
,
0000
0000
0000
0000
,
0000
0000
0000
0000
,
0000
0000
0000
0000
0000
0000
1000
0001
,
0100
0000
0100
0001
1000
0000
1000
0000
,
1000
0000
0001
0010
0001
0000
0001
0000
,
0100
0010
1000
0000
1000
0000
0100
0000
,
0010
0001
1000
0000
0001
0100
0001
0000
,
1000
0000
0001
0000
0100
0001
1000
0000
,
0001
0000
1000
0010
1000
0000
0001
0000
,
0010
0000
0001
0100
0001
0000
1000
0000
,
0001
1000
0010
0000
1000
0000
0001
0010
,
0001
0000
1000
0000
0001
0000
0100
0001
,
1000
0000
0100
0000
1000
0000
0001
1000
,
0010
0000
1000
0000
0001
0100
0001
0000
,
1000
0000
0100
1000
0001
0000
0010
0000
,
0001
0100
0010
1000
,
0001
0100
0010
1000
,
0100
0100
0010
0010
,
0100
0100
0010
0001
,
1000
0001
0100
0001
,
1000
0000
0001
0000
0100
0000
0010
1000
,
0001
0001
0100
0100
,
0001
1000
0100
0000
1000
0001
0010
0000
,
0001
0001
1000
1000
,
0010
0000
0100
0000
0001
1000
0001
0000
,
0100
0100
0001
0001
,
1000
0010
1000
0001
0000
0000
0000
0000
,
0100
0001
1000
0000
0100
1000
0001
0000
,
0100
0001
0010
0000
0001
1000
0010
0000
,
1000
0001
0010
0001
,
1000
0001
0010
0100
1000
0001
1000
0000
,
0001
0000
0001
0000
1000
0000
0001
0100
,
0001
0000
1000
0100
1000
0000
0001
0000
,
0100
0000
0010
0000
1000
0100
1000
0000
,
0001
0010
0100
1000
,
0010
0000
0100
0001
0100
0000
0010
0000
,
1000
0000
0001
0100
0001
0000
1000
0000
,
0010
0000
0100
0000
0001
1000
0001
0000
,
1001
1010
0101
1001
,
1000
0000
0100
0010
0001
0000
0000
0000
,
0010
0000
0100
1000
0010
0000
0000
0000
,
0100
0000
0001
1000
0001
0000
0000
0000
,
0010
0000
0001
1000
0010
0000
0000
0000
,
1000
0000
0001
0100
0001
0000
0000
0000
,
1000
0000
0100
1000
0100
0000
0000
0000
,
1000
0000
0010
1000
0010
0000
0000
0000
,
1000
0000
0001
0010
0001
0000
0000
0000
,
1000
0010
1000
0001
,
0100
0001
1000
0100
,
1000
0010
0100
0001
,
1000
0000
0100
1000
0001
0000
1000
0000
,
0001
0000
0010
0001
1000
0000
0001
0000
,
0010
0001
1000
0001
,
0100
0100
0001
0001
,
1000
0100
0010
0001
0000
0000
0001
0000
,
0010
0100
1000
0010
,
0100
0000
0001
0000
1000
0001
0100
0000
,
0001
1000
0001
0000
1000
0010
1000
0000
,
0001
0100
0001
0000
1000
0100
0010
0000
,
0001
0000
0010
0000
0100
1000
0001
0100
,
0001
1000
0001
0100
0000
0100
0001
0000
,
1000
0100
1000
0000
0001
0010
0001
0000
,
1000
0010
1000
0001
0100
0001
1000
0000
,
1001
0000
0000
0000
;

//---------------dance-single - Renard----------------
#NOTES:
     dance-single:
     Renard:
     Easy:
     4:
     0.290,0.329,0.159,0.037,0.000: // measure 1
0000
0000
0000
0000
,  // measure 2
0000
0000
0000
0000
,  // measure 3
0000
0000
0000
0000
,  // measure 4
0000
0000
0000
0000
,  // measure 5
0000
1000
0000
1000
0000
1000
0000
1000
,  // measure 6
0000
0001
0000
0001
0000
0001
0000
0001
,  // measure 7
0000
0100
0000
0100
0000
0100
0000
0100
,  // measure 8
0000
0010
0000
0010
0000
0010
1000
0001
,  // measure 9
1000
1000
0001
0000
,  // measure 10
0100
0000
0001
0000
,  // measure 11
1000
1000
0100
0000
,  // measure 12
0010
0000
0001
0000
,  // measure 13
1000
1000
0001
0000
,  // measure 14
0100
0000
0010
0000
,  // measure 15
1000
1000
0100
0000
,  // measure 16
0010
0000
0001
0000
,  // measure 17
0100
0100
0010
1000
,  // measure 18
0100
0100
0010
1000
,  // measure 19
0100
0000
0010
0000
,  // measure 20
1000
0000
0001
0000
,  // measure 21
0010
0010
0100
0001
,  // measure 22
0010
0010
0100
0001
,  // measure 23
0010
0000
0100
0000
,  // measure 24
1000
0000
0001
0000
,  // measure 25
1000
0010
0100
1000
,  // measure 26
0010
0100
1000
0010
,  // measure 27
0100
0000
0001
0000
,  // measure 28
1000
0000
0001
0000
,  // measure 29
0100
0001
0010
0100
,  // measure 30
0001
0010
0100
0001
,  // measure 31
0010
0000
0100
0000
,  // measure 32
1000
0000
0001
0000
,  // measure 33
1000
1000
0010
0100
,  // measure 34
0001
1000
0002
0000
,  // measure 35
1003
0010
0100
0001
,  // measure 36
0010
0100
2000
0000
,  // measure 37
3001
0100
0010
1000
,  // measure 38
0100
0010
0002
0000
,  // measure 39
1003
0001
0100
0001
,  // measure 40
1000
0100
0020
0000
,  // measure 41
0031
0001
0001
0001
,  // measure 42
0010
0000
0010
0000
,  // measure 43
0100
0100
0100
0100
,  // measure 44
1000
0000
1000
0000
,  // measure 45
0010
0010
0010
0010
,  // measure 46
0100
0000
0100
0000
,  // measure 47
0001
0001
1000
1000
,  // measure 48
0010
0100
0010
1000
,  // measure 49
0001
0101
0000
0110
,  // measure 50
0010
1010
0000
1100
,  // measure 51
0100
0110
0000
0011
,  // measure 52
0001
0101
0000
0110
,  // measure 53
0010
1010
0000
1100
,  // measure 54
0100
0110
0000
0011
,  // measure 55
0001
0101
0000
0110
,  // measure 56
0010
1010
0000
1001
,  // measure 57
1000
1000
0100
0100
,  // measure 58
0010
0001
0010
0001
,  // measure 59
0010
0010
0001
0001
,  // measure 60
1000
1000
0010
0100
,  // measure 61
0001
0100
0010
1000
,  // measure 62
0010
0001
0010
1000
,  // measure 63
0100
0001
1000
0010
,  // measure 64
0001
0010
1000
0100
,  // measure 65
1001
0000
0000
0000
;
