#TITLE:Drunk with Love;
#SUBTITLE:;
#ARTIST:Euphoria feat MC Casper;
#TITLETRANSLIT:;
#SUBTITLETRANSLIT:;
#ARTISTTRANSLIT:;
#CREDIT:;
#BANNER:love.img;
#BACKGROUND:love-bg.img;
#LYRICSPATH:;
#CDTITLE:;
#MUSIC:love.ogg;
#OFFSET:0.000;
#SAMPLESTART:72.528;
#SAMPLELENGTH:12.000;
#SELECTABLE:YES;
#BPMS:0.000=89.345,27.000=178.691,89.000=89.345,107.000=178.691;
#STOPS:;
#BGCHANGES:;
#GENRE:Happy Hardcore;

//---------------dance-single - Renard----------------
#NOTES:
     dance-single:
     Renard:
     Challenge:
     9:
     0.693,0.925,0.496,0.305,0.320: // measure 1
0000
0000
0000
0000
,  // measure 2
0000
0000
0000
0000
,  // measure 3
2000
0000
0020
3000
0200
0030
0002
0300
,  // measure 4
0010
0000
0013
0000
0020
0000
0000
0000
0031
0000
0100
0001
0100
0000
0100
0000
,  // measure 5
0010
1000
0100
1000
0010
0100
0001
1000
,  // measure 6
1000
0000
0100
0000
0010
0000
0001
0000
1000
0000
0010
0000
0100
0000
0001
0000
1000
0100
1000
0100
1000
0100
1000
0100
0010
0001
0010
0001
0010
0001
0010
0000
,  // measure 7
2002
0000
0100
0000
0010
0000
0100
0010
0100
0010
0100
0220
0000
0000
0000
0000
,  // measure 8
3333
0000
1000
0000
1100
1100
0000
1000
,  // measure 9
1010
0000
0010
0000
0101
0101
0000
0001
,  // measure 10
0011
0000
0001
0000
0101
0101
0000
1000
,  // measure 11
1010
0000
0010
0100
0001
0011
0000
0001
,  // measure 12
0101
0000
0001
0000
0011
0011
0000
0001
,  // measure 13
0101
0000
0100
0000
1010
1010
0000
1000
,  // measure 14
1100
0000
1000
0000
1010
1010
0000
0001
,  // measure 15
0101
0000
0100
0010
1000
0002
0200
0000
,  // measure 16
0303
0000
1000
0000
0020
2030
0000
0100
,  // measure 17
3100
0000
0001
0100
0020
2000
0030
0100
,  // measure 18
3100
0000
1000
0010
0200
0002
0300
0010
,  // measure 19
0010
0000
0103
0010
1000
0100
1000
0000
,  // measure 20
1010
0000
0101
0000
0011
0011
0000
2000
,  // measure 21
0010
0000
3010
1000
0100
2000
0000
0100
,  // measure 22
3100
0000
0001
0100
0002
0000
1M10
0000
,  // measure 23
MMM0
0000
M113
0000
MMMM
0000
1000
0001
,  // measure 24
0200
0020
2000
3331
,  // measure 25
1000
0010
0100
0001
1000
0100
2000
0000
,  // measure 26
3010
0000
0200
0001
0301
0000
0001
0010
,  // measure 27
0001
0000
0100
0000
0010
0000
1000
0000
0010
0000
0100
0M01
100M
0000
0100
0000
,  // measure 28
1000
0010
0100
0001
0100
1000
0100
0001
,  // measure 29
0010
1000
0010
0001
0100
0010
0100
0010
,  // measure 30
1000
0000
0100
0000
1000
0000
0010
0000
0100
0000
0001
0000
0010
0000
0001
0010
,  // measure 31
0001
0000
0100
0010
1000
0000
0100
0000
1000
0000
0010
0000
1000
0000
0100
0000
,  // measure 32
1000
0010
0100
0001
0100
1000
0100
0001
,  // measure 33
0010
1000
0010
0001
0100
0010
0100
0010
,  // measure 34
1000
0000
0100
0000
1000
0000
0010
0000
0100
0000
0001
0000
0010
0000
0001
0010
,  // measure 35
0001
0000
0100
0010
1000
0000
0100
0000
1000
0000
0010
0000
1000
0000
0000
1000
,  // measure 36
0100
0000
0000
0100
1000
0100
1000
0000
0010
0000
0100
0000
0001
0000
0000
0001
,  // measure 37
0010
0000
0000
0010
0001
0100
0010
0000
0100
0000
0000
0100
0010
0000
0000
0010
,  // measure 38
1000
0000
0000
0100
1000
0010
0100
0000
0001
0000
0000
0001
0100
0000
0000
0100
,  // measure 39
0010
0000
0000
0010
1000
0100
1000
0000
0100
0000
1000
0000
0010
0000
0000
0010
,  // measure 40
0100
0000
0000
0100
0001
0010
0001
0000
0100
0000
0010
0000
1000
0000
0000
1000
,  // measure 41
0100
0000
0000
0100
1000
0010
0100
0000
0001
0000
0001
0000
0010
0000
0000
0010
,  // measure 42
0001
0000
0000
0001
0010
0100
1000
0000
0010
0000
0200
0000
0000
0000
1001
0000
,  // measure 43
0000
2020
0000
0000
3330
0000
1100
0000
,  // measure 44
1010
0000
0001
0100
0010
0000
1000
0100
,  // measure 45
1000
0010
0100
0001
0010
0000
0011
0101
,  // measure 46
0100
0110
0010
1010
1000
1100
1000
1010
,  // measure 47
1001
0101
0001
0011
0001
0100
0010
0000
,  // measure 48
1010
0000
1000
0100
1000
0010
0100
0000
,  // measure 49
0001
0000
0010
0000
0001
0000
1010
1100
,  // measure 50
1000
1010
1000
1001
0001
0101
0100
0110
,  // measure 51
1010
1001
0001
0101
0100
0010
0100
0001
,  // measure 52
0100
0000
0010
0000
1000
0100
1000
0000
0010
0000
0100
0000
0001
0000
0010
0000
,  // measure 53
0001
0000
0100
0010
1000
0000
0100
1000
0010
0100
0001
0000
0100
0000
0010
0000
,  // measure 54
1000
0000
0100
0000
1000
0100
1000
0000
0010
0000
0100
0000
0001
0010
0001
0000
,  // measure 55
0100
0000
0010
0000
1000
0100
0010
0001
0010
0100
1000
0010
0100
0000
0100
0000
,  // measure 56
0010
0000
0010
0000
1000
0000
1000
0000
0001
0000
0001
0000
0100
0010
0100
0000
,  // measure 57
0010
0100
0010
0000
1000
0010
1000
0000
0001
0100
0001
0000
0100
0010
0100
0010
,  // measure 58
1000
0010
1000
0010
0100
0001
0100
0001
1000
0000
2100
0000
0000
0000
0020
0000
,  // measure 59
0000
0200
0000
0002
0000
0000
3333
0000
;

//---------------dance-single - Renard----------------
#NOTES:
     dance-single:
     Renard:
     Hard:
     9:
     0.566,0.536,0.200,0.191,0.043:
0000
0000
0000
0000
,
0000
0000
0000
0000
,
1000
0100
0020
0000
0031
0010
0200
0000
,
1300
0010
0100
0001
0100
0010
2000
0000
,
3010
0010
0200
0000
0310
0010
2000
0000
,
3001
0100
0010
1000
0100
0010
0001
0010
,
0100
1000
0100
0000
1000
0000
0010
0100
0001
0010
0200
2000
0000
0000
0000
0000
,
0000
3300
0000
0000
0100
0000
1000
0000
0010
0000
1000
0000
0100
0000
1000
0000
,
0010
1000
0100
1000
0010
1000
0100
1000
,
0010
1000
0001
0010
0001
0100
0001
0010
,
0001
0100
0001
0010
0001
0100
0001
0010
,
0001
0100
0001
0000
0001
0100
0010
0000
,
0010
1000
0100
0000
0100
1000
0010
0000
,
0010
0100
0001
0000
0001
0010
0001
0100
,
0010
1000
0100
2000
0002
0000
0010
0000
,
3003
0000
1000
0000
1000
0010
0100
0000
,
0100
0001
0010
0000
0010
0001
0100
0000
,
0100
0010
1000
0100
0010
0100
1000
0001
,
0010
0100
0010
0001
1000
0010
0100
0001
,
0010
0000
0010
0000
0100
1000
0010
0000
,
0100
0001
0010
0000
0100
1000
0010
0000
,
0100
0001
0010
0000
0001
0010
0000
0100
,
1000
0010
0100
0000
0000
0000
0010
0010
,
0200
0000
0310
0010
2000
0000
3100
0100
,
0020
0000
0031
0001
0020
0000
0130
1000
,
0010
0100
0001
0001
0020
0000
0130
1000
,
0010
0100
0001
0001
1001
0000
1000
0100
,
1000
0010
0001
0000
0010
0000
1000
0100
,
0010
0001
0010
0100
1000
0100
0010
0001
,
0010
0001
0100
0000
1000
0000
0100
0001
,
0010
0100
1000
0010
0100
0001
0010
0001
,
0100
0010
1000
0000
0100
0000
1000
0100
,
1000
0010
0100
0001
0010
0000
0001
0100
,
0010
1000
0100
0010
0001
0100
0010
1000
,
0100
1000
0010
0100
0001
0000
1100
0000
,
1010
0000
0100
0001
0010
0100
1000
0000
,
0010
0000
0100
0001
1000
0000
0101
0000
,
1001
0000
0001
0100
0010
0000
0010
1000
,
0100
0010
0100
1000
0001
0000
0010
0001
,
0100
0010
1000
0000
0100
0000
1000
0010
,
0100
0001
0010
0000
0001
0000
0100
0010
,
1000
0100
0000
1000
0010
0100
0000
2002
,
0000
0110
0000
3003
0000
0000
0010
0100
,
0001
0100
0010
0100
0001
0100
0010
0100
,
0001
0100
0010
0100
0001
0100
0010
1000
,
0000
1100
0000
1010
0000
1001
0000
0001
,
0100
0020
0100
0130
0010
1000
0100
0010
,
0001
1000
0010
0100
0001
0100
0010
1000
,
0100
1000
0010
0100
0001
0010
0001
0100
,
0000
1010
0000
1001
0000
0101
0000
0001
,
0100
0020
0100
0130
0010
1000
0100
1000
,
0010
0000
0100
0001
0010
0000
0101
0000
,
1001
0000
1010
0000
1100
0000
0010
0100
,
0001
0000
0100
0010
1000
0000
1100
0000
,
1010
0000
0000
0000
1001
0000
0000
0000
0101
0000
0000
0000
0001
0000
0000
0100
,
0001
0000
0100
0000
0010
0000
1000
0000
0100
0000
0010
0000
0001
0000
0000
0001
,
0010
0000
0100
0000
1000
0000
0010
0000
0100
0000
0001
0000
0100
0000
0000
0100
,
0010
1000
0100
1000
0010
0100
0010
0100
,
0001
0000
0100
0000
0010
0000
0100
0000
0010
1000
0020
2000
0000
0000
0000
0000
,
0000
3030
0000
0000
0000
0000
0000
0000
;

//---------------dance-single - Renard----------------
#NOTES:
     dance-single:
     Renard:
     Medium:
     7:
     0.338,0.393,0.210,0.057,0.000:
0000
0000
0000
0000
,
0000
0000
0000
0000
,
1000
1000
0001
0000
0100
0100
0010
0000
,
1000
0100
0010
0001
0001
0000
0001
0010
,
0200
0000
2300
0000
,
3020
0000
0230
0000
0301
1000
0001
1000
,
1010
0000
0000
0001
,
0100
0000
0010
0000
1000
0010
0000
1000
,
0010
0000
0100
0000
0001
0100
0000
0001
,
0100
0010
1000
0100
,
0010
0001
0000
0001
,
0000
0000
0010
0000
0100
1000
0000
1000
,
0100
0000
1000
0000
0010
0100
0000
0100
,
0001
0100
0010
1000
,
0001
0100
0010
1001
,
0000
0000
1000
0000
0010
0010
0000
0100
,
0001
0000
0100
0000
0010
0010
0000
1000
,
0100
1000
0010
0100
,
0000
0001
0000
0100
,
0000
0000
0010
0000
1000
1000
0000
0100
,
1000
0000
0010
0000
0100
0100
0000
0001
,
0100
0010
0000
1000
,
0000
0100
0000
1000
,
0001
0000
0100
0000
0100
0000
0010
0010
,
1000
0100
0010
0002
,
0103
0000
0020
0000
1030
0000
0100
1000
,
0010
0100
0001
1000
0010
0000
1001
0000
,
0000
1010
0000
0100
,
0001
0010
0100
1100
,
0000
0011
0000
1001
,
0000
1010
0000
0100
,
0001
0100
0010
1000
,
0100
0010
0001
0010
,
0001
0010
0001
0000
0010
0000
0100
0000
,
1000
1100
0000
1100
,
1000
1010
0000
0010
,
0100
0101
0000
0101
,
0100
0110
0000
1010
,
1000
0100
0000
0110
,
0000
0011
0000
0101
,
0000
1010
0000
1000
,
0010
0000
0100
0000
0001
0000
0100
0010
,
0000
1010
0000
0000
0000
0000
1000
0000
,
0001
0100
0010
1000
,
0100
0000
1000
0000
0010
0000
0100
0001
,
0000
0100
0000
0010
0000
1000
0000
0100
,
0000
0010
0000
0001
0000
0000
0010
0000
,
0100
1000
0001
0100
,
1000
0000
0001
0000
1000
0000
0100
0010
,
0000
0001
0000
0010
0000
0100
0000
1000
,
0000
0010
0000
0100
0000
0000
0001
0000
,
0100
0010
1000
0100
,
0010
0000
0001
0000
0010
0000
0100
1000
,
0000
0001
0000
1000
0000
0010
0000
0100
,
0000
0001
0000
0010
0000
0000
0001
0000
,
1000
0100
0010
0001
,
0100
0000
0010
0000
1000
0000
0100
0010
,
0000
0001
0000
1000
0000
0010
0000
0100
,
0000
0101
0000
1010
0000
0001
0100
0000
;

//---------------dance-single - Renard----------------
#NOTES:
     dance-single:
     Renard:
     Easy:
     4:
     0.318,0.418,0.143,0.095,0.000:
0000
0000
0000
0000
,
0000
0000
0000
0000
,
2000
0010
3020
0100
,
0130
0001
0100
0000
0010
0000
1000
0100
,
0010
0000
0010
0000
0001
0000
0100
0010
,
1000
0100
1000
0100
1000
0100
1000
0100
,
1100
0100
1000
0010
0100
0001
0001
0000
,
0000
1000
0001
0100
,
0010
1000
0100
0010
,
0001
0010
0100
1000
,
0010
0100
0000
0100
,
0000
0010
1000
0001
,
1000
0100
1000
0010
,
0100
0001
0010
0100
,
1000
0000
0010
1001
,
0000
1001
0000
1000
,
0010
0100
0001
0010
,
0000
1001
0000
0010
,
0001
0100
0010
1000
,
0000
1010
0000
0100
,
0001
0010
0000
0101
,
0000
1010
0000
0100
,
0000
1010
0000
2000
,
3002
0203
0320
1030
,
1000
1000
1000
0002
,
2003
3200
0320
0031
,
0001
0000
0001
1000
0001
1000
0001
0000
,
0001
1000
1000
0010
,
0010
1000
1000
0001
,
0001
1000
1000
0100
,
0100
0010
0010
0001
,
0001
1000
1000
0010
,
0010
1000
1000
0001
,
0001
1000
1000
0010
,
0010
0100
0100
0010
,
1000
0001
1000
0100
,
1000
0010
0000
0001
,
0100
0001
0010
0001
,
1000
0010
0000
0100
,
0010
0100
1000
0100
,
0001
0100
0000
0010
,
1000
0000
0100
0000
0010
0000
0001
0010
,
0000
0011
0000
0000
0000
0000
0001
0000
,
1000
0010
0100
0001
,
1000
0100
1000
0010
,
0000
0100
0000
0001
,
0010
0001
0000
0100
,
0010
1000
0100
0010
,
0001
0010
0000
0001
,
0000
0100
0000
0010
,
1000
0010
0000
0100
,
0001
0100
0010
1000
,
0100
1000
0000
1010
,
0000
1001
0000
0101
,
0000
0110
0000
0010
,
1000
0100
0010
0001
,
0010
0000
0100
0000
1000
0000
0010
0100
,
0000
0001
0000
0100
0000
0010
0000
1000
,
0000
1100
0000
1001
0000
0000
0000
0000
;
