#TITLE:Dressed Up;
#SUBTITLE:;
#ARTIST:Totally Radd!!;
#GENRE:Digital Rock;
#TITLETRANSLIT:;
#SUBTITLETRANSLIT:;
#ARTISTTRANSLIT:;
#CREDIT:;
#BANNER:up.png;
#BACKGROUND:up-bg.png;
#LYRICSPATH:;
#CDTITLE:;
#MUSIC:up.ogg;
#OFFSET:-0.000;
#SAMPLESTART:32.977;
#SAMPLELENGTH:12.000;
#SELECTABLE:YES;
#BPMS:0.000=131.000;
#STOPS:;
#BGCHANGES:;

//---------------dance-single - Renard----------------
#NOTES:
     dance-single:
     Renard:
     Challenge:
     9:
     0.798,0.725,0.340,0.089,0.617:
0000
0000
0000
0000
,
0000
0000
0000
0000
,
1000
0000
0100
0000
0010
0001
0010
0000
0100
0000
1000
0000
0010
0100
0001
0000
,
0100
0000
0010
0000
1000
0100
0010
0000
0100
0000
1000
0000
0010
0100
0001
0000
,
1000
0000
1000
0100
1000
0000
1000
0100
1000
0000
1000
0100
1000
0000
1000
0100
,
1000
0100
0010
0002
2000
0000
0000
0000
0110
0000
0000
0000
3113
0000
0000
0000
,
1000
0000
0100
0000
0010
0001
0010
0000
0100
0000
1000
0000
0010
0100
0001
0000
,
0100
0000
0010
0000
0100
0001
0010
0000
0001
0000
0100
0000
0010
1000
0100
0000
,
1000
0000
0001
0010
0001
0000
0001
0010
0001
0000
0001
0010
0001
0000
0001
0010
,
0001
0010
0100
2000
0002
0000
0000
0000
0110
0000
0000
0000
3113
0000
0000
0000
,
1000
0100
0010
0001
1000
0000
0010
0000
0100
0000
0001
0000
0101
0000
0000
0000
,
0010
1000
0100
0010
0100
0000
1000
0000
0010
0000
0100
0000
0101
0000
0000
0000
,
0001
0100
0010
1000
0100
0000
1000
0000
0010
0000
0100
0000
0110
0000
0000
0000
,
0001
0100
0001
0100
0010
1000
0010
1000
0100
1000
0100
1000
0001
0010
0001
0010
,
0001
0010
0100
1000
0010
0000
0100
0000
0001
0000
0100
0000
0101
0000
0000
0000
,
0001
0010
0100
1000
0010
0000
0100
0000
0001
0000
1000
0000
1001
0000
0000
0000
,
0010
0100
1000
0100
0010
0000
0100
0000
0010
0000
1000
0000
1010
0000
0000
0000
,
1010
1001
0101
0011
,
0001
0000
0010
0100
1000
0000
0100
0010
0001
0000
0010
0100
1000
0000
0100
0010
,
0001
0000
0100
0010
1000
0000
0010
0100
0001
0000
0100
0010
1000
0000
0010
0100
,
0001
0000
0010
0100
1000
0000
0100
0010
0001
0000
0010
0100
1000
0000
0100
0010
,
0001
0000
1000
0010
0100
0000
0001
0100
0010
0000
1000
0010
0100
0000
0001
0100
,
0001
0000
0100
0010
1000
0000
0100
0010
0001
0000
0100
0010
1000
0000
0100
0010
,
0001
0000
0010
0100
1000
0000
0010
0100
0001
0000
0010
0100
1000
0000
0010
0100
,
0001
0000
1000
0100
0010
0000
0001
0100
0010
0000
1000
0100
0010
0000
0001
0100
,
0020
0200
1001
0000
1001
0000
1331
0000
,
1000
0000
0100
0010
0001
0000
0010
0100
1000
0000
0100
0010
0001
0000
0010
0100
,
1000
0000
0010
0100
0001
0000
0100
0010
1000
0000
0010
0100
0001
0000
0100
0010
,
1000
0000
0100
0010
0001
0000
0010
0100
1000
0000
0100
0010
0001
0000
0010
0100
,
1000
0000
0001
0100
0010
0000
1000
0010
0100
0000
0001
0100
0010
0000
1000
0010
,
1000
0000
0010
0100
0001
0000
0010
0100
1000
0000
0010
0100
0001
0000
0010
0100
,
1000
0000
0100
0010
0001
0000
0100
0010
1000
0000
0100
0010
0001
0000
0100
0010
,
1000
0000
0001
0010
0100
0000
1000
0010
0100
0000
0001
0010
0100
0000
1000
0010
,
0200
0020
1001
0000
1001
0000
1331
0000
,
1000
1000
0100
0010
0001
0001
0010
0100
,
1000
1000
0010
0100
0001
0001
0100
0010
,
1000
1000
0100
0010
0001
0001
0010
0100
,
1000
2000
0010
0020
0101
0000
3131
0000
,
0001
0001
0010
1000
0100
0100
1000
0010
,
0001
0001
0010
1000
0100
0100
1000
0010
,
0001
0001
0100
1000
0010
0010
1000
0100
,
0001
0000
0001
0000
0100
0000
1000
0000
0100
0000
1001
0000
0001
0100
0001
0100
,
0001
0000
0100
0001
0100
0000
0001
0100
0001
0000
0100
0001
0100
0000
0001
0100
,
0010
0000
1000
0010
1000
0000
0010
1000
0010
0000
1000
0010
1000
0000
0010
1000
,
0100
0000
1000
0010
0100
0000
0001
0010
0001
0000
0100
0010
1000
0000
0010
0100
,
0010
0100
0110
0000
1001
0000
1101
0000
,
1000
0000
0010
1000
0010
0000
1000
0010
1000
0000
0010
1000
0010
0000
1000
0010
,
0100
0000
0001
0100
0001
0000
0100
0001
0100
0000
0001
0100
0001
0000
0100
0001
,
0010
0000
0001
0100
0010
0000
1000
0100
1000
0000
0010
0100
0001
0000
0100
0010
,
0100
0010
0110
0000
1001
0000
1011
0000
,
1000
0100
0010
0001
0010
0000
0100
0000
1000
0000
0010
0000
0100
0000
0001
0000
,
0100
0010
1000
0100
0010
0000
0100
0000
1000
0000
0001
0000
0010
0000
0100
0000
,
1000
0001
1000
0001
1000
0000
0010
0000
0100
0000
0001
0000
0100
0000
0010
0000
,
1000
0100
1000
0010
1000
0000
0010
0000
0100
0000
0001
0000
0010
0000
0001
0000
,
0100
0010
1000
0001
0100
0000
0010
0000
1000
0000
0001
0000
0100
0000
0010
0000
,
1000
0010
0100
0001
0100
0000
0010
0000
1000
0000
0100
0000
0010
0000
0001
0000
,
0010
0100
1000
0001
0100
0000
0010
0000
1000
0000
0010
0000
0100
0000
0001
0000
,
0100
0010
0001
0010
1000
0000
0010
0000
0100
0000
0001
0000
0100
0000
0010
0000
,
1010
1000
1010
0010
0110
0100
0101
0001
,
0011
0001
0101
0100
0110
0010
1010
1000
,
1101
0000
0000
0000
;

//---------------dance-single - Renard----------------
#NOTES:
     dance-single:
     Renard:
     Hard:
     7:
     0.592,0.537,0.886,0.286,0.018:
0000
0000
0000
0000
,
0000
0000
0000
0000
0000
1001
1001
0000
,
1000
0010
2010
0000
0001
3001
1001
0000
,
0001
0000
0000
0010
0000
0000
0012
0000
0000
0010
0000
0000
0010
0000
0000
0000
0100
0000
0000
0000
1000
0003
0000
0000
,
2000
0000
3020
0000
0100
0100
0100
0000
,
0032
0023
1030
1001
,
0001
0100
0102
0000
1000
1003
1001
0000
,
1000
0000
0000
0100
0000
0000
2100
0000
0000
0100
0000
0000
0100
0000
0000
0000
0010
0000
0000
0000
0001
3000
0000
0000
,
0002
0000
0203
0000
0010
0010
0010
0000
,
2300
3200
0301
1001
,
0100
0001
0101
0000
1000
0010
1010
0000
,
1000
0100
1100
0000
0010
0001
0011
0000
,
1000
0001
0100
0001
1000
0100
1000
0001
,
0010
0001
1000
0010
1001
0000
1001
0000
,
1000
0100
1010
0000
0001
0010
0101
0000
,
1000
0010
1001
0000
0101
0000
0011
0000
,
0100
0010
1000
0100
0010
0001
0010
0100
,
1000
0010
0100
0000
0001
0100
0010
0100
,
2010
3001
0102
0013
,
2100
3010
0102
1003
,
0001
0100
1001
0000
1010
0000
0101
0000
,
1000
0100
1001
0000
0101
0000
1010
0000
,
0102
1003
2010
3100
,
0012
0103
2010
3001
,
1000
0010
1001
0000
0101
0000
1010
0000
,
0010
1001
2002
0000
0200
0000
3313
0000
,
2010
3001
0102
0013
,
2100
3010
0102
1003
,
0001
0100
1001
0000
1010
0000
0101
0000
,
1000
0100
1001
0000
0101
0000
1010
0000
,
0102
1003
2010
3100
,
0012
0103
2010
3001
,
1000
0010
1001
0000
0101
0000
1010
0000
,
0010
0200
0001
0000
0010
0000
1000
0000
,
0310
0100
0001
0100
0010
1000
0010
0100
,
0001
0100
0010
0100
1000
0100
0010
1000
,
0100
0010
0100
0001
0100
1000
0100
0010
,
0001
1000
0001
0100
0001
0010
0001
0000
,
0100
0010
0100
1000
0100
0001
0100
0010
,
1000
0010
0001
0010
0100
0010
0001
0010
,
1000
0100
1000
0010
1000
0001
1000
0100
,
1000
0010
0100
0001
0100
0000
1001
0000
,
1100
1010
1001
0101
,
0011
0101
1001
1010
,
1000
0100
1100
0000
1010
0000
1001
0000
,
0001
0010
0011
0000
0101
0000
1001
0000
,
1000
0100
1000
0010
1000
0001
1000
0000
,
0001
0010
0001
0100
0001
1000
0001
0000
,
1000
0100
1010
0000
1001
0000
0101
0000
,
0001
0010
0101
0000
1001
0000
1010
0000
,
0011
0101
1001
1010
,
1100
1010
1001
0101
,
0001
0010
0011
0000
0101
0000
1001
0000
,
1000
0100
1100
0000
1010
0000
1001
0000
,
0001
0010
0001
0100
0001
1000
0001
0000
,
1000
0100
1000
0010
1000
0001
1000
0000
,
0001
0010
0101
0000
1001
0000
1010
0000
,
1000
0100
1010
0000
1001
0000
0101
0000
,
0010
0010
1000
1000
0100
0010
0001
0010
,
0100
0100
1000
1000
0001
0010
0001
0100
,
1001
0000
0000
0000
;

//---------------dance-single - Renard----------------
#NOTES:
     dance-single:
     Renard:
     Medium:
     5:
     0.410,0.456,0.555,0.054,0.000:
0000
0000
0000
0000
,
0000
0000
0000
0000
0000
0001
1000
0000
,
0001
0000
0100
0000
0010
1000
0100
0000
,
1000
0010
0100
0001
,
1000
0000
0001
0000
0100
0000
0001
1000
,
0100
1000
1001
1001
,
1000
0000
0010
0000
0100
0001
1000
0000
,
0100
1000
0001
0010
,
0001
0001
0100
0100
,
0010
1000
0101
1010
,
0100
0001
0100
0000
0001
0000
0100
0000
,
0001
0100
0001
0000
0100
0000
0001
0000
,
1000
0010
1000
0000
0010
0000
0010
0000
,
1000
0010
0100
0001
0100
0010
1000
0000
,
0001
0100
0001
0000
0100
0000
0100
0000
,
0010
1000
0010
0000
1000
0000
1000
0000
,
0010
0100
0001
1000
,
0100
0010
0001
0011
,
0001
0011
0010
0110
,
0100
1100
1000
1010
,
0010
0110
0100
0101
,
0001
1001
1000
1010
,
0010
0011
0001
0101
,
0100
1100
1000
1010
,
0010
0110
0100
0101
,
0001
1001
1000
1010
,
0010
0110
0100
0101
,
0001
0011
0010
1010
,
1000
1100
0100
0101
,
0001
0011
0010
0110
,
0100
1100
1000
1010
,
0100
0101
0100
0110
,
0100
1100
0100
0101
,
0110
1001
1010
0101
,
1000
1000
0001
0100
0010
0000
0010
0000
,
1000
0100
0010
0001
,
1000
1000
0001
0100
0010
0000
1000
0000
,
0001
0010
0100
1000
,
0001
0001
0100
0010
1000
0000
0001
0000
,
0100
0010
1000
1000
,
0001
0001
0010
0001
0100
0000
0001
0000
,
1000
1000
0100
1000
0010
0000
0100
0000
,
1001
1010
0101
0011
,
1100
1010
0101
2002
,
0000
0010
0010
0010
,
0000
0100
0100
3103
,
1000
0010
0100
0001
,
0011
0011
1100
1100
,
1000
2002
0010
0010
,
0000
0000
0100
3103
,
1000
0010
0100
0001
,
1000
0100
1000
0010
,
2002
0100
0010
0100
,
0000
0010
0100
3013
,
1000
0001
0010
0001
,
1000
0100
1000
0010
,
0100
1001
1010
0101
,
0001
1000
0001
0100
,
1010
0000
0101
0000
1000
0001
1000
0001
,
1000
1010
0101
0011
,
1001
0000
0000
0000
;

//---------------dance-single - Renard----------------
#NOTES:
     dance-single:
     Renard:
     Easy:
     4:
     0.378,0.403,0.546,0.018,0.000: // measure 1
0000
0000
0000
0000
,  // measure 2
0000
0000
0000
0000
0000
1000
0001
0000
,  // measure 3
1000
0010
0100
0001
,  // measure 4
1000
0100
1000
0010
,  // measure 5
0100
0100
0000
0001
,  // measure 6
1000
1000
1001
1001
,  // measure 7
0001
0100
0010
1000
,  // measure 8
0100
1000
0010
0100
,  // measure 9
0001
0001
1000
0000
,  // measure 10
0010
0010
1001
0101
,  // measure 11
1000
0010
0000
0101
,  // measure 12
0010
1000
0000
0011
,  // measure 13
1000
0010
0000
1001
,  // measure 14
0100
0100
0100
0000
0100
0100
0100
0000
,  // measure 15
0010
1001
0100
1001
,  // measure 16
0010
1001
1001
1001
,  // measure 17
1000
0010
0100
0001
,  // measure 18
0010
0010
0100
0100
,  // measure 19
1000
1010
1000
1001
,  // measure 20
1000
1100
1000
1010
,  // measure 21
0100
0001
0010
0100
,  // measure 22
0000
1000
0010
0100
,  // measure 23
0001
0011
0001
1001
,  // measure 24
0001
0101
1000
1001
,  // measure 25
1000
1010
0101
0011
,  // measure 26
1000
0001
0001
0001
,  // measure 27
0100
0110
0100
1100
,  // measure 28
0100
0101
0100
0110
,  // measure 29
0100
0001
0010
0100
,  // measure 30
0000
1000
0010
0100
,  // measure 31
0010
1010
0010
0011
,  // measure 32
0010
0110
0010
1010
,  // measure 33
0010
0100
0001
0010
,  // measure 34
0100
0010
0001
1000
,  // measure 35
0010
0010
0010
0010
,  // measure 36
0100
0100
0100
0100
,  // measure 37
0002
1000
0100
0010
,  // measure 38
1000
0000
1000
1000
1003
0000
0000
0000
,  // measure 39
1000
0010
0100
0001
,  // measure 40
1000
0100
1000
0010
,  // measure 41
2000
0001
0100
0001
,  // measure 42
0010
0000
0001
0000
0001
0001
3001
0000
,  // measure 43
1000
1000
0001
0001
,  // measure 44
0100
0010
1000
0100
,  // measure 45
1000
0101
1010
0101
,  // measure 46
1000
0011
1100
0011
,  // measure 47
1000
0010
0100
0001
,  // measure 48
0010
0100
1000
0010
,  // measure 49
0100
1010
0101
0011
,  // measure 50
0100
1010
0101
0011
,  // measure 51
0100
0010
1000
0100
,  // measure 52
1000
0010
0100
0001
,  // measure 53
1000
1010
1100
0101
,  // measure 54
0010
0101
0011
1010
,  // measure 55
0100
1010
0100
0011
,  // measure 56
1001
1010
0101
1001
,  // measure 57
1000
0110
1001
1010
,  // measure 58
0000
0101
0011
1100
,  // measure 59
0001
0000
1000
0000
0001
0000
1000
0001
,  // measure 60
1000
0010
0100
0000
0001
0000
1000
0001
,  // measure 61
0100
0000
0000
0000
;
