#TITLE:Dragostea Din Tei;
#SUBTITLE:;
#ARTIST:O-Zone;
#TITLETRANSLIT:;
#SUBTITLETRANSLIT:;
#ARTISTTRANSLIT:;
#CREDIT:;
#BANNER:DRAGOSTEA DIN TEI.img;
#BACKGROUND:DRAGOSTEA DIN TEI-bg.img;
#LYRICSPATH:;
#CDTITLE:;
#MUSIC:DRAGOSTEA DIN TEI.mp3;
#OFFSET:-0.082;
#SAMPLESTART:61.670;
#SAMPLELENGTH:12.000;
#SELECTABLE:YES;
#BPMS:0.000=130.050;
#STOPS:33.000=0.461
,80.500=0.923
,116.500=0.923
,128.000=0.461
,159.000=0.461
;
#BGCHANGES:;
#GENRE:Eurodance;

//---------------dance-single - Renard----------------
#NOTES:
     dance-single:
     Renard:
     Hard:
     7:
     0.491,0.479,0.272,0.073,0.037:
0000
0000
0000
0000
,
0000
0000
0000
0000
,
0000
0000
0000
0000
,
0000
0000
0000
0000
,
0000
0000
0000
0000
0100
0000
0001
1000
,
0100
1000
0010
0000
0100
0000
0001
1000
,
0100
0010
0100
0000
1000
0000
0001
0100
,
0001
1000
0100
0000
1000
0000
0001
1000
,
1001
0000
0110
0000
0210
0000
0301
0100
,
1000
0100
0001
0100
1000
0100
0001
0010
,
1000
0010
0001
0010
1000
0010
0001
0100
,
0010
1000
0001
0100
0010
1000
0100
1000
,
1100
0000
0001
0010
0012
0000
1003
0100
,
0001
0100
1000
0100
0001
0100
1000
0010
,
0001
0010
1000
0010
0001
0010
1000
0100
,
0010
0000
0001
0000
1000
0000
0100
0000
0010
0000
0001
0000
1000
0000
0100
1000
,
0100
0000
1000
0001
1000
0001
1000
0000
0001
0000
0000
0000
0001
0000
0100
0000
,
0010
1000
0001
0000
1010
0000
0100
0001
,
0010
0001
0000
0010
0001
0000
0000
0000
1100
0000
0000
0000
0010
0000
0001
0000
,
1000
0100
1000
0000
1001
0000
0001
0100
,
0001
0000
1000
0000
0000
0000
0001
0000
0100
0001
0100
0001
1000
0000
0100
0000
,
1000
0010
0100
0000
1001
0000
0100
0001
,
0010
0100
1000
0000
1001
0000
0001
0100
,
0010
1000
0100
0000
1001
0000
1000
0010
,
0100
0001
0101
0000
1010
0000
1100
0000
,
0010
0001
0000
0001
1000
0100
0000
0100
,
1000
0001
0000
0001
0100
0010
1000
0000
,
0100
1000
0010
0000
1001
0000
0001
0010
,
0001
0100
0010
0000
1000
0010
0000
0101
,
0000
1010
0000
0000
1001
0000
1010
0000
,
0100
0001
0010
0100
1000
0001
1000
0000
,
0001
0000
0100
0001
1000
0100
0100
0000
,
2200
0000
3311
0000
1000
0100
0001
0100
,
1000
0010
0001
0010
1000
0100
0001
0100
,
1000
0010
0001
0010
1000
0100
0010
0001
,
1000
0010
0100
0001
1000
0001
1000
0000
,
1001
0000
1010
0000
0001
0100
1000
0100
,
0001
0010
1000
0010
0001
0100
1000
0100
,
0001
0010
1000
0010
0001
0100
0010
1000
,
0100
0010
0001
0100
0010
0000
0202
0000
,
1313
0000
0001
0100
0010
1000
0100
0001
,
0100
1000
0010
0100
0001
0100
0001
0100
,
1000
0100
0001
0010
0100
1000
0100
0001
,
0100
1000
0010
0100
0001
0000
0001
0010
,
0001
0000
1000
0010
0100
0001
0010
1000
,
0010
0001
0100
0010
1000
0010
1000
0010
,
0001
0010
1000
0100
0010
0001
0010
1000
,
0010
0001
0100
0020
0000
0000
0000
0000
,
0030
1001
0000
0000
;

//---------------dance-single - Renard----------------
#NOTES:
     dance-single:
     Renard:
     Medium:
     5:
     0.357,0.428,0.084,0.010,0.000:
0000
0000
0000
0000
,
1000
0000
0001
0000
0100
0001
0100
0001
,
1000
0001
0100
0001
1000
0100
1000
0001
,
0100
0001
1000
0001
0100
0001
1000
0001
,
0100
0100
0000
0000
,
1000
1000
0001
0100
,
0001
1000
0100
0100
,
1000
0000
0000
0000
0001
0000
0100
0001
,
0000
1001
0000
0000
0110
0000
1000
0000
,
0010
0000
0100
0001
0100
0001
0000
1000
,
0100
1000
0010
0100
,
0001
0000
1000
0100
1000
0100
0000
0100
,
1000
0010
0100
0001
,
1000
0000
0001
0100
0001
0100
0000
0100
,
0001
1000
0100
0010
,
0010
0000
0001
0000
0001
1000
0000
0001
,
0000
1000
0001
1000
0001
0000
1000
0000
,
1000
0010
0010
0100
,
0100
0001
0001
0010
,
0010
0100
0100
1000
,
1000
0010
0000
0000
0100
0100
0100
0000
,
0010
1000
0100
1000
,
0001
1000
0010
1000
,
0010
0100
0001
0010
,
0001
0100
0000
0001
1000
0100
1000
0000
,
1000
0000
0001
0000
0100
0000
0001
1000
,
0100
0000
1000
0000
0001
0000
0100
0001
,
1000
0000
0001
0000
0001
0000
1000
0010
,
0100
0001
0000
1000
0000
0001
0000
0100
,
0000
1001
0000
0000
1010
0000
0100
0001
,
0010
0001
0100
0001
,
1000
0000
0100
1000
0001
0000
0100
0000
,
1001
1001
1000
0001
,
1000
1000
0001
0001
1000
0000
0001
0000
,
1000
1000
0001
0001
1000
0000
0001
0000
,
1000
0001
1000
0001
1000
0001
1000
0000
,
0001
0001
0100
0010
,
0100
0100
0010
0010
0100
0000
0010
0000
,
0100
0100
0010
0100
0010
0000
0100
0000
,
0010
0010
0100
0010
0100
0000
0010
0000
,
1001
1000
0001
0100
,
0001
0000
1000
0100
1000
0000
0001
0000
,
0100
0000
0001
0010
0001
0000
1000
0000
,
0100
1000
1000
0001
,
0100
0001
0000
1000
0100
0000
1000
0000
,
0010
0000
0100
0000
0001
0000
1000
0100
,
0010
0001
1000
0000
0001
0010
0100
1000
,
0001
2000
0000
0000
,
3000
0011
0000
0000
;

//---------------dance-single - Renard----------------
#NOTES:
     dance-single:
     Renard:
     Easy:
     3:
     0.267,0.277,0.084,0.000,0.000:
0000
0000
0000
0000
,
0000
0000
0000
0000
,
0000
0000
0000
0000
,
0000
0000
0000
0000
,
0000
0000
0000
0000
,
1000
1000
0000
0001
,
0100
0100
0000
0001
,
0010
0000
0000
0000
0001
0000
1000
0001
,
0000
1001
0000
0000
0110
0000
1000
0000
,
0010
0100
0001
1000
,
0100
1000
0001
0010
,
0001
0100
0010
1000
,
0001
0000
0100
0000
0001
1000
0000
0000
,
0001
0000
1000
0000
0100
1000
0000
0000
,
0001
0000
0100
0000
0001
1000
0000
0000
,
0001
1000
0100
1000
,
1000
0000
0010
0010
0010
0000
1000
0000
,
0001
0100
0001
0010
,
0001
0100
0000
1001
,
1010
0101
1000
0001
,
0100
0001
0000
0000
1000
1000
0001
0000
,
0100
0001
1000
0100
,
0010
0001
0010
0100
,
1000
0010
0100
0001
,
1000
0001
0100
0001
,
1000
0100
0000
0000
0010
0001
0000
1000
,
0100
1000
0000
0001
0010
0001
0000
0000
,
1000
0001
0100
0001
,
1000
0000
0100
0000
1000
0001
0000
0100
,
0000
0001
0000
0000
1001
0000
1000
0000
,
0001
0100
0001
1000
,
0000
0100
0000
1000
,
0001
1000
0001
0100
,
0001
1000
0100
0000
1000
0000
1000
0000
,
0001
0001
0100
0001
,
0010
0001
1000
0010
,
1000
0001
0100
0001
,
1000
0001
0100
0000
0001
0000
1000
0000
,
0100
1000
0001
0001
,
1000
1000
0001
1000
,
1001
1000
0001
0100
,
0001
1000
0100
0010
,
0001
1000
0001
0010
,
0100
1000
0001
0100
,
0001
0010
0001
0010
,
0100
1000
0010
0100
,
0001
1000
0100
1000
,
0010
0100
0000
0000
,
0000
1001
0000
0000
;

//---------------dance-single - BlueChaos----------------
#NOTES:
     dance-single:
     BlueChaos:
     Challenge:
     9:
     0.552,0.580,0.199,0.303,0.298: // measure 1
0000
0000
0000
0000
,  // measure 2
0000
0000
0000
0000
,  // measure 3
0000
0000
0000
0000
,  // measure 4
0000
0000
0000
0000
,  // measure 5
0000
0000
0000
0000
,  // measure 6
0000
0000
0000
0000
,  // measure 7
0000
0000
0000
0000
,  // measure 8
1001
0001
0100
0010
,  // measure 9
1010
0000
0000
0000
0000
0000
0000
0000
2200
3300
MM00
0000
0000
0000
0000
0000
1001
0000
0000
0000
0000
0000
0000
0000
0001
0000
0000
0000
0100
0000
0000
0000
,  // measure 10
0010
0000
0100
0000
0002
0000
0010
0000
1003
0000
0001
0100
0010
0000
1000
0000
,  // measure 11
0100
0000
0010
0000
0200
0000
0010
0000
1300
0000
0001
0100
0010
0000
0100
0000
,  // measure 12
0001
0100
0020
1000
0130
0110
0MM0
0110
,  // measure 13
0100
0000
0010
0100
0001
0000
0100
0000
0001
0000
0010
0100
1000
0000
0000
0000
,  // measure 14
0100
0000
1000
0010
0100
0000
0001
0000
0010
0000
0100
1000
0001
0000
0000
0000
,  // measure 15
0010
0000
0100
1000
0010
0000
1000
0000
0010
0000
0100
0001
1000
0000
0000
0000
,  // measure 16
0001
0000
0100
0000
0101
0000
0001
0000
1000
0000
0100
1000
0010
0000
1000
0010
,  // measure 17
0100
0000
0001
0010
0100
0010
0001
0000
1100
0000
MM00
0000
1000
0000
0100
0000
,  // measure 18
1100
0000
1000
0000
1001
1000
0100
0010
,  // measure 19
0100
1000
0001
0100
0001
0000
MMMM
0000
0001
0100
0010
1000
0100
0000
0010
0000
,  // measure 20
0100
1000
0001
0100
0010
2000
0000
0000
,  // measure 21
0000
0000
0000
0000
0000
0000
0002
0000
3003
0000
0000
0000
MMMM
0000
0000
0000
0000
0000
1000
0000
0000
0000
0000
0000
0001
0000
0000
0010
0000
0000
0001
0000
0000
1000
0000
0000
1001
0000
0000
0000
0000
0000
0001
0000
0000
0000
0000
0000
,  // measure 22
0100
2000
0000
3100
0001
2000
0000
3001
,  // measure 23
M010
0200
0000
2300
0M00
3002
M000
0000
,  // measure 24
0103
0101
0000
1010
1000
1000
1000
0001
,  // measure 25
1000
0100
1000
0001
0200
0000
0010
0000
0310
0000
0000
1000
0010
0000
1000
0000
,  // measure 26
1100
0000
0000
1000
0001
0000
0100
0000
0101
0000
0000
0001
0010
0000
0200
0000
,  // measure 27
1000
0000
1300
0000
0001
0000
0100
0000
0010
0000
0000
1000
0010
0000
0100
0000
,  // measure 28
0100
0M02
00M0
0000
00M0
0000
00M0
0010
,  // measure 29
0013
0010
0100
1000
0001
2002
3003
0220
,  // measure 30
0330
0000
2002
3003
MMMM
0000
1000
0000
0100
0000
0010
0001
0100
0000
0000
0000
,  // measure 31
0001
0000
0100
0000
0010
0000
1000
0000
0001
0000
1000
0000
0100
0000
0000
0010
,  // measure 32
0001
0000
0000
0001
0100
0000
0000
0100
0010
0000
0000
0010
1000
0000
0000
1000
,  // measure 33
0100
MM00
0000
0000
2000
0000
0000
0000
3001
0000
M10M
0000
1000
0000
0100
0000
,  // measure 34
0010
1000
0010
0000
0010
0100
0010
0000
1000
0000
0010
0000
1000
0000
0100
0000
,  // measure 35
1000
0100
1000
0000
1000
0001
1000
0000
0100
0000
0010
0000
0100
0000
0010
0000
,  // measure 36
0001
0010
0001
0000
0001
1000
0001
0000
0001
0100
0001
0000
0100
0000
0010
0000
,  // measure 37
1000
0010
0000
0010
0100
0000
0001
0000
0010
0000
0100
0000
0010
0000
0001
0000
,  // measure 38
1000
0100
1000
0001
0000
0000
0200
0000
0000
0010
0000
0000
0310
0000
0000
1000
0000
0000
0100
0000
0000
0010
0000
0000
,  // measure 39
0100
0000
1000
0000
0002
0000
0000
0103
0010
0000
1000
0000
0001
0000
0000
1000
,  // measure 40
0100
0000
0010
0000
0001
0000
0000
0001
0100
0000
0010
0000
1000
0000
MMMM
0000
,  // measure 41
1001
0000
1000
0000
0100
0000
0010
0000
0001
0000
0100
0010
1000
0000
1000
0100
,  // measure 42
0010
0000
0100
0000
1000
0000
0001
0000
0010
0000
0001
0100
0010
0000
0010
1000
,  // measure 43
0100
0000
1000
0000
0100
0000
0001
0000
0100
0000
1000
0100
0010
0000
0010
0001
,  // measure 44
0100
0000
0100
0001
1000
0000
0100
0000
0100
0000
0010
0000
0001
0010
0000
0010
,  // measure 45
0001
0000
0000
0100
0000
0000
0010
0000
0000
1000
0000
0000
0100
0000
0000
0010
0000
0000
0001
0010
0001
1000
0000
0000
,  // measure 46
0020
0100
0130
0001
0010
0001
1000
0010
,  // measure 47
1000
0200
0000
0000
1300
MM20
0000
0000
,  // measure 48
0130
0MM2
0000
2000
0000
0000
0000
0000
,  // measure 49
0000
3003
0000
0000
;
