#TITLE:Doop (Mother Remix);
#SUBTITLE:;
#ARTIST:Ferry and Garnefski;
#GENRE:Dance Pop;
#TITLETRANSLIT:;
#SUBTITLETRANSLIT:;
#ARTISTTRANSLIT:;
#CREDIT:;
#BANNER:doop.png;
#BACKGROUND:doop-bg.png;
#LYRICSPATH:;
#CDTITLE:;
#MUSIC:doop.ogg;
#OFFSET:0.000;
#SAMPLESTART:21.333;
#SAMPLELENGTH:12.000;
#SELECTABLE:YES;
#BPMS:0.000=135.000;
#STOPS:;
#BGCHANGES:;

//---------------dance-single - Renard----------------
#NOTES:
     dance-single:
     Renard:
     Challenge:
     9:
     0.728,0.687,0.658,0.276,0.568:
0000
0000
0000
0000
,
0000
0000
0000
0000
,
1000
0000
0000
0001
0000
0000
0000
0000
0100
0000
0000
0000
0010
0000
0000
1000
0000
0000
0001
0000
0100
0010
0000
0100
,
0000
0000
0000
0001
0000
0000
0000
0000
1000
0000
0000
0000
0010
0000
0000
0100
0000
0000
0001
0000
0001
0100
0000
0000
,
0001
0000
0000
0000
0000
0101
0000
0000
0001
0100
0000
0000
0001
0000
0000
1000
0000
0000
0100
0000
0100
1000
0000
0000
,
1100
0000
0000
0000
0000
1010
0000
0000
0000
1001
0000
0000
0001
0000
0000
0100
0000
0000
0010
0000
0010
0100
0000
0000
,
1000
0000
0000
0000
0000
1010
0000
0000
1000
0010
0000
0000
1000
0000
0000
0001
0000
0000
0010
0000
0010
0001
0000
0000
,
0011
0000
0000
0000
0000
0101
0000
0000
0000
1001
0000
0000
1000
0000
0000
0010
0000
0000
0100
0000
0100
0010
0000
0000
,
0100
0000
0000
0000
0000
1100
0000
0000
0100
1000
0000
0000
0100
0000
0000
0010
0000
0000
1000
0000
1000
0010
0000
0000
,
1010
0000
0000
0000
0000
0011
0000
0000
0000
0110
0000
0000
0100
0000
0000
1000
0000
0000
0001
0000
0001
1000
0000
0000
,
0010
0000
0000
0000
0000
0011
0000
0000
0010
0001
0000
0000
0010
0000
0000
0100
0000
0000
0001
0000
0001
0100
0000
0000
,
0101
0000
0000
0000
0000
1100
0000
0000
0000
0110
0000
0000
0010
0000
0000
0001
0000
0000
1000
0000
1000
0001
0000
0000
,
1000
0000
0000
0100
0000
0000
1000
0000
0000
0010
0000
0100
0001
0000
0010
0001
0000
0000
0100
0000
0000
0010
0000
1000
,
0100
0000
0000
1000
0000
0000
0010
0000
0000
0100
0000
0001
0100
0000
0010
2000
0000
0000
0101
0000
0000
3101
0000
0000
,
0001
0000
0000
0010
0000
0000
0001
0000
0000
0100
0000
0010
1000
0000
0100
1000
0000
0000
0010
0000
0000
0100
0000
0001
,
0010
0000
0000
0001
0000
0000
0100
0000
0000
0010
0000
1000
0010
0000
0100
0002
0000
0000
1010
0000
0000
1013
0000
0000
,
0100
0000
0000
0001
0000
0000
0100
0000
0000
1000
0000
0001
0010
0000
1000
0010
0000
0000
0001
0000
0000
1000
0000
0100
,
0001
0000
0000
0100
0000
0000
1000
0000
0000
0001
0000
0010
0001
0000
1000
0200
0000
0000
0011
0000
0000
0311
0000
0000
,
0010
0000
0000
1000
0000
0000
0010
0000
0000
0001
0000
1000
0100
0000
0001
0100
0000
0000
1000
0000
0000
0001
0000
0010
,
1000
0000
0000
0010
0000
0000
0001
0000
0000
1000
0000
0100
1000
0000
0001
0020
0000
0000
1100
0000
0000
1130
0000
0000
,
0010
0100
0001
0010
1000
0010
0002
0000
,
0103
1000
0100
0001
0010
1000
0020
0000
,
0031
0100
0010
1000
0100
0010
0002
0000
,
0013
1000
0010
0100
1000
0010
0200
0000
,
0301
0000
0010
0001
0000
0000
1000
0000
0100
1000
0000
0100
1000
0000
0100
0000
0000
2000
0000
0000
0000
0000
0000
0000
,
3010
0000
0000
0100
0000
0000
0001
0000
0000
1000
0000
0000
0010
0000
0100
0000
0000
0020
0000
0000
0000
0000
0000
0000
,
1030
0000
0100
1000
0000
0000
0001
0000
0010
0001
0000
0010
0001
0000
0010
0000
0000
0001
0000
0000
0000
0000
0000
0000
,
0100
0000
0000
0010
0000
0000
1000
0000
0000
0001
0000
0000
0100
0000
0010
0000
0000
0100
0000
0000
0000
0000
0000
0000
,
1100
0000
0000
1000
0000
0000
1010
0000
0000
1000
0000
0000
0002
0000
2000
0000
0000
0010
3003
0000
0000
0000
0000
0000
,
0011
0000
0000
0001
0000
0000
0101
0000
0000
0001
0000
0000
2000
0000
0002
0000
0000
0100
3003
0000
0000
0000
0000
0000
,
1100
0000
0000
1000
0000
0000
1010
0000
0000
1000
0000
0000
0002
0000
2000
0000
0000
0010
3003
0000
0000
0000
0000
0000
,
0011
0000
0000
0001
0000
0000
0101
0000
0000
0001
0000
0000
2000
0000
0002
0000
0000
0100
3003
0000
0000
0000
0000
0000
,
1100
0000
0000
1100
0000
0000
0000
0000
1010
0000
0000
1010
0000
0000
0000
0000
,
0001
0000
0002
0000
0100
0000
0200
0000
0010
0000
0000
0010
0303
0000
0000
0000
,
0011
0000
0000
0011
0000
0000
0000
0000
0101
0000
0000
0101
0000
0000
0000
0000
,
1000
0000
2000
0000
0010
0000
0020
0000
0100
0000
0000
0100
3030
0000
0000
0000
,
0110
0000
0000
0110
0000
0000
0000
0000
0101
0000
0000
0101
0000
0000
0000
0000
,
1000
0000
2000
0000
0010
0000
0020
0000
0001
0000
0000
0001
3030
0000
0000
0000
,
1001
0000
0000
1001
0000
0000
0000
0000
1010
0000
0000
1010
0000
0000
0000
0000
,
0100
0000
0200
0000
0001
0000
0002
0000
0010
0000
0000
0010
0303
0000
0000
0000
,
0001
0000
0000
0000
0000
0101
0000
0000
0001
0100
0000
0000
0001
0000
0000
1000
0000
0000
0100
0000
0100
1000
0000
0000
,
1100
0000
0000
0000
0000
1010
0000
0000
0000
1001
0000
0000
0001
0000
0000
0100
0000
0000
0010
0000
0010
0100
0000
0000
,
1000
0000
0000
0000
0000
1010
0000
0000
1000
0010
0000
0000
1000
0000
0000
0001
0000
0000
0010
0000
0010
0001
0000
0000
,
0011
0000
0000
0000
0000
0101
0000
0000
0000
1001
0000
0000
1000
0000
0000
0010
0000
0000
0100
0000
0100
0010
0000
0000
,
0100
0000
0000
0000
0000
1100
0000
0000
0100
1000
0000
0000
0100
0000
0000
0010
0000
0000
1000
0000
1000
0010
0000
0000
,
1010
0000
0000
0000
0000
0011
0000
0000
0000
0110
0000
0000
0100
0000
0000
1000
0000
0000
0001
0000
0001
1000
0000
0000
,
0010
0000
0000
0000
0000
0011
0000
0000
0010
0001
0000
0000
0010
0000
0000
0100
0000
0000
0001
0000
0001
0100
0000
0001
,
0000
0000
0000
1000
0000
0000
0000
0000
0001
0000
0000
0000
0100
0000
0000
0010
0000
0000
1000
0000
1000
0001
0000
0000
,
0000
0000
0000
1000
0000
0000
0000
0000
0001
0000
0000
0000
0100
0000
0000
0010
0000
0000
1000
0000
1000
0001
0000
0000
,
0000
0000
0000
1000
0000
0000
0000
0000
0001
0000
0000
0000
0100
0000
0000
0010
0000
0000
1000
0000
1000
0001
0000
0000
,
0000
0000
0000
1000
0000
0000
0000
0000
0001
0000
0000
0000
0100
0000
0000
0010
0000
0000
1000
0000
1000
0001
0000
0000
,
0000
0000
0000
1000
0000
0000
0000
0000
0001
0000
0000
0000
0100
0000
0000
0010
0000
0000
1001
0000
0000
0000
0000
0000
;

//---------------dance-single - Ryvard----------------
#NOTES:
     dance-single:
     Ryvard:
     Hard:
     9:
     0.606,0.669,0.425,0.223,0.409:
0000
0000
0000
0000
,
0000
0000
0000
0000
,
0000
0000
0000
0000
,
0000
0000
0000
0000
,
1000
0000
0000
0000
0100
0000
0000
0000
0001
0000
0010
0000
0100
0010
0000
0000
,
1000
0000
0000
0000
0001
0000
0000
0000
0100
0000
0010
0000
0100
0010
0000
0000
,
1000
0000
0001
0000
0100
0010
1001
0000
,
0001
0000
0100
0000
1000
0000
0100
0000
0001
0000
0100
0000
0010
0100
0000
0000
,
1000
0000
0000
0000
0001
0000
0000
0000
0100
0000
0010
0000
1000
0001
0000
0000
,
0100
0000
0010
0000
1000
0000
0000
0001
0100
0000
0010
0000
1000
0001
0000
0000
,
0010
0000
0000
0000
0100
0000
0000
0001
1000
0000
0010
0000
0100
0001
0000
0001
,
1000
0000
0010
0000
0100
0010
0000
0001
1000
0000
0001
0000
1000
0000
0001
0000
,
1010
0000
0000
0110
0000
0000
0000
0000
0011
0000
0000
1100
0000
0000
0000
0100
,
0001
0000
0010
0000
1000
0000
1000
0000
1000
0000
0000
0010
0000
0000
0000
0000
,
1010
0000
0000
0101
0000
0000
0000
0000
0110
0000
0000
0101
0000
0000
0000
1000
,
0100
0000
1000
0000
0010
0000
0010
0000
1000
0000
0000
1000
0000
0000
0000
0000
,
0010
0000
0000
0010
1000
0000
1000
0000
0001
0000
0000
0000
0100
0000
0010
0000
,
1000
0000
0000
0100
1000
0000
0001
0000
2002
0000
0000
3013
0000
0000
0000
0000
,
1001
0000
0000
0010
1000
0000
0100
0000
0010
0000
0000
0001
1000
0000
0001
0000
,
0110
0000
1010
0000
1100
0000
0101
0000
1010
0000
0000
1100
0000
0000
0000
0000
,
0001
0010
0000
0100
1000
0000
0010
0001
0000
1000
0100
0000
0011
0000
0000
0000
,
0001
1000
0000
0010
1000
0000
0100
1000
0000
0010
0001
0000
0011
0000
0000
0000
,
0010
0100
0000
0001
0010
0000
0001
1000
0000
1000
0100
0000
0011
0000
0000
0000
,
0001
0010
0000
0100
1000
0000
1000
0010
0000
0001
0010
0000
1001
0000
0000
0000
,
0010
0100
1000
0000
0010
0100
0001
0100
0001
0100
0000
0100
0000
0000
0000
0000
,
1000
0000
1000
0000
0010
0000
1000
0000
1000
0010
0000
0001
0000
0000
0000
0000
,
0010
0100
0010
0000
1000
0001
0100
0001
0010
0100
0000
0100
0000
0000
0000
0000
,
0001
0000
0001
0000
0100
0000
1000
0000
0100
0001
0000
1010
0000
0000
0000
0000
,
1000
0010
0100
1000
,
0010
0100
1000
0010
,
0100
0010
0001
1000
1000
0100
0010
0010
,
0001
0010
0100
1000
0100
0001
0100
0000
,
2000
0000
0000
3002
0000
0000
0000
0000
0203
0000
0000
0320
0000
0000
0000
0000
,
2030
0000
3200
0000
0320
0000
0032
0000
0223
0000
0000
1001
0330
0000
0000
0000
,
0101
0000
0000
0010
1000
0000
1000
0000
0200
0000
0000
0301
0000
0000
0000
0000
,
0001
0000
0100
0000
0010
0000
0000
0001
0100
0000
0001
0000
0010
0000
0000
0000
,
0020
0000
0000
0130
0000
0000
0000
0000
0200
0000
0000
0301
1000
0000
0001
0000
,
1010
0000
0010
0000
1001
0000
0100
0000
1010
0000
0000
1000
0000
0000
0000
0000
,
0011
0000
0000
1010
0000
0000
0000
0000
1010
0000
0000
1100
0000
0000
0000
0000
,
0001
0000
0100
0000
0001
0000
1000
0000
0010
0100
0000
0000
2002
0000
0000
0000
,
3113
0000
1101
0000
0010
0100
0001
0010
,
0100
1000
0001
0010
0100
0001
1000
0010
,
0100
1000
0001
0001
0100
0010
1000
1000
,
0101
0000
0000
0000
1010
0000
0000
0010
0100
0000
0001
0000
0100
1000
0000
0000
,
0010
0000
1010
0000
1100
0000
0000
0000
0100
0010
1000
0000
0010
0100
0000
0000
,
0010
0000
0100
0000
0000
0000
0100
0000
0010
0100
1000
0000
1000
0001
0000
0000
,
0010
0000
0001
0000
0000
0000
0010
0000
0010
0100
0001
0000
0010
1000
0000
0000
,
0100
0000
1000
0000
0000
0000
0100
0000
0100
0010
1000
0000
0100
0001
0000
0000
,
0100
1000
0010
0100
0001
0010
0100
1000
,
0010
0100
0001
0010
0100
0010
0001
0010
,
0100
1000
0100
0001
0100
1000
0100
0010
,
0001
0010
1000
0010
0001
0100
2002
0000
,
0200
0020
3333
0000
;

//---------------dance-single - Renard----------------
#NOTES:
     dance-single:
     Renard:
     Medium:
     6:
     0.470,0.469,0.509,0.021,0.000:
0000
0000
0000
0000
,
0000
0000
0000
0000
,
0100
1000
0010
0100
,
0001
0010
0001
0110
,
1010
0110
0101
0110
,
1010
0000
0110
0000
0001
0100
0001
0000
,
0110
0101
0110
1100
,
0110
0000
0101
0000
0100
0010
0100
0000
,
0010
1000
0100
0010
,
0001
0010
0001
0000
0010
0000
0100
0000
,
1000
0000
0100
0000
0010
0001
0010
0000
,
0001
0000
0010
0000
0100
1000
0100
0000
,
1010
0000
1001
0000
0001
0100
0010
1000
,
1010
0000
1001
0000
0001
0100
0001
0000
,
0100
0010
1000
0000
1010
0000
1001
0000
,
0001
0100
0010
0100
0001
0100
0010
0000
,
1000
0010
0100
0000
0001
0100
0010
0000
,
1000
0010
0100
0001
0100
0000
0100
0000
,
0010
1000
0010
0000
0100
0001
0100
0000
,
0010
1000
0100
0010
0001
0010
0100
0000
,
1000
0001
0100
0010
1000
0001
1001
0000
,
1000
0010
0100
0001
0010
0001
0011
0000
,
0001
0010
0100
1000
0001
1000
1001
0000
,
1000
0010
0100
0001
1000
0001
1001
0000
,
1000
0010
0000
0100
0001
0100
0010
0000
,
1000
0010
0000
0100
0001
0100
0010
0000
,
1000
0100
0000
0010
0001
0010
0100
0000
,
1000
0010
0000
0100
0001
0100
0101
0000
,
1001
1010
1100
1010
,
0001
0100
0010
1000
0100
0000
1010
0000
,
0001
0010
0100
1000
0010
0100
0001
0000
,
0100
0010
1000
0010
0100
0000
0101
0000
,
0100
0110
0010
1010
,
1000
1001
0001
0101
,
0100
0110
0010
1010
,
1000
1001
1001
1010
,
1001
0101
0011
0101
,
0001
0100
0010
1000
0100
0010
0100
0000
,
1100
1010
1001
0101
,
0001
0010
0001
0100
0010
0000
1000
0000
,
0100
0000
1000
0000
0010
0100
0001
0100
,
0001
0000
0100
0000
0010
1000
0010
0000
,
1000
0000
0010
0000
0100
0001
0100
0010
,
1000
0010
0100
0101
,
0001
0100
0010
1000
,
0100
0010
0001
0010
,
0100
1000
0010
0100
,
0001
0100
0010
1000
,
0010
0100
0001
0010
,
0001
0000
0010
0000
0100
0000
1000
0010
,
0100
0001
0100
0010
,
1000
0000
0100
0000
0010
0002
0020
0000
,
0033
0000
0000
0000
;

//---------------dance-single - Renard----------------
#NOTES:
     dance-single:
     Renard:
     Easy:
     4:
     0.365,0.386,0.499,0.042,0.000: // measure 1
0000
0000
0000
0000
,  // measure 2
0000
0000
0000
0000
,  // measure 3
0001
0001
0100
1001
,  // measure 4
0010
0010
0100
1001
,  // measure 5
1000
0100
1000
0001
,  // measure 6
0010
0001
0100
1001
,  // measure 7
0010
1000
0100
1000
,  // measure 8
0001
0010
0100
1001
,  // measure 9
1000
0010
0100
1001
,  // measure 10
0001
0010
0100
1001
,  // measure 11
1000
1010
0100
0101
,  // measure 12
0010
0011
1000
1001
,  // measure 13
0100
0100
0010
0010
,  // measure 14
1000
0101
1010
0000
,  // measure 15
0001
0001
1000
1000
,  // measure 16
0100
0011
1200
1300
,  // measure 17
0001
0100
0010
1000
,  // measure 18
0001
1010
0101
0001
,  // measure 19
0010
0100
1000
0010
,  // measure 20
0100
1001
2010
3100
,  // measure 21
1000
0010
0100
0101
,  // measure 22
0010
1000
0100
1001
,  // measure 23
0010
0100
0001
1010
,  // measure 24
0001
0100
0010
1001
,  // measure 25
1000
0000
0100
0000
,  // measure 26
1000
0000
0010
0000
,  // measure 27
0100
0000
0001
0000
,  // measure 28
0010
0001
0011
0000
,  // measure 29
0001
0001
0010
0010
,  // measure 30
0001
0001
0010
0010
,  // measure 31
0100
0100
1000
1000
,  // measure 32
0100
0100
1000
1000
,  // measure 33
0001
1001
1000
1001
,  // measure 34
0001
1001
1000
1001
,  // measure 35
0010
0110
0100
0110
,  // measure 36
0010
0110
0100
0110
,  // measure 37
1000
1010
0100
0101
,  // measure 38
0001
0011
0100
1100
,  // measure 39
1000
1010
0100
0101
,  // measure 40
0001
0011
0100
1100
,  // measure 41
0001
1000
0001
1000
,  // measure 42
0010
0100
0001
0010
,  // measure 43
0100
1000
0010
0100
,  // measure 44
1000
0010
0100
0001
,  // measure 45
0010
0001
1000
0010
,  // measure 46
0100
0001
1000
0001
,  // measure 47
0010
1000
0010
0001
,  // measure 48
0010
0001
0100
1000
,  // measure 49
0100
0101
0000
0101
,  // measure 50
0100
1010
0000
1010
,  // measure 51
0100
1001
0010
1001
,  // measure 52
0100
1001
0010
2002
,  // measure 53
3003
0000
0000
0000
;
