#TITLE:Digital Love;
#SUBTITLE:;
#ARTIST:Daft Punk;
#GENRE:Electronica;
#TITLETRANSLIT:;
#SUBTITLETRANSLIT:;
#ARTISTTRANSLIT:;
#CREDIT:;
#BANNER:digilove.png;
#BACKGROUND:digilove-bg.png;
#LYRICSPATH:;
#CDTITLE:;
#MUSIC:digilove.ogg;
#OFFSET:0.000;
#SAMPLESTART:0.008;
#SAMPLELENGTH:13.294;
#SELECTABLE:YES;
#BPMS:0.000=130.000,208.000=125.000,210.000=115.000,212.000=110.000,214.000=100.000,216.000=75.000;
#STOPS:;
#BGCHANGES:;

//---------------dance-single - Shorty----------------
#NOTES:
     dance-single:
     Shorty:
     Hard:
     9:
     0.619,0.654,0.429,0.373,0.172:
0000
0000
0000
0000
,
0000
0000
0000
0000
,
1000
1000
0001
0010
0100
0000
1001
0100
,
0001
1000
0010
2000
0001
0000
3100
0000
,
1001
0000
0101
0000
0000
1001
0000
0000
1010
0000
0010
0000
0100
0000
0002
0000
,
0010
0013
0001
1000
2200
0000
3310
0000
,
1000
0010
0001
0020
0000
0130
0001
1000
,
0100
0010
0001
0100
0001
0010
0110
0000
,
0100
1000
0010
1000
0100
0010
0001
1000
,
0001
0000
0100
0000
1000
0000
0100
0000
0002
0000
2000
0000
0020
3003
0000
0000
,
1031
0000
0001
1000
0010
0000
1000
0001
0100
0000
0010
0000
1001
0000
1100
0000
,
0010
0000
0001
0100
0001
0000
0010
0001
0010
0000
0100
0000
1100
0000
1001
0000
,
0010
0000
1000
0001
0100
0000
0010
0100
0010
0000
1000
0000
0101
0000
1001
0000
,
0010
0000
0100
0010
0001
0000
1000
0001
1000
0000
0010
0000
1010
0000
1001
0000
,
0200
0001
0010
0002
0000
0010
0000
0020
,
0303
0000
1000
0000
0001
1000
0031
0000
,
0200
1000
0010
2000
0000
0010
0000
0020
,
3300
0000
1000
0000
0001
0100
0031
0000
,
1000
0001
1001
0000
0100
0001
0101
0000
,
1000
0000
0010
0000
1010
0000
0000
0000
0100
0000
0001
1000
0000
0001
1000
0000
,
0100
0010
0012
0000
0103
0010
2010
0000
,
3001
0000
1000
0000
1100
0000
0000
0000
0010
0000
0001
1000
0000
0100
1000
0000
,
0010
0100
1001
0000
0010
0100
1010
0000
,
0100
0000
0010
0000
1001
0000
0000
0000
0010
0000
0100
1000
0000
1000
0010
0000
,
0200
0000
0001
0300
0101
0000
0000
0000
0002
0000
1000
0003
0101
0000
0000
0000
,
0020
0000
1000
0030
0110
0000
0000
0000
0100
0000
0001
0010
0000
0100
0010
0000
,
0001
0010
0100
1000
0010
0001
0010
1000
,
0002
0000
0200
0000
1000
0010
1303
0000
,
0001
1000
0100
0010
1000
0010
0001
1000
,
0010
0000
0100
0001
1000
0000
0010
0000
0100
0000
0001
0010
0001
0000
0100
0000
,
0010
1000
0001
0010
0100
1000
0001
1000
,
0200
0000
2000
0000
0010
0001
3310
0000
,
0100
0100
1000
0100
0010
0010
0100
0002
,
0100
0000
1003
0000
0001
0100
0010
0001
,
2000
0010
3010
1000
0001
0100
0001
1001
,
1000
0000
0001
0100
0010
0000
1000
0000
0001
0000
0010
0000
0100
0000
0000
0000
,
1000
1000
0010
1000
0001
0001
2000
0200
,
0000
3000
1000
0300
0100
0010
0001
0000
,
1000
0010
0100
0001
1000
0010
1000
0001
0010
0100
1000
0001
0100
0001
2000
0000
,
0001
0000
3200
0000
1300
0001
1001
0000
,
0100
0001
0010
0001
1000
0100
0010
1000
,
0010
0001
0100
0010
2000
0002
0010
3003
,
1001
1000
0100
0000
0011
0001
0100
0000
,
1010
0000
0010
0000
1000
0000
0000
0000
0100
0000
0010
0001
0000
0001
0100
0000
,
0110
0010
1000
0000
1100
0100
0010
0000
,
0011
0000
0001
0000
1000
0000
0000
0000
0010
0000
1000
0001
0000
0001
0100
0000
,
0101
0000
0001
0000
2000
0000
0100
3000
1100
0000
1000
0000
0002
0000
0010
0003
,
0011
0000
0001
0000
0200
0000
0010
0300
0110
0000
0100
0001
0000
1000
0001
0000
,
1001
0000
1000
0000
0200
0000
0010
0300
0110
0000
0010
0000
0002
0000
0100
0003
,
0101
0000
0100
0000
0020
0000
1000
0030
1010
0000
1000
0001
0000
0001
0010
0000
,
0100
1000
0100
0020
0000
0001
0000
0200
,
0000
0030
0000
0000
1000
0000
0000
0000
1000
0000
0000
0000
0310
0000
0000
0000
,
0001
0100
0010
1000
0001
1000
0000
1001
,
0000
0000
0100
0001
1000
0000
0100
0000
0010
0000
0100
1000
0020
0000
0000
0030
,
1001
0000
0000
0000
;

//---------------dance-single - Shorty----------------
#NOTES:
     dance-single:
     Shorty:
     Easy:
     4:
     0.305,0.378,0.224,0.140,0.000:
0000
0000
0000
0000
,
0000
0000
0000
0000
,
0010
0001
0200
0300
,
0010
0100
1001
1001
,
0010
0100
2000
3000
,
0001
0100
1010
1010
,
0001
0010
0002
0003
,
1000
0100
0010
0001
,
0100
0001
2000
3000
,
0010
1001
0100
0100
,
0010
1000
0010
0000
,
0100
0001
0010
0000
,
0100
1000
0001
0100
,
0010
1010
0011
0000
,
0010
0100
0001
0000
,
1000
0100
0010
0001
,
1000
0001
0100
0000
,
1010
0101
1001
0000
,
0100
1000
0000
0000
0001
0010
0000
0000
,
0001
0100
0000
0000
0001
0000
0010
0000
,
0100
0010
0000
0000
0001
0010
0000
0000
,
0100
1000
0000
0000
0010
0000
1000
0000
,
0001
1000
0000
0000
0100
1000
0000
0000
,
0010
1000
0000
0000
0001
0000
0100
0000
,
0010
0100
0000
0000
0001
0100
0000
0000
,
0001
0010
0000
0000
0100
0000
1000
0000
,
0010
1001
1002
0103
,
0010
1001
2001
3010
,
0100
0001
1000
0010
,
2000
0100
0002
3003
,
1000
2100
3001
0101
,
0002
1003
1100
1001
,
0010
0001
0100
0100
,
0010
0100
0110
0000
,
0001
0010
0100
1000
,
0001
0100
0010
2000
,
3001
1000
0010
0100
,
0002
0010
0100
0013
,
0001
1000
2100
0000
,
3001
1000
1010
0000
,
0100
0010
2010
0000
,
3001
1000
1100
0000
,
0001
0100
0000
0000
0010
1000
0000
0000
,
0100
0010
0000
0000
0001
0000
1000
0000
,
0010
1000
0000
0000
0001
0100
0000
0000
,
0001
0010
0000
0000
0100
0000
1000
0000
,
0010
1000
0000
0000
0001
0100
0000
0000
,
0010
0100
0000
0000
0001
0000
0010
0000
,
0100
1000
0000
0000
1000
0010
0000
0000
,
0010
0100
0000
0000
0001
0000
0010
0000
,
0200
0000
0010
0010
,
1000
0000
0010
0000
,
0301
0100
1000
0001
,
1000
0010
0100
0001
,
1001
0000
0000
0000
;

//---------------dance-single - Shorty----------------
#NOTES:
     dance-single:
     Shorty:
     Medium:
     5:
     0.328,0.327,0.186,0.121,0.000:
0000
0000
0000
0000
,
0000
0000
0000
0000
,
1000
0002
0100
0000
1000
0000
0103
0000
,
0001
1000
1100
0000
,
1000
0002
0100
0000
0010
0000
0100
0000
,
0013
0001
0101
0000
,
0001
1000
0000
0100
1000
0000
1010
0000
,
0100
0001
0012
1003
,
0001
0010
0100
0000
1000
0000
0001
0000
,
0100
0001
1100
0011
,
0100
0001
0100
1000
,
0100
0000
1001
0000
0010
0100
0010
0000
,
0001
1000
0010
0001
,
0010
1000
0110
0001
,
1000
0010
0100
0000
0001
0000
0011
0000
,
0001
1000
0100
0000
2000
0000
0100
0000
,
3001
1000
0001
0001
,
0200
0001
0310
1000
,
0001
0010
0000
0000
0100
1000
0000
0000
,
0010
0100
0000
0000
0001
0000
0010
0000
,
0001
1000
0000
0000
0100
0010
0000
0000
,
0001
0010
0000
0000
0100
0000
1001
0000
,
0100
0010
0000
0000
1000
0001
0000
0000
,
0010
0100
0000
0000
1000
0000
0101
0000
,
0001
1000
0100
0000
1000
0000
1001
0000
,
0100
0001
1000
0000
0010
0000
0100
0000
,
0001
0010
0100
1000
,
0020
0100
0130
0110
,
0100
0001
0010
0100
,
2000
0001
3001
1001
,
1000
0001
0100
0000
0001
0000
0010
0000
,
0200
1000
0310
0110
,
1000
0010
0100
0000
0001
0000
0010
0000
,
0200
0010
0301
0101
,
0100
1000
0010
1000
,
0001
0100
0001
0010
,
0200
0300
0100
1001
,
0100
0010
0100
0000
,
0001
0010
1000
0010
,
0100
1000
0010
0000
,
0200
0300
0100
1001
,
0010
0001
1000
0100
,
1000
0001
0000
0000
0001
1000
0000
0000
,
1000
0001
0000
0000
0100
0000
0100
0000
,
0010
1000
0000
0000
1000
0100
0000
0000
,
0100
0010
0000
0000
0001
0000
0001
0000
,
1000
0100
0000
0000
1000
0010
0000
0000
,
0100
0010
0000
0000
1000
0000
0001
0000
,
0100
0001
1000
0000
0010
0000
1001
0000
,
0100
0001
1000
0000
0100
0000
0010
0000
,
0001
0010
0100
0010
,
0002
0000
1000
1003
,
1001
0000
1000
0010
,
0200
0300
0001
0010
,
0100
0000
0000
0000
;
