#TITLE:Destination;
#SUBTITLE:;
#ARTIST:Renard;
#TITLETRANSLIT:;
#SUBTITLETRANSLIT:;
#ARTISTTRANSLIT:;
#CREDIT:;
#BANNER:destination.img;
#BACKGROUND:destination-bg.img;
#LYRICSPATH:;
#CDTITLE:;
#MUSIC:destination.ogg;
#OFFSET:0.000;
#SAMPLESTART:9.580;
#SAMPLELENGTH:12.000;
#SELECTABLE:YES;
#BPMS:0.000=400.000;
#STOPS:288.000=4.500
,290.000=2.100
;
#BGCHANGES:;
#GENRE:Abstract Speed;

//---------------dance-single - Renard----------------
#NOTES:
     dance-single:
     Renard:
     Challenge:
     14:
     1.000,1.000,0.359,0.095,0.032: // measure 1
0000
0000
0000
0000
,  // measure 2
0000
0000
0000
0000
,  // measure 3
0000
0000
0000
0000
,  // measure 4
0000
0000
0000
0000
,  // measure 5
0000
0000
0000
0000
,  // measure 6
0000
0000
0000
0000
,  // measure 7
0000
0000
0000
0000
,  // measure 8
0000
0000
0000
0000
,  // measure 9
1000
0100
0010
0001
,  // measure 10
0010
0100
1000
0010
,  // measure 11
0110
0000
0101
0000
,  // measure 12
0001
0100
0010
1000
,  // measure 13
0100
1000
0010
0100
,  // measure 14
0001
1000
0010
0100
,  // measure 15
0001
0100
0010
1000
0010
0100
0001
0100
,  // measure 16
0010
1000
0100
0010
0001
0010
0100
1000
,  // measure 17
0001
0100
0001
1000
,  // measure 18
0100
0000
1000
0000
0001
0100
0001
0000
,  // measure 19
1000
0000
0100
0000
1000
0001
1000
0000
,  // measure 20
0001
0100
0001
0100
0001
0000
1000
0000
,  // measure 21
0100
1000
0100
1000
0100
1000
0100
0000
,  // measure 22
0010
0001
0010
0100
,  // measure 23
1000
0000
0001
0000
0100
0001
0100
0000
,  // measure 24
0001
1000
1001
1001
,  // measure 25
2100
0100
0100
31MM
,  // measure 26
MM12
0010
0010
0013
,  // measure 27
0001
0000
0010
0001
0010
0000
0001
0100
,  // measure 28
0001
0000
0001
0100
0000
0100
0010
0000
,  // measure 29
1000
0000
0001
0000
1000
0001
1000
0000
,  // measure 30
0001
0100
0001
1000
0001
0000
1000
0000
,  // measure 31
0001
0100
0010
1000
,  // measure 32
0100
1000
0100
0010
0001
0010
0100
1000
,  // measure 33
0002
0000
0103
0100
,  // measure 34
0010
1000
0010
1000
0010
0000
0100
0000
,  // measure 35
0001
1000
0001
0000
0100
0001
0100
0000
,  // measure 36
0010
1000
0010
1000
0002
0000
1000
0000
,  // measure 37
0100
0000
0100
0000
0103
0000
0001
0100
,  // measure 38
0001
0100
0001
0000
0100
0000
0010
0000
,  // measure 39
1000
0000
0100
1000
0001
0000
0100
0001
,  // measure 40
1000
0000
1001
0000
,  // measure 41
1000
0100
0010
0001
0010
0100
1000
0100
,  // measure 42
0010
0001
1000
0010
0100
0001
0100
0010
,  // measure 43
1000
1000
0001
0001
,  // measure 44
0101
0000
0000
0000
0010
1000
0010
0000
,  // measure 45
1000
0100
1000
0000
0001
0010
0001
0000
,  // measure 46
1000
0010
1000
0000
0001
0100
0001
0000
,  // measure 47
1000
0100
1000
0000
0001
0010
0001
0000
,  // measure 48
1001
M00M
0000
0000
,  // measure 49
1001
0000
1000
0100
1000
0000
0001
0010
,  // measure 50
0100
1000
0001
0010
0001
0000
1000
0000
,  // measure 51
0100
0010
0001
0010
0100
1000
0001
0100
,  // measure 52
0001
1000
0100
1000
0001
0000
1000
0000
,  // measure 53
0001
0001
0100
0100
,  // measure 54
0010
0010
1000
1000
,  // measure 55
0101
0100
0000
0100
,  // measure 56
0110
0000
1010
0000
,  // measure 57
0001
0100
0010
1000
0100
0010
0001
0010
,  // measure 58
0100
1000
0010
0100
0001
1000
0001
1000
,  // measure 59
0001
0100
0010
1000
,  // measure 60
0200
0000
1300
0100
,  // measure 61
1000
0000
0100
0000
0010
0000
0001
0010
,  // measure 62
0001
0000
0010
0000
0100
0000
1000
0100
,  // measure 63
1000
0001
1000
0001
1000
0000
0001
0000
,  // measure 64
1002
M000
0000
0000
,  // measure 65
0103
0010
1000
0100
0010
0001
0010
0100
,  // measure 66
1000
0010
0100
0001
0100
0010
1000
0100
,  // measure 67
0010
0001
0010
0100
,  // measure 68
1000
0001
1000
0000
0001
0000
0100
0000
,  // measure 69
0010
0000
0010
0000
1000
0100
1000
0000
,  // measure 70
0001
0010
0001
0100
,  // measure 71
1010
1000
0000
1000
,  // measure 72
1010
0000
0000
0000
0000
0000
0000
0000
0101
0000
0000
0000
0000
0000
0000
000000
,  // measure 73
2002
0000
0000
0000
0000
0000
0000
0000
3013
0000
0000
0000
0000
0000
0000
0000
,  // measure 74
1000
0000
0100
0000
0010
0000
0001
1000
,  // measure 75
0001
0000
0010
0000
0100
0000
1000
0001
,  // measure 76
1000
0000
0100
0000
0010
0000
0001
1000
,  // measure 77
0001
0000
0010
0000
0100
0000
1000
0001
,  // measure 78
1000
0000
0010
0000
0100
0000
0001
1000
,  // measure 79
0001
0000
0100
0000
0010
0000
1000
0001
,  // measure 80
1000
0000
0001
0000
0100
0000
0010
1000
,  // measure 81
0001
0100
0001
0000
1000
0100
1000
0000
,  // measure 82
0001
0010
0001
0000
0010
0000
0100
0000
,  // measure 83
1000
0100
1000
0000
0100
0000
0010
0000
,  // measure 84
0001
0010
0001
0000
0010
0000
0100
0000
,  // measure 85
1000
0100
1000
0000
0100
0000
1000
0000
,  // measure 86
0010
0000
0100
0001
0100
0000
0001
0000
,  // measure 87
0100
0000
0010
1000
0010
1000
0010
0000
,  // measure 88
0100
0000
0001
0100
0001
0100
0001
0000
,  // measure 89
1000
0100
0010
0010
,  // measure 90
0001
0010
0011
0010
,  // measure 91
0100
0110
0100
1000
,  // measure 92
1100
0000
1010
0000
,  // measure 93
1001
0000
0101
0000
,  // measure 94
1000
0100
1000
0100
1000
0100
1000
0000
,  // measure 95
0001
0010
0001
0100
,  // measure 96
0010
1000
0100
0010
,  // measure 97
0001
0010
0100
1000
0001
0010
0100
1000
,  // measure 98
0001
0010
0001
0010
0001
0100
0001
0100
,  // measure 99
0001
1000
0001
1000
0010
1000
0010
1000
,  // measure 100
0201
0001
0010
0010
,  // measure 101
1000
0000
1300
0000
0110
0000
0000
0010
,  // measure 102
0100
0010
0100
0000
0001
0100
0001
0000
,  // measure 103
1000
0100
1000
0000
0010
0100
0010
0000
,  // measure 104
0100
0001
0100
0000
0010
1000
0010
0000
,  // measure 105
1000
0100
0010
0001
1000
0000
0000
0000
,  // measure 106
0001
0010
0100
1000
0010
0100
0001
0100
,  // measure 107
0010
1000
0100
0010
0001
0100
0010
1000
,  // measure 108
0001
0000
0000
0000
,  // measure 109
0000
0000
0000
0000
,  // measure 110
0000
0000
0000
0000
,  // measure 111
0000
0000
0000
0000
,  // measure 112
1000
0100
0010
0001
1000
0010
0100
0001
,  // measure 113
1000
0010
0100
0001
0100
0000
0010
0000
,  // measure 114
1000
0100
1000
0001
0010
0001
1000
0010
,  // measure 115
1000
0001
0010
0001
0010
0100
1000
0001
,  // measure 116
1000
0000
0100
1000
0100
0000
1000
0001
,  // measure 117
0010
0000
0001
0100
0001
0000
1000
0100
,  // measure 118
1000
0100
0010
0001
1000
0000
0001
0000
,  // measure 119
1001
0000
0000
0000
,  // measure 120
1000
0100
1000
0001
0010
0001
1000
0100
,  // measure 121
0010
0001
0010
0100
1000
0010
0100
0001
,  // measure 122
0100
0001
0100
0000
0010
1000
0010
0000
,  // measure 123
0100
0001
1000
0100
1000
0000
0001
0000
,  // measure 124
1000
0100
1000
0000
0001
0000
0010
0000
,  // measure 125
0001
0010
0001
0000
1000
0000
0100
0000
,  // measure 126
0011
0011
0000
0101
,  // measure 127
0101
0000
1001
0000
,  // measure 128
1000
0100
0010
0001
0100
0010
1000
0100
,  // measure 129
0010
0001
0100
0010
1000
0001
0100
0010
,  // measure 130
1000
0000
0010
1000
0010
0000
0100
0001
,  // measure 131
0100
0000
0001
1000
0100
0000
1001
0000
,  // measure 132
1000
0100
1000
0100
1000
0000
0001
0010
,  // measure 133
0001
0010
0001
0000
1000
0001
1000
0000
,  // measure 134
0001
0100
0001
0100
0001
0000
1000
0010
,  // measure 135
1010
M0M0
0000
0000
0000
0000
0000
0000
,  // measure 136
0001
0000
0100
0001
0100
0000
0001
0000
,  // measure 137
1000
0100
1000
0000
0001
0000
0100
0001
,  // measure 138
1000
0100
0010
0000
0100
1000
0001
0000
,  // measure 139
0010
0001
1000
0100
0010
0000
0100
0000
,  // measure 140
1000
0100
0010
0001
0100
0010
1000
0010
,  // measure 141
0100
0001
0100
0010
1000
0100
0010
0001
,  // measure 142
0100
0000
0000
0000
;
