#TITLE:Definition of a BadBoy (Forevolution Mix);
#SUBTITLE:;
#ARTIST:Hardcore Authority;
#TITLETRANSLIT:;
#SUBTITLETRANSLIT:;
#ARTISTTRANSLIT:;
#CREDIT:;
#BANNER:bad.img;
#BACKGROUND:bad-bg.img;
#LYRICSPATH:;
#CDTITLE:;
#MUSIC:bad.ogg;
#OFFSET:0.000;
#SAMPLESTART:71.785;
#SAMPLELENGTH:10.000;
#SELECTABLE:YES;
#BPMS:0.000=173.803;
#STOPS:;
#BGCHANGES:;
#GENRE:Trancecore;

//---------------dance-single - Renard----------------
#NOTES:
     dance-single:
     Renard:
     Hard:
     9:
     0.631,0.594,0.424,0.103,0.124: // measure 1
0000
0000
0000
0000
,  // measure 2
0000
0000
0000
0000
,  // measure 3
0000
0000
0000
0000
,  // measure 4
0000
0000
0000
0000
,  // measure 5
1000
0001
0100
0000
0102
0000
1003
0000
,  // measure 6
1000
0010
0100
0001
0100
0000
0010
0000
,  // measure 7
1000
0100
0010
0000
0210
0000
0001
0000
,  // measure 8
1300
0100
0001
0100
0001
0100
0001
0M0M
,  // measure 9
0100
1000
0010
0000
0201
0000
0010
0000
,  // measure 10
0310
0100
1000
0100
0001
0100
0010
0000
,  // measure 11
1000
0001
0100
0000
0100
0001
1000
0010
,  // measure 12
0100
0010
0100
0010
0100
0000
1MM1
0000
,  // measure 13
0010
0001
0100
0000
1020
0000
0100
0000
,  // measure 14
0130
0010
0001
0010
1000
0010
0100
0000
,  // measure 15
0210
0000
0000
0000
,  // measure 16
M301
0010
1000
0010
0100
0000
0000
0000
,  // measure 17
0010
0000
0000
0001
0000
0000
1000
0000
0100
0000
0000
0010
0000
0000
0001
0000
,  // measure 18
1000
0000
0000
0010
0000
0000
0100
0000
0001
0000
0000
0100
0000
0000
0010
0000
,  // measure 19
1000
0000
0000
0100
0000
0000
0010
0000
1000
0000
0000
0010
0000
0000
0100
0000
,  // measure 20
1000
0000
0000
0001
0000
0000
0010
0000
0100
0000
0000
0001
0000
0000
0100
0000
,  // measure 21
0010
0000
0000
0001
0000
0000
0100
0000
0010
0000
0000
1000
0000
0000
0001
0000
,  // measure 22
1000
0000
0000
0010
0000
0000
0100
0000
0001
0000
0000
0100
0000
0000
0010
0000
,  // measure 23
1000
0000
0000
0100
0000
0000
1000
0000
0001
0000
0000
0100
0000
0000
0010
0000
,  // measure 24
0101
0M0M
0000
0000
0000
0000
0000
0000
,  // measure 25
1000
0100
0001
0100
0001
0000
0101
0000
,  // measure 26
0100
1000
0010
0100
0001
0100
0010
0000
,  // measure 27
0001
0010
0001
0010
1000
0000
1010
0000
,  // measure 28
0001
0100
0010
0000
2010
0000
3001
M00M
,  // measure 29
0001
0010
1000
0010
1000
0000
1010
0000
,  // measure 30
0010
0001
0100
0010
1000
0010
0100
0000
,  // measure 31
1000
0100
1000
0100
0001
0000
0101
0000
,  // measure 32
1000
0010
0100
0000
0102
0000
1003
M00M
,  // measure 33
0101
0000
0000
0110
0000
0000
1100
0000
,  // measure 34
0000
0110
0000
0000
0101
0000
1001
0000
,  // measure 35
1010
0000
0000
1100
0000
0000
0101
0000
,  // measure 36
0000
0110
0000
0000
0011
0000
1100
0000
,  // measure 37
1001
0000
0000
0101
0000
0000
0110
0000
,  // measure 38
0000
1010
0000
0000
1100
0000
0110
0000
,  // measure 39
0011
0000
0000
0110
0000
0000
1010
0000
,  // measure 40
1000
0010
0001
0000
0101
0000
1001
0000
,  // measure 41
0100
0010
0100
0MM0
0010
0100
0010
0MM0
,  // measure 42
0100
0010
0100
0MM0
0010
0100
0010
0MM0
,  // measure 43
1000
0000
0000
0001
0000
0000
0100
0000
0010
0000
0000
1000
0000
0000
0100
0000
,  // measure 44
0001
0000
0100
2000
0020
0000
3030
0000
,  // measure 45
1000
0000
0000
0001
0000
0000
0100
0000
0010
0000
1000
0000
0001
0000
0100
0000
,  // measure 46
0010
0000
0000
1000
0000
0000
0001
0000
0100
0000
0010
0000
1000
0000
0001
0000
,  // measure 47
1000
0000
0000
0100
0000
0000
0010
0000
0001
0000
1000
0000
0100
0000
0010
0000
,  // measure 48
0001
0000
0000
1000
0000
0000
0100
0000
0010
0000
0001
0000
1000
0000
0100
0000
,  // measure 49
1000
0000
0000
0100
0000
0000
0001
0000
1000
0000
0010
0000
0001
0000
0010
0000
,  // measure 50
0001
0000
0000
0100
0000
0000
1000
0000
0001
0000
0010
0000
1000
0000
0010
0000
,  // measure 51
1000
0000
0000
0100
0000
0000
0001
0000
1000
0000
0010
0000
0001
0000
0010
0000
,  // measure 52
0001
0100
0101
0M0M
1100
MM00
0000
0000
,  // measure 53
0100
0010
1000
0100
0010
0001
0100
0001
,  // measure 54
1000
0010
0100
0001
1000
0001
0010
0100
,  // measure 55
0010
0100
1000
0010
0100
0001
1000
0100
,  // measure 56
1000
0010
0100
0001
0010
0100
0010
0001
,  // measure 57
1000
0100
1000
0010
1000
0001
0010
0100
,  // measure 58
0010
0001
1000
0010
0100
0001
1000
0100
,  // measure 59
0010
0001
0100
0010
1000
0100
0010
0001
,  // measure 60
1000
0000
0000
0000
1001
0000
0000
0000
1010
0000
M0M0
0000
0001
0000
1000
0001
,  // measure 61
1000
0010
0100
0001
0100
0010
1000
0100
,  // measure 62
0010
0001
0100
0010
1000
0100
1000
0001
,  // measure 63
0010
0001
0100
0010
1000
0100
0010
0001
,  // measure 64
0010
0000
0102
0M00
1000
M003
1000
0001
,  // measure 65
1000
0010
0100
0001
1000
0100
1000
0010
,  // measure 66
0100
0001
0010
0100
1000
0100
0010
0001
,  // measure 67
1000
1000
0100
0010
0001
MMMM
0000
0001
,  // measure 68
0001
0010
0100
1000
1000
0000
0000
0000
;

//---------------dance-single - Renard----------------
#NOTES:
     dance-single:
     Renard:
     Medium:
     7:
     0.436,0.454,0.062,0.031,0.000:
0000
0000
0000
0000
,
0000
0000
0000
0000
,
0000
0000
0000
0000
,
0000
0000
0000
0000
,
1000
0001
1000
0000
2000
0000
0000
0000
,
0010
0000
0010
0000
0010
3000
0000
0000
,
0001
1000
0001
0000
0002
0000
0000
0000
,
0100
0100
0103
0000
,
1000
0000
0010
0000
0100
0000
0001
0010
,
0000
0010
0100
0000
1000
0000
0010
0000
,
0100
0000
0001
0000
1000
0000
0100
0010
,
0000
0010
0100
0000
1000
0000
0001
0000
,
0010
0001
1000
0100
,
0010
0000
0001
1000
0010
1000
0001
0000
,
0200
0000
0000
0000
0000
0000
0000
0300
,
0010
1000
0100
0010
0001
0000
0000
0000
,
0001
0000
0010
0000
0100
0000
1000
0010
,
1000
0000
0010
0000
0100
0000
0001
0010
,
0001
0000
0010
0000
0100
0000
1000
0010
,
1000
1001
1010
1100
,
0001
0000
0010
0000
0001
0000
0100
0010
,
1000
0100
0010
0001
,
0100
0010
1000
0100
,
0010
0001
0010
0100
1000
0000
0000
0000
,
0001
1000
0010
0100
0001
0000
1000
0000
,
0100
0010
0001
0010
,
0100
1000
0010
0100
0001
0000
1000
0000
,
0100
1000
0010
0010
,
1000
0100
1000
0100
1000
0000
0100
0000
,
1000
0001
0001
0010
,
0001
0000
0100
0010
1000
0000
0100
0000
,
1000
1000
0001
1001
,
1000
0000
1000
0010
0000
0010
0100
0000
,
0001
0100
0010
1000
,
0100
0000
0100
0010
0000
0010
0001
0000
,
0100
0010
1000
0000
,
0100
0000
0100
0010
0000
0010
0001
0000
,
1000
0100
0001
0100
,
1000
0000
1000
0010
0000
0010
0001
0000
,
0010
1000
0100
0000
,
0100
1000
0100
1000
,
0100
1000
0100
1000
,
0100
1000
0100
1000
,
0100
1000
0100
1000
0100
0000
0000
0000
,
0100
0000
1000
0000
0010
0000
0100
0001
,
0100
0100
0010
0010
,
1000
0000
0100
0000
0010
0000
0001
0100
,
0001
0100
0010
1000
,
0100
0000
0010
0100
0010
0000
0100
0010
,
0100
1000
0010
0010
,
0100
0000
0001
0010
0001
0000
0100
0000
,
0010
1000
1100
0000
,
0100
1000
0010
0100
,
0001
0000
0010
0001
0010
0001
0010
0000
,
0001
0100
0010
1000
,
0100
1000
0010
0000
0010
0000
0010
0000
,
0100
0001
0010
0000
0001
0000
0100
0000
,
0010
0000
1000
0100
1000
0100
1000
0000
,
0100
0000
1000
0000
0010
0000
0100
0001
,
1000
0100
1000
0001
,
0100
0010
1000
0100
,
0010
0000
0001
0010
0001
0000
0010
0000
,
0100
1000
0001
1000
,
0100
0010
0100
1000
,
0010
0100
0001
0100
1000
0000
0100
0000
,
0010
1000
0100
0010
,
0001
0010
0001
0010
0001
0000
0000
0000
,
0001
1000
0100
0000
0011
0000
0000
0000
;

//---------------dance-single - Renard----------------
#NOTES:
     dance-single:
     Renard:
     Easy:
     5:
     0.359,0.419,0.083,0.062,0.000:
0000
0000
0000
0000
,
0000
0000
0000
0000
,
0000
0000
2002
0000
,
0000
0000
3003
0000
,
1000
0010
2002
0000
,
0000
0000
3003
0000
,
0001
0010
2002
0000
,
0000
0000
3003
0000
,
1000
0010
0100
0001
,
1000
0000
0100
1000
0000
1000
0001
0000
,
0100
0010
1000
0100
,
0010
0000
0001
0100
0000
0100
0001
0000
,
1000
0000
0100
1000
0100
0000
0100
0000
,
1000
0000
0010
0100
0010
0100
0001
0000
,
0100
0000
0000
0000
,
0010
1000
0001
1000
0001
0000
0000
0000
,
0001
1000
0010
0100
,
0001
0000
0001
0000
,
1000
0100
0010
0001
,
1000
0000
1000
0000
,
0010
0100
0001
1000
,
0100
0000
0100
0000
,
1000
0010
0100
0000
,
0001
1000
0001
1000
0001
0000
0000
0000
,
1000
0000
0001
0000
1000
0000
0010
0100
,
0000
0001
0010
0100
,
1000
0000
0010
0000
0100
0000
0001
1000
,
0000
0100
1000
0010
,
0100
0000
0001
0000
0010
0000
0100
1000
,
0000
1000
0010
0100
,
0001
0000
0010
0000
0100
0000
1000
0001
,
0000
0001
0001
0000
,
1000
0000
0000
0010
0000
0000
0100
0000
,
0000
0001
0000
0000
1000
0000
0000
0000
,
0100
0000
0000
0010
0000
0000
0001
0000
,
0000
0010
0000
0000
0100
0000
0000
0000
,
1000
0000
0000
0100
0000
0000
0001
0000
,
0000
0100
0000
0000
1000
0000
0000
0000
,
1000
0000
0000
0010
0000
0000
0001
0000
,
0000
0010
0000
0000
1000
0000
0000
0000
,
0100
1000
0001
0100
,
0001
1000
0100
1000
,
0001
0010
0001
1000
,
0010
0000
0000
0000
,
1000
0001
0100
0001
,
1000
0010
1000
0001
,
0010
0001
0100
0001
,
1000
0100
1000
0001
,
0100
0001
0010
0001
,
1000
0100
1000
0010
,
1000
0001
0100
0010
,
0100
0001
0100
0000
,
0010
1000
0100
1000
,
0010
0100
0001
0010
,
0001
1000
0100
1000
,
0010
0100
0101
0110
,
0101
0010
1000
0100
,
0010
0001
0010
0100
,
1000
0010
1000
0001
,
0100
0010
1000
0100
,
1000
0010
0100
0001
,
0100
0000
0001
0100
0001
0000
0001
0000
,
0100
0010
1000
0100
,
1000
1010
1100
1000
,
0010
0100
0001
0010
,
0001
0000
0100
0001
0100
0000
0010
0000
,
1000
0100
0010
0000
,
0001
1000
0001
1000
0001
0000
0000
0000
;

//---------------dance-single - Renard----------------
#NOTES:
     dance-single:
     Renard:
     Challenge:
     11:
     0.733,0.768,0.062,0.021,0.476:
0000
0000
0000
0000
,
0000
0000
0000
0000
,
0000
0000
0000
0000
,
0000
0000
0000
0000
,
1000
0000
0000
1000
0001
0000
0100
0000
0020
0000
0000
0000
0000
0000
0000
0000
,
1000
0000
0100
0000
0001
0000
0100
0030
,
0101
0000
0000
0100
0010
0000
1000
0000
0100
0000
0000
0000
0010
0000
0001
0000
,
0010
0000
0100
1000
0100
0000
1000
0000
0010
0000
0000
0000
0100
0000
0000
0000
,
0001
0000
0000
0001
0100
0000
0010
0000
1000
0000
0100
0000
0010
0000
0001
0000
,
0010
0000
0000
0010
0100
0000
1000
0000
0010
0000
0100
0001
0100
0000
0001
0000
,
0100
0000
0000
0100
0010
0000
1000
0000
0100
0000
0010
0000
0001
0000
1000
0000
,
0000
0001
1000
0000
0010
0100
0010
0000
,
0100
0100
0100
0100
0001
0000
0010
0000
,
0100
1000
0010
0010
0010
0010
0010
0000
,
0200
0000
0000
0000
,
0010
0010
0010
0010
0310
0000
0000
0000
,
0010
0000
0000
0010
1000
0000
0100
0000
0010
0000
0000
0010
0001
0000
1000
0000
,
0100
0000
0000
1000
0010
0000
0100
0000
0001
0000
0000
0010
0100
0000
1000
0000
,
0001
0000
0000
0100
0010
0000
1000
0000
0001
0000
0000
0100
0010
0000
1000
0000
,
0100
0000
0000
0010
0001
0000
0010
0000
0100
0000
0000
1000
0010
0000
0100
0000
,
0001
0000
0000
0010
0100
0000
1000
0000
0010
0000
0000
0100
0001
0000
0010
0000
,
0100
0000
0000
1000
0001
0000
0100
0000
0010
0000
0000
1000
0100
0000
0010
0000
,
0001
0000
0000
0010
0100
0000
1000
0000
0010
0000
0100
0000
0001
0000
0100
0000
,
0010
0010
0010
0010
0010
0000
0000
0000
,
1000
0000
0010
0000
0100
0000
0001
0000
0010
0000
0000
0010
0001
0000
0000
0000
,
0010
0100
1000
0010
0100
0010
0100
0000
,
0001
0000
1000
0001
1000
0000
0001
0000
0010
0000
0000
0000
0100
0000
0000
0000
,
1000
0010
0100
0000
0110
0000
0101
0000
,
1001
0000
1000
0100
0000
0100
0010
0001
,
0010
0000
0100
0000
1000
0000
0001
1000
0001
0000
1000
0000
0010
0000
0100
0000
,
0001
0000
0001
0010
0000
0010
0100
1000
,
0001
0000
1000
0001
1000
0000
0001
0000
0100
0000
0000
0000
0100
0000
0000
0000
,
0010
0000
0000
0000
0010
0000
1000
0000
0000
0000
1000
0000
0100
0000
0010
0001
,
0010
0000
0001
0000
0010
0000
0100
0000
1000
0000
0001
1000
0001
0000
1000
0000
,
0010
0000
0010
0100
0000
0100
0001
0000
,
1000
0000
0100
1000
0100
0000
0010
0000
0001
0000
0010
0001
0010
0000
0001
0000
,
0100
0000
0100
0010
0000
0010
1000
0000
,
0100
0000
0010
0100
0010
0000
0100
0000
1000
0000
0001
1000
0001
0000
1000
0000
,
0010
0000
0010
0100
0000
0100
0001
0000
,
0010
0000
0100
0010
0100
0000
1000
0000
0010
0000
0100
0000
0001
0000
0100
0000
,
0010
0010
0010
0010
,
1000
0010
1000
0010
1000
0010
1000
0001
,
0100
0001
0100
0001
1000
0001
1000
0001
,
1000
0001
0001
0000
,
1000
0000
0001
0100
0000
0010
1000
0000
0100
0000
0010
0001
0000
0010
0100
0000
,
1000
0000
0001
0010
0000
0100
1000
0000
0010
0000
0100
0001
0000
0100
0010
0000
,
1000
0000
0100
0010
0000
0001
0010
0000
0100
0000
1000
0010
0000
0100
0001
0000
,
0010
0000
0100
0010
0000
0001
1000
0000
0010
0000
0100
0001
0000
0100
0010
0000
,
1000
0000
0100
0010
0000
0001
0010
0000
0100
0000
1000
0010
0000
0100
0001
0000
,
0100
0000
0010
1000
0000
0100
0010
0000
0001
0000
0010
0100
0000
1000
0010
0000
,
0100
0000
0001
0010
0000
0100
1000
0000
0010
0000
0100
0000
0001
0000
0100
0000
,
0010
1000
0010
0000
0010
0000
0000
0000
,
1000
0000
1000
0100
0000
0100
0010
0000
0001
0000
0010
0000
0100
0000
1000
0001
,
0100
0000
0001
0100
0000
0100
0010
0000
1000
0000
0001
0000
0010
0000
0100
0010
,
0100
0000
0100
1000
0000
1000
0010
0000
0100
0000
0001
0010
0001
0000
0010
0000
,
0001
0000
0001
0100
0000
0100
0001
0000
1000
0000
0100
1000
0100
0000
0010
0000
,
0001
0000
0010
0001
0000
0001
0010
0000
0100
0000
0010
0001
0010
0000
0100
0000
,
1000
0000
1000
0010
0000
0010
0100
0000
0001
0000
0100
0001
0100
0000
0010
0000
,
1000
0001
0100
0010
1000
0100
0010
0001
,
0010
0000
0100
0000
0110
0000
0000
0000
1001
0000
0000
0000
0001
0000
1000
0001
,
1000
0000
1000
0010
0000
0010
0100
0000
0001
0000
0010
0001
0010
0000
0001
0000
,
0010
0000
0010
0100
0000
0100
1000
0000
0010
0000
0100
0001
0100
0000
0001
0000
,
0100
0000
0100
0010
0000
0010
1000
0000
0100
0000
0010
0000
0001
0000
1000
0001
,
1000
0000
0010
1000
0010
0000
1000
0001
1000
0000
0001
0100
0001
0000
0100
0000
,
0001
0000
0010
0000
0010
0000
0100
0000
1000
0000
0010
0100
0000
0001
0100
0000
,
0010
0000
1000
0000
0100
0000
0100
0000
0010
0000
0001
0010
0000
0100
1000
0000
,
0010
0100
0001
0100
0010
0000
0000
1000
,
0100
0001
0010
1000
0100
0000
0000
0000
;
