#TITLE:Dare to be Stupid;
#SUBTITLE:;
#ARTIST:'Weird Al' Yankovic;
#GENRE:Synth Rock;
#TITLETRANSLIT:;
#SUBTITLETRANSLIT:;
#ARTISTTRANSLIT:;
#CREDIT:;
#BANNER:stupid.png;
#BACKGROUND:stupid-bg.png;
#LYRICSPATH:;
#CDTITLE:;
#MUSIC:stupid.ogg;
#OFFSET:-0.000;
#SAMPLESTART:20.627;
#SAMPLELENGTH:12.000;
#SELECTABLE:YES;
#BPMS:0.000=180.000;
#STOPS:;
#BGCHANGES:;

//---------------dance-single - Renard----------------
#NOTES:
     dance-single:
     Renard:
     Hard:
     9:
     0.741,0.633,0.406,0.042,0.016:
0000
0000
0000
0000
,
0000
0000
0000
0000
,
0000
0000
0000
0000
,
0000
0000
0000
0000
,
1000
0001
0010
0010
0001
1000
0010
0010
,
1000
0001
0100
0010
1000
0001
0100
0010
,
1000
0100
1000
0010
0100
0001
0010
0100
,
1000
0100
0010
0100
0001
0100
1000
0010
,
0100
0001
0100
0000
0101
0000
1010
0000
,
1000
0100
1000
0000
1100
0000
0011
0000
,
1000
0001
0100
0000
1001
0000
1010
0000
,
1000
0010
0100
0001
0100
0010
1000
0100
,
0010
0001
0010
0001
0010
0000
1001
0000
,
1000
0100
1000
0100
1000
0000
1100
0000
,
1000
0010
0100
0001
1000
0000
1001
0000
,
1000
0100
1000
0001
0010
0001
1000
0001
,
1000
0100
0010
0001
1000
0100
0010
0001
,
1000
0100
0010
0001
1000
0100
0010
0001
,
1000
0010
0100
0001
1000
0010
0100
0001
,
1000
0010
0100
0001
1000
0010
0100
0001
,
1000
0100
1000
0010
1000
0001
1000
0010
,
1000
0100
1000
0010
1000
0001
1000
0010
,
0001
0010
1000
0000
0001
0100
1000
0000
,
1000
0100
0001
0000
1000
0010
0001
0000
,
1001
0000
0100
1000
0001
0010
0001
1000
,
0100
1000
0001
0010
0001
1000
0100
0000
,
1000
0010
0100
0001
0100
0010
1000
0100
,
1000
0010
0100
0001
0100
0010
1000
0000
,
0001
0100
0001
0000
1000
0100
1000
0000
,
0001
0010
0001
0000
1000
0010
1000
0001
,
0100
0100
0010
0000
1000
1000
0010
0000
,
1000
0010
0100
1001
0000
0110
0000
0000
,
1000
1000
0001
0001
0100
0100
0001
0001
,
0010
0010
0001
0001
0100
0100
0001
0001
,
1000
1000
0100
0100
0010
0010
0100
0100
,
0001
0001
0100
0100
0010
0010
0100
0100
,
1000
1000
0010
0010
0100
0100
0010
0010
,
0001
0001
0010
0010
0100
0100
0010
0000
,
1010
0100
1001
0010
,
0001
0100
0010
1000
0000
0101
0000
0000
,
1010
0100
1001
0010
,
0001
0100
0010
1000
0000
1001
0000
0100
,
0010
1000
0010
0000
0100
0001
0100
0000
,
0010
1000
0100
0010
0000
1001
0000
0000
,
0001
0010
0001
0000
1000
0100
1000
0000
,
1000
0010
0100
0001
0000
1010
0000
0000
,
0001
0100
0010
1000
0001
0100
0010
1000
,
0001
0100
0010
1000
0001
0100
0010
1000
,
0001
0010
0100
1000
0001
0010
0100
1000
,
0001
0010
0100
1000
0001
1000
0001
1000
,
0010
0100
0001
1000
0100
1000
0010
0100
,
0001
1000
0100
1000
0010
0100
1001
0000
,
1000
0000
0100
1000
0100
0000
1000
0000
0010
0000
0100
0000
0001
0000
0000
0000
,
1000
0000
0001
0010
0001
0000
1000
0000
0010
0000
0100
0000
0001
0000
0000
0000
,
1000
0000
0100
1000
0100
0000
1000
0000
0010
0000
0100
0000
0001
0000
0000
0000
,
0001
0001
0010
0010
0100
0100
1000
1000
,
0100
1000
0010
1000
0100
1000
0010
0100
,
0001
0010
0001
0100
0001
0010
0001
0100
,
0010
1000
0010
0001
0010
1000
0010
0001
,
1000
0100
0001
0100
1000
0100
0001
0100
,
0010
1000
0100
0010
0100
1000
0001
0010
,
0100
0010
0001
1000
0100
1000
0001
0010
,
0001
0000
0020
0002
0033
0011
0000
0000
,
1000
0000
0200
2000
3300
1100
0000
0000
,
1010
0100
0011
0100
,
1001
0000
1000
0010
0100
0001
0010
0000
,
1001
0100
1010
0100
,
1001
0000
1000
0010
0100
0001
0010
0000
,
1001
0100
1010
0100
,
1001
0000
0100
0010
1000
0100
0010
0000
,
1001
0010
0101
0010
,
1001
1010
1001
0101
0000
1001
0000
0000
;

//---------------dance-single - Renard----------------
#NOTES:
     dance-single:
     Renard:
     Medium:
     6:
     0.422,0.484,0.031,0.000,0.000:
0000
0000
0000
0000
,
0000
0000
0000
0000
,
0000
0000
0000
0000
,
0000
0000
0000
0000
,
0000
0000
0000
0000
,
0000
0000
0000
0000
,
0000
0000
0000
0000
,
1000
0000
0001
1000
0001
0000
0001
0000
,
1000
0010
0000
0000
,
0001
0000
0100
0010
0000
0000
0000
0000
,
1000
0100
0000
0000
,
0010
0000
0010
0001
0000
0001
0010
0000
,
0100
1000
0000
0000
,
0001
0000
0100
0010
0000
0000
0000
0000
,
1000
0001
0000
0000
,
0100
0000
0100
0010
0000
0010
1000
0000
,
0001
0100
0001
1000
,
0100
1000
0100
1000
0000
0010
0000
0000
,
0100
0001
0100
0010
,
1000
0100
0010
0001
,
0100
0001
1000
0001
,
1000
0001
1000
0001
0000
1000
0000
0000
,
0010
0100
0010
0010
,
1000
0100
1000
0010
,
0100
0000
0100
0000
0001
0000
1000
0001
,
1000
0001
0000
1000
0000
0000
0010
0000
,
0100
0000
0001
0000
0010
0000
0100
1000
,
0100
1000
0000
0001
0000
0000
0100
0000
,
0010
0000
1000
0000
0001
0000
0100
0001
,
0100
0000
0001
1000
0000
0000
0010
0000
,
0100
0100
0001
1000
,
0100
0000
0100
1000
0000
1000
0001
0000
,
0100
0010
1000
0001
,
0101
1000
0100
1000
,
0010
0100
0001
0100
,
1010
0100
0001
0010
,
0100
0000
1000
0001
1000
0000
0001
1000
,
0001
0000
1000
0010
1000
0000
0100
0001
,
0100
0010
1000
0100
,
1000
0010
0100
0001
0000
1000
0000
0000
,
0010
0100
0001
1000
,
0001
1000
0001
1000
0000
0010
0000
0000
,
0100
0001
1000
0100
,
1000
0001
1000
0001
0000
1000
0000
0000
,
0010
0100
0001
1000
,
0100
1000
0100
1000
0000
0010
0000
0000
,
0100
0000
0001
0100
0001
0000
0100
0000
,
0010
1000
0000
0010
0000
0000
0100
0001
,
1000
0100
1000
0001
,
0100
0100
0010
1000
,
0001
0000
0100
0001
0100
0001
0000
0100
,
0010
1000
0000
0001
0000
0100
0010
0000
,
1000
0001
1000
0000
1000
0000
1000
0000
,
0001
1000
0001
0000
0001
0000
0001
0000
,
0100
0010
0100
0000
0010
0000
0010
0000
,
1000
0000
1000
0000
0001
0100
0001
0000
,
0100
0100
0010
1000
,
0001
0100
0001
0100
0000
0010
0000
0000
,
1000
0100
0010
0001
,
1000
0100
1000
0100
0000
1000
0000
0000
,
0010
0100
0001
1000
,
0001
0100
0001
0000
0001
0000
1000
0000
,
0100
1000
0100
0000
0000
0000
0000
0000
,
1000
0100
1000
0000
0000
0000
0010
0000
,
0100
0001
1000
0001
,
0100
0000
0001
0100
0000
0001
0000
0000
,
1000
0100
0010
0001
,
1000
0000
0010
0100
0000
0100
0001
0000
,
1000
0100
0010
0001
,
1000
0000
0100
0010
0000
0001
0010
0000
,
0100
1000
0010
0100
,
0001
1000
0001
1000
0000
1001
0000
0000
;

//---------------dance-single - Renard----------------
#NOTES:
     dance-single:
     Renard:
     Easy:
     4:
     0.371,0.335,0.083,0.052,0.000:
0000
0000
0000
0000
,
0000
0000
0000
0000
,
0000
0000
0000
0000
,
0000
0000
0000
0000
,
1000
1000
0001
0001
,
1000
0010
0100
0001
,
1000
1000
0001
0001
,
2000
0000
0000
0000
,
3001
0100
0001
0000
,
1000
0100
1100
0000
,
0001
0100
0001
0000
,
1000
0100
1100
0000
,
1000
0100
1000
0000
,
0001
0100
0101
0000
,
1000
0100
1100
0000
,
0001
0100
0001
1000
,
0001
0010
0001
1000
,
0010
1000
0001
0000
,
0100
0001
1000
0100
,
1000
0010
0100
0000
,
0001
0010
0200
0000
,
1300
0010
0200
0000
,
0301
0100
0010
1000
,
0001
0010
0001
0100
,
0010
0010
1000
1000
,
0001
0001
0100
0100
,
0010
0010
1000
1000
,
0100
0100
0010
0010
,
0001
1000
0001
0100
,
0001
1000
0100
1000
,
0010
0100
0001
1000
,
0100
0010
0001
0010
,
0100
0100
1000
1000
,
0010
0010
0100
0100
,
0001
0001
1000
0100
,
0010
0010
0001
0001
,
1000
0010
0100
0001
,
1000
1000
0010
0010
,
0100
0100
0001
0001
,
1000
0000
0001
0000
,
1000
1000
0010
0100
,
0001
0001
1000
0000
,
0001
0100
0010
1000
,
0001
0001
1000
0000
,
0010
0100
0001
1000
,
0001
0001
0100
0000
,
0010
0000
0010
1000
,
0001
0000
0100
0001
,
1000
0000
0100
1000
,
0001
0000
0010
0001
,
1000
0000
0010
1000
,
0001
0000
0010
1001
,
0010
0000
0100
0001
,
1000
0000
0010
0100
,
0001
0000
1000
0100
,
2000
0000
0002
3000
,
1003
1000
0001
0100
,
0010
0010
1000
0100
,
0010
0010
0001
0100
,
0001
0001
0100
0010
,
0100
0100
0010
1000
,
0100
0100
1000
0010
,
1000
0000
1010
0000
,
0001
0000
0101
0000
,
1000
0001
0100
0010
,
1000
1000
0001
0001
,
0100
0010
1000
0100
,
0010
0010
0001
0010
,
0100
0100
1000
0001
,
0100
0100
0010
1000
,
0100
0100
0010
0001
,
1000
0000
0000
0010
0000
1001
0000
0000
;
