#TITLE:Creation;
#SUBTITLE:;
#ARTIST:MGD Assault Force;
#GENRE:Electronic Orchestra;
#TITLETRANSLIT:;
#SUBTITLETRANSLIT:;
#ARTISTTRANSLIT:;
#CREDIT:;
#BANNER:;
#BACKGROUND:;
#LYRICSPATH:;
#CDTITLE:;
#MUSIC:creation.ogg;
#OFFSET:0.000;
#SAMPLESTART:22.727;
#SAMPLELENGTH:12.000;
#SELECTABLE:YES;
#BPMS:0.000=190.086;
#STOPS:;
#BGCHANGES:;

//---------------dance-single - Renard----------------
#NOTES:
     dance-single:
     Renard:
     Challenge:
     14:
     1.000,1.000,0.955,0.174,1.000: // measure 1
0000
0000
0000
0000
,  // measure 2
0000
0000
0000
0000
,  // measure 3
0000
0000
0000
0000
,  // measure 4
0000
0000
0000
0000
,  // measure 5
1100
0000
2200
0011
0000
3311
0000
2200
,  // measure 6
0011
3300
0000
0000
,  // measure 7
0011
0000
0011
1100
0000
1100
0000
0220
,  // measure 8
1001
0000
0330
0000
,  // measure 9
1010
0000
0202
1010
0000
0000
0303
0000
,  // measure 10
0011
0000
2200
0011
0000
0000
3300
0000
,  // measure 11
0110
0000
2002
0110
0000
0000
3003
0000
,  // measure 12
1001
0000
0220
1001
0000
0000
0330
0000
,  // measure 13
1011
0000
1110
0000
,  // measure 14
1101
0000
0111
0000
,  // measure 15
1011
1101
1011
1101
,  // measure 16
1000
1000
0001
0001
1001
1000
1001
0001
,  // measure 17
1000
0100
0010
0001
0010
0100
1000
0001
0010
0100
1000
0100
0010
0001
1000
0100
,  // measure 18
0010
0000
0100
0000
1000
0000
0001
0100
0001
1000
0001
1000
0001
0000
0000
0000
,  // measure 19
1000
0000
0100
0010
0001
0000
0010
0100
1000
0000
0001
0100
0001
1000
0010
0100
,  // measure 20
0001
0000
0100
0010
1000
0000
0010
0100
0001
0000
1000
0000
1000
0000
0000
0000
,  // measure 21
0100
0000
0010
0001
0010
0000
0100
1000
0100
0000
1000
0010
0100
0001
1000
0100
,  // measure 22
1000
0000
0001
0010
0001
0000
0100
0010
1000
0000
0001
0000
1001
0000
0000
0000
,  // measure 23
1000
0000
0100
1000
0100
0000
0010
0001
0010
0000
0001
0100
0001
0100
0010
1000
,  // measure 24
0010
0000
1000
0100
1000
0000
0001
0010
0001
0000
0100
0010
0100
0000
0010
1000
,  // measure 25
0010
0000
0100
0000
0001
0000
1000
0100
0010
0000
0001
0010
0100
1000
0001
0100
,  // measure 26
0010
0000
1000
0010
0100
0000
0001
1000
0001
0100
0001
0000
1000
0000
0101
0000
,  // measure 27
1010
0000
0100
0001
0100
0000
0010
1000
0010
0000
0100
0010
1000
0010
0100
0001
,  // measure 28
0010
0000
0100
1000
0100
0000
0010
0001
0010
0100
1000
0000
0001
0000
0100
0000
,  // measure 29
0010
0000
1000
0010
1000
0000
0001
0100
0001
0000
1000
0001
0100
0001
1000
0100
,  // measure 30
1000
0000
0001
0010
0100
0000
1000
0100
1000
0000
1000
0000
0001
0000
0001
0000
,  // measure 31
1000
0000
0100
1000
0100
0000
0010
0001
0010
0000
0100
1000
0001
0100
0001
0100
,  // measure 32
0010
0000
1000
0000
0001
0000
0100
0001
1000
0000
0100
1000
0001
0000
0100
0001
,  // measure 33
1000
0000
0100
0010
0001
0000
0010
0100
1000
0000
0001
0100
0010
1000
0001
1000
,  // measure 34
0001
0000
0100
0001
1000
0000
0001
1000
0100
0000
1000
0001
1000
0001
1000
0000
,  // measure 35
0001
0100
0010
1000
0100
0010
0001
0010
1000
0010
0100
1000
0010
0100
0001
0000
,  // measure 36
0101
0000
0100
0000
0110
0000
1000
0010
1000
0000
0010
0000
0100
0000
0001
0000
,  // measure 37
0101
0000
0001
0000
1001
0000
0001
1000
0001
0000
1000
0000
0100
0000
0010
0000
,  // measure 38
0011
0000
0010
0000
0110
0000
0100
1000
0100
0000
0010
0000
0001
0000
0100
0000
,  // measure 39
0001
0100
0001
0100
0001
0000
0100
0000
0010
0000
1010
0000
1001
0000
0000
0000
,  // measure 40
0101
0000
0010
0000
1000
0000
0001
0100
0001
0000
0100
0000
0110
0000
0010
0000
,  // measure 41
1010
0000
1000
0000
1100
0000
0010
0001
0010
0000
0100
1000
0010
0100
0001
0000
,  // measure 42
0101
0000
0100
0000
0110
0000
0010
1000
0010
0000
0100
0001
0100
0000
0101
0000
,  // measure 43
0110
0000
0010
0000
1000
0000
0100
1000
0100
0000
0011
0000
0100
0000
1010
0000
,  // measure 44
1001
0000
0001
0100
0001
0100
0001
0000
1001
0000
1000
0100
1000
0100
1000
0000
,  // measure 45
1001
0000
0001
0010
0001
0010
0001
0000
1001
0000
1000
0010
1000
0010
1000
0000
,  // measure 46
1001
0000
1000
0100
0010
0001
0010
0000
1001
0000
0100
1000
0100
0010
0001
0000
,  // measure 47
1001
0000
0010
0100
1000
0100
0010
0000
1001
0000
0001
0010
0100
1000
0100
0000
,  // measure 48
0011
0000
0100
1000
0010
0100
0001
0000
0101
0000
0001
0100
0010
1000
0100
0000
,  // measure 49
1100
0000
0010
0001
0010
0100
1000
0000
1010
0000
0010
0100
0001
0100
0010
0000
,  // measure 50
1010
0000
1000
0100
1000
0001
0100
0000
0101
0000
0001
0100
0010
1000
0100
0000
,  // measure 51
1000
0100
1100
0000
0000
0000
0010
0001
0010
0001
0011
0000
0000
0000
0001
1000
,  // measure 52
0001
1000
0100
1000
0001
0100
0001
1000
0100
1000
0001
0010
0100
1000
0010
0100
,  // measure 53
0001
0100
0001
1000
0100
1000
0010
1000
0001
0010
0001
0100
0010
1000
0100
1000
,  // measure 54
0001
0010
0001
1000
0100
1000
0010
0100
0001
0010
0100
1000
0010
0100
0001
0100
,  // measure 55
0010
1000
0100
1000
0001
0010
0001
0100
0010
1000
0100
1000
0001
0010
0100
0000
,  // measure 56
1001
0000
0001
0100
0010
1000
0100
0001
0100
0010
0001
0010
0100
1000
0010
0100
,  // measure 57
0001
0100
1000
0100
0010
1000
0010
0001
0010
0100
1000
0100
0001
0010
0100
1000
,  // measure 58
0100
0001
0100
0010
0100
1000
0100
1000
0010
0100
0001
0100
0010
1000
0010
0000
,  // measure 59
1010
1001
0000
0202
1313
0000
1101
0000
,  // measure 60
0001
0000
0100
0001
0100
0000
0001
1000
0100
0000
1000
0010
0100
0001
0010
0100
,  // measure 61
1000
0000
0010
0100
0001
0000
0100
0010
1000
0000
0100
1000
0001
0010
0001
1000
,  // measure 62
0100
0000
1000
0010
0100
0000
0001
0100
0010
0000
1000
0001
1000
0001
0100
0010
,  // measure 63
1000
0000
0100
1000
0001
0000
0010
0001
1000
0000
0010
1000
0001
0100
0010
1000
,  // measure 64
0100
0000
0010
0001
0010
0000
0100
1000
0010
0000
0100
0001
0100
0010
1000
0100
,  // measure 65
1000
0000
0001
0010
0001
0000
0100
0010
1000
0000
0100
0010
0001
0010
0100
1000
,  // measure 66
0010
0000
0100
0001
0100
0000
0001
0010
0001
0000
0010
0100
0010
0100
1000
0010
,  // measure 67
0100
0000
0001
0100
0010
0000
1000
0100
0010
0000
0100
1000
0010
0100
0001
0100
,  // measure 68
0001
0000
0100
0001
0100
0000
0001
1000
0001
0000
1000
0100
1000
0000
0001
0000
,  // measure 69
0101
0110
1010
1100
0110
0011
0110
1001
,  // measure 70
1000
0000
0000
0100
0000
0000
1000
0000
0000
0100
0000
0000
1100
0000
0000
0000
0000
0000
0001
0000
0000
0010
0000
0000
0001
0000
0000
0010
0000
0000
0011
0000
0000
0000
0000
0000
1000
0000
0001
0000
1000
0000
0001
0000
1000
0000
0001
0000
,  // measure 71
1000
0100
0010
0001
0010
0100
1000
0001
1000
0000
0000
0000
1111
0000
0000
0000
;
