#TITLE:Countdown to Mayhem;
#SUBTITLE:;
#ARTIST:Hecate and Kitsune²;
#TITLETRANSLIT:;
#SUBTITLETRANSLIT:;
#ARTISTTRANSLIT:;
#CREDIT:;
#BANNER:mayhem.img;
#BACKGROUND:mayhem-bg.img;
#LYRICSPATH:;
#CDTITLE:;
#MUSIC:mayhem.ogg;
#OFFSET:-0.056;
#SAMPLESTART:14.800;
#SAMPLELENGTH:12.000;
#SELECTABLE:YES;
#BPMS:0.000=143.125;
#STOPS:;
#BGCHANGES:;
#GENRE:Combat Music;

//---------------dance-single - Renard----------------
#NOTES:
     dance-single:
     Renard:
     Challenge:
     9:
     0.749,0.794,0.524,0.072,0.596: // measure 1
0000
0000
0000
0000
0000
0000
0000
MMMM
,  // measure 2
1MM1
MMMM
0000
0000
0000
0000
0000
0000
,  // measure 3
0000
0000
0000
0000
,  // measure 4
0000
0000
0000
0000
,  // measure 5
0000
0000
0000
0000
,  // measure 6
1000
0000
0001
0000
1000
0000
0001
0000
0100
0001
0000
0001
0100
0000
0001
0000
,  // measure 7
1000
0100
1000
0001
0100
0001
1001
0000
,  // measure 8
1000
0000
0001
0000
1000
0000
0001
0000
1000
0100
0000
0100
1000
0000
0001
0000
,  // measure 9
1MM1
0000
0000
0000
0000
0000
0000
0000
0000
0000
0000
0000
1000
0001
1000
0000
,  // measure 10
0001
0000
0100
0000
0001
0000
1000
0001
0000
1000
0001
0000
0100
0000
0010
0000
,  // measure 11
1000
0000
0100
0000
0010
0000
0001
1000
0000
0001
0000
0100
0000
0010
1000
0000
,  // measure 12
0010
0100
0001
1000
1001
0001
0100
0001
,  // measure 13
1000
0000
0100
0000
1000
0000
0001
0100
0000
0010
0100
0000
1001
0000
0000
0000
,  // measure 14
1000
0000
0010
0000
1000
0000
0001
1000
0000
0001
1000
0000
0010
0000
0100
0000
,  // measure 15
0001
0000
0010
0000
0100
0000
1000
0001
0000
1000
0000
0010
0000
0100
0001
0000
,  // measure 16
0100
0010
1000
0001
1001
1000
0010
1000
,  // measure 17
2MM2
0000
0MM0
0000
0MM0
0000
3MM3
0000
1010
0000
0101
0000
1000
0001
0000
0000
,  // measure 18
1000
0000
0000
1000
0100
1000
0100
0000
0000
0100
0010
0100
0010
0000
0000
0001
,  // measure 19
1000
0000
0000
0001
0100
0001
0100
0000
0001
0000
0000
1000
0100
1000
0100
0000
,  // measure 20
0010
0000
0000
0010
0001
0010
0001
0000
0000
0010
0100
0010
0100
0000
0000
0100
,  // measure 21
1000
0000
0000
0001
0010
0001
0100
0000
0001
0000
0000
1000
0010
1000
0100
0000
,  // measure 22
1000
0000
0001
0000
1000
0010
0000
0100
0001
0000
1000
0100
0000
0010
0001
0010
,  // measure 23
0001
0001
1000
0100
0010
0010
0100
1000
,  // measure 24
0001
0000
0010
0000
0100
1000
0000
0001
0010
0000
0001
1000
0000
0010
0100
0020
,  // measure 25
0000
0000
0000
0000
0030
0000
0000
0000
1000
0001
0000
0001
1000
0000
0001
0000
,  // measure 26
1100
0000
1000
0000
1010
0000
0100
0001
0000
1000
0001
0000
1000
0000
0100
0000
,  // measure 27
0010
0000
0100
0000
1000
0000
0001
0000
0010
0000
0100
0010
0100
0000
0010
0000
,  // measure 28
0011
0000
0001
0000
0101
0000
0100
0010
0000
0010
1000
0000
0001
0000
0100
0000
,  // measure 29
0010
0000
1000
0000
0010
0000
0100
0000
0001
0000
1001
0000
0000
1010
0000
0000
,  // measure 30
0101
0000
0100
0000
0010
0000
1000
0010
0000
0100
0001
0000
0100
0000
0010
0000
,  // measure 31
1000
0000
0100
0000
0010
0000
0001
0010
0001
0000
0010
0000
0100
0000
1000
0000
,  // measure 32
0010
0000
0100
0000
0001
0000
1000
0010
0000
0010
1000
0000
0001
0000
0200
0000
,  // measure 33
0000
0000
0010
0000
0310
0000
0000
0000
0000
0000
1001
0000
0000
1010
0000
0000
,  // measure 34
0011
0000
0001
0010
0001
0000
0010
0100
0000
0100
0010
0000
0100
0000
1000
0000
,  // measure 35
0010
0000
1000
0010
1000
0000
0001
0100
0001
0100
0010
0000
0010
0000
1000
0000
,  // measure 36
0010
0000
0010
0000
0100
0001
0100
0000
0001
1000
0001
0000
1000
0001
1000
0001
,  // measure 37
0100
0000
0010
1000
0010
0000
0100
0001
0100
0001
1000
0001
1000
0000
0000
0000
,  // measure 38
0001
0100
0001
0100
0001
0000
0100
0000
0010
1000
0010
1000
0010
0000
1000
0000
,  // measure 39
0010
0000
0010
0000
0100
0000
0100
0000
0001
1000
0001
0100
0001
0000
0100
0000
,  // measure 40
0010
1000
0010
0100
0001
0100
0001
1000
0100
0010
0001
1000
0100
1000
0001
0010
,  // measure 41
0100
0M00
0000
0000
0000
0000
0000
0000
,  // measure 42
1010
0000
0100
0000
0001
0000
0010
0100
0000
0110
0000
0100
1000
0000
0010
0000
,  // measure 43
1010
0000
0100
0000
0001
0100
0001
0000
1010
0000
0010
0000
0110
0000
0100
0000
,  // measure 44
0101
0000
0010
0000
1000
0000
0100
0000
0010
0000
0001
0010
0001
0000
0010
0000
,  // measure 45
0110
0100
1100
0000
0011
0010
0110
0000
,  // measure 46
1100
0000
1000
0000
0010
0000
0100
0000
0001
0100
0001
0000
1000
0000
0010
0000
,  // measure 47
1010
0010
0110
0000
0101
0001
1001
0000
,  // measure 48
1010
0000
0100
0000
0001
0000
0100
0010
0000
0010
1000
0010
0100
0000
0001
0000
,  // measure 49
1000
0100
0000
0100
0010
0000
0010
0001
1000
0001
1000
0000
0001
1000
0000
0000
,  // measure 50
1001
0000
0100
0000
0010
0000
1000
0010
0000
0010
0100
0000
0001
0000
0100
0000
,  // measure 51
1010
0100
0001
0011
0010
0100
1100
1000
,  // measure 52
0010
0000
0100
0000
0001
0000
0100
0010
0000
1010
0000
0100
0001
0000
0100
0000
,  // measure 53
1010
1000
0100
0110
0010
0001
0101
0100
,  // measure 54
0010
0000
1000
0001
1000
0000
0001
0100
0000
0100
0010
0000
1000
0000
0010
0000
,  // measure 55
0110
0000
0100
0000
0101
0000
0001
0000
1001
0000
0000
1010
0000
0000
0101
0000
,  // measure 56
1000
0000
0100
0000
0010
0000
0001
1000
0000
0001
0100
0000
0010
0000
1000
0000
,  // measure 57
MMM2
0000
0000
0000
0000
0000
MMM3
0000
0100
0000
1010
0000
0000
0101
0000
0000
,  // measure 58
2002
3003
0000
0000
;

//---------------dance-single - Renard----------------
#NOTES:
     dance-single:
     Renard:
     Hard:
     9:
     0.593,0.615,0.175,0.000,0.252:
0000
0000
0000
0000
,
1001
0000
0000
0000
,
0000
0000
0000
0000
,
0000
0000
0000
0000
,
0000
0000
0000
0000
,
1000
0001
0100
0010
1000
0010
0100
0001
,
0100
0010
1000
0100
0010
0010
0001
0001
,
0010
0100
1000
0010
0100
0001
0100
0000
,
1001
0000
0000
0000
0000
0000
0000
0000
0000
0000
0000
0000
1000
0010
0000
0000
,
0100
0001
0100
0010
1000
0010
0100
0001
,
1000
0000
0100
0000
0010
0000
0001
1000
0000
0010
0000
0100
0001
0000
0100
0000
,
0010
1000
0100
0010
0100
0010
0100
0010
,
0100
0000
1000
0000
0010
0000
0100
0001
0000
0100
0000
0010
1000
0000
0010
0000
,
0100
0001
0100
0010
1000
0010
0100
0001
,
0010
0000
0100
0000
1000
0000
0001
0100
0000
0010
0000
1000
0010
0000
0100
0000
,
0010
0100
0001
0100
0010
1000
0100
0010
,
1001
0000
0000
0000
0000
0000
0000
0000
1000
0000
0010
0000
0100
0001
0000
0000
,
1000
0000
0010
0000
0100
0000
0001
0100
,
0010
0000
1000
0000
0010
0000
0100
0001
,
1000
0000
0100
0000
0010
0000
0001
0010
,
0100
1000
0010
0100
,
0001
0000
0100
0000
0010
0000
1000
0000
0010
0000
0100
0000
0001
0000
0100
0010
,
0000
1000
0010
0100
0001
0010
0100
1000
,
0010
0000
0100
0000
0001
0000
1000
0000
0100
0000
0010
0000
0001
0000
1000
0001
,
0000
0000
0000
0000
0000
0000
0000
0000
1000
0000
0010
0000
0100
0001
0000
0000
,
0100
0010
1000
0010
0100
0001
0100
0010
,
1000
0100
0010
0001
0010
0100
0010
0001
,
0010
0000
0100
0000
1000
0000
0010
0100
0000
0010
0100
0000
0010
0000
0100
0000
,
0001
0000
0100
0000
0010
0000
1000
0000
0010
0000
1000
0000
0000
1010
0000
0000
,
1001
0000
0100
0010
1000
0010
0100
0001
,
0010
0000
0100
0000
1000
0000
0001
0000
0100
0000
0001
0100
0000
0001
0100
0000
,
0010
1000
0100
0010
0001
0010
0100
1000
,
0010
0000
0000
0000
0000
0000
0000
0000
0000
0000
1001
0000
0000
1010
0000
0000
,
0101
0000
0100
0010
1000
0100
0010
0000
,
0001
0000
0010
0000
0100
1000
0100
0000
,
1000
0000
0010
0000
0100
0000
0001
0000
0100
0001
0000
0100
0001
0000
0100
0000
,
0010
0000
1000
0000
0010
0000
1000
0000
0010
1000
0010
1000
0010
0000
1000
0000
,
0010
0000
0100
0000
0001
0000
0100
0000
0001
0100
0001
0100
0001
0000
0000
0000
,
0100
0000
0010
0000
1000
0000
0100
0000
1000
0100
1000
0100
1000
0000
0100
0000
,
1000
0000
1000
0000
0010
0000
0010
0100
0000
0100
0001
0000
0001
0100
0000
0100
,
0010
0000
0000
0000
,
1000
0000
0010
0000
0100
0000
0001
0100
0000
0100
0010
0000
1000
0000
0100
0000
,
0010
0001
0010
0100
1000
0010
0100
0001
,
1000
0000
0100
0000
0010
0000
0001
1000
0000
1000
0001
0000
0010
0000
0100
0000
,
1000
0000
0010
0000
0100
0000
0001
0000
0100
0000
1010
0000
0000
0101
0000
0000
,
1000
0000
0010
0000
0100
0000
0001
0010
0000
0010
0001
0000
0010
0000
0100
0000
,
1000
0010
0100
0001
1000
0001
0100
0010
,
1000
0100
0010
0001
0010
0100
1000
0010
,
0100
0000
0001
0000
1000
0000
0010
0000
0100
0000
0101
0000
0000
1010
0000
0000
,
1010
0000
0000
0000
1000
0000
0010
0000
0100
0000
0001
0010
0001
0000
0010
0000
,
0100
0000
1000
0000
0010
0000
0100
0000
0001
0000
0000
0000
1000
0000
0100
1000
,
0100
0000
1000
0000
0010
0000
0100
0000
0001
0000
0000
0000
0010
0000
0100
0010
,
0100
0000
1000
0000
0010
0000
0100
0000
0001
0000
1000
0001
0000
1000
0001
0000
,
1000
0000
0010
0000
0100
0000
0001
0000
0010
0000
0100
0000
1000
0000
0010
1000
,
0010
0000
1000
0000
0010
0000
0100
0000
0001
0000
0001
0100
0000
0100
0010
0000
,
1000
0010
0100
0001
1000
0100
1000
0001
,
1010
0000
0000
0000
0000
0000
0000
0000
0010
0000
0101
0000
0000
1010
0000
0000
,
1001
0000
0000
0000
;

//---------------dance-single - Renard----------------
#NOTES:
     dance-single:
     Renard:
     Medium:
     7:
     0.426,0.468,0.175,0.000,0.103:
0000
0000
0000
0000
,
1001
0000
0000
0000
,
0000
0000
0000
0000
,
0000
0000
0000
0000
,
0000
0000
0000
0000
,
1000
0000
1000
0001
1000
0000
0001
1000
,
0001
0000
1000
0001
1000
1000
0001
0001
,
1000
0000
0001
1000
0001
1000
0001
0000
,
1001
0000
0000
1001
,
0010
0100
0010
0100
0001
0100
0010
1000
,
0100
0010
0001
0010
0100
1000
0010
0000
,
1000
0000
0010
0100
0001
0000
0100
0000
,
0001
0001
1000
0001
,
0001
0010
0100
1000
0100
0010
0001
1000
,
0001
0000
1000
0000
0010
0100
0010
0000
,
1000
0000
0001
0000
0100
0001
0100
0000
,
0001
0000
0000
0000
0000
0000
0000
0000
0000
0000
1001
0000
0000
1010
0000
0000
,
0101
0000
0100
0000
0010
1000
0010
0000
,
0100
0000
0100
0000
0001
0100
0001
0000
,
1000
0000
1000
0000
0001
1000
0001
0000
,
0100
0010
1001
1010
,
0101
0000
0100
0000
0010
0000
1000
0010
,
0100
0000
0001
0000
0100
0000
0010
1000
,
0010
0000
1000
0000
0100
0000
0010
0001
,
1000
0000
0000
0000
0010
0000
0100
0100
,
0010
0100
0010
1000
0010
1000
0010
1000
,
0010
1000
0010
1000
0010
1000
0010
0000
,
0100
0001
0100
0001
0100
0001
0100
0001
,
0100
1001
0000
1010
,
0101
0000
1000
0000
0010
0000
0100
0001
,
0100
0000
0010
1000
0010
0100
0001
0100
,
0001
1000
0100
1000
0010
0100
0001
1000
,
0001
0000
0000
0000
0000
0000
0000
0000
1000
0000
0001
0000
0000
1001
0000
0000
,
1010
0100
0001
0100
,
0010
0000
0000
0000
0010
0000
0000
0010
0000
0000
0010
0000
0010
0000
0000
0000
,
1000
0100
0010
0001
,
0010
0000
0010
0000
0010
0010
0010
0000
,
0001
0000
0100
0000
0010
0100
0010
0000
,
1000
0010
1000
0010
1000
0010
1000
0010
,
1000
0000
0000
0000
1000
0000
0000
0001
0000
0000
0100
0000
0001
0000
0100
0000
,
0010
0000
0000
0000
,
1001
0000
1000
0000
0010
0100
0010
0000
,
0100
0000
0000
0000
0001
0000
0000
1000
0000
0001
0000
1000
0000
0000
0000
0000
,
0010
0000
0100
0000
0001
1000
0001
0000
,
1000
0000
0000
0000
0100
0000
0000
1000
0000
0100
0000
1000
0000
0000
0000
0000
,
0010
0000
0100
0000
0001
1000
0001
0000
,
0100
0000
0000
0000
0010
0000
0000
1000
0000
0001
0000
1000
0000
0000
0000
0000
,
0001
0000
0100
0000
0010
1000
0010
0000
,
0100
0000
0000
0000
0001
0000
0000
1000
0000
0001
0000
1000
0000
0000
0000
0000
,
0010
0000
0010
0000
0100
0001
0100
0000
,
0010
0000
0000
0000
0010
0000
0000
0000
1000
0000
0000
0100
0000
0000
1000
0000
,
0010
0000
0100
0000
0001
1000
0001
0000
,
1000
0000
0000
0000
0100
0000
0000
0000
0010
0000
0000
0001
0000
0000
1000
0000
,
0001
0000
0100
0010
1000
0010
0000
0000
,
0100
0000
0000
0000
0001
0000
0000
0000
1000
0000
0000
0100
0000
0000
0010
0000
,
0001
0000
0010
0000
0100
0000
1000
0010
,
0100
0000
0000
0000
0000
0000
0000
0000
1000
0000
0001
0000
0000
1010
0000
0000
,
0101
0000
0000
0000
;

//---------------dance-single - Renard----------------
#NOTES:
     dance-single:
     Renard:
     Easy:
     4:
     0.343,0.351,0.164,0.000,0.005:
0000
0000
0000
0000
,
1001
0000
0000
0000
,
0000
0000
0000
0000
,
0000
0000
0000
0000
,
0000
0000
0000
0000
,
1000
0001
0100
0001
,
1000
0000
0010
0000
1000
0000
0001
1000
,
0001
1000
0010
0100
,
1001
0000
0000
1000
,
0010
0100
0001
0100
,
0010
0000
1000
0000
0100
1000
0100
1000
,
1000
0010
0100
0001
,
0100
0000
0001
0000
0010
0001
0010
0001
,
0001
0010
0100
1000
,
0010
0000
0100
0000
0001
1000
0001
0001
,
1000
0000
0010
0000
0100
0000
0001
1000
,
0001
0000
0000
0000
0000
1000
0000
1000
,
0010
0100
0001
0100
,
0001
1000
0001
1000
,
0001
0100
0000
0100
0000
0100
0000
0100
,
0010
1000
0100
1000
,
0001
0000
1000
0000
0010
0000
0100
0001
,
0100
0010
1000
0100
,
1000
0010
0000
0100
0000
0001
0000
1000
,
0001
0000
0000
0000
0000
1000
0000
0001
,
1000
0010
0100
0001
,
1000
0001
1000
0001
,
0100
0001
1000
0100
,
1000
1010
0100
0011
,
0100
1001
1000
0010
,
0100
0001
0010
0100
,
1000
0010
0100
0001
,
1000
0000
0001
1000
,
0010
0100
0001
0100
,
0010
0010
0010
0010
,
1000
1000
0100
0100
,
0010
0001
0001
0001
,
1000
0001
1000
0000
0001
1000
0001
0000
,
1000
1000
0010
0010
,
0100
0000
0001
0000
1000
0000
0001
1000
,
0001
0000
0000
0000
,
1001
0010
0100
0001
,
1010
0100
0001
0000
,
0011
0100
1000
0100
,
1001
0100
1001
0010
,
1001
0100
1000
0010
,
0100
0001
0100
0010
,
1001
1000
0010
0100
,
1001
0001
0100
0010
,
1000
0000
0010
0000
0100
0000
0001
0010
,
0001
0010
0100
1000
,
0010
0000
0100
0000
0001
0000
1000
0100
,
1000
0010
0100
0001
,
0100
0000
0001
0000
1000
0000
0010
1000
,
0010
0100
0001
0010
,
0001
0000
1000
0000
0100
1000
0100
0000
,
1000
0000
0000
0000
0000
0000
0000
0000
0000
0000
1001
0000
0000
0110
0000
0000
,
1001
0000
0000
0000
;
