#TITLE:Coma;
#SUBTITLE:;
#ARTIST:Pendulum;
#TITLETRANSLIT:;
#SUBTITLETRANSLIT:;
#ARTISTTRANSLIT:;
#CREDIT:;
#BANNER:coma.img;
#BACKGROUND:coma-bg.img;
#LYRICSPATH:;
#CDTITLE:;
#MUSIC:coma.ogg;
#OFFSET:0.000;
#SAMPLESTART:47.920;
#SAMPLELENGTH:12.000;
#SELECTABLE:YES;
#BPMS:0.000=35.000;
#STOPS:;
#BGCHANGES:;
#GENRE:Ambient;

//---------------dance-single - Renard----------------
#NOTES:
     dance-single:
     Renard:
     Hard:
     8:
     0.464,0.459,0.271,0.298,0.959: // measure 1
0000
0000
0000
0000
,  // measure 2
1000
0100
0000
0000
0010
0001
0000
0000
1000
0010
0000
0000
0100
0001
0000
0000
1000
0100
0000
0000
0010
0001
0000
0000
1000
0010
0000
0000
0100
0001
0000
0000
,  // measure 3
1000
0000
0100
0000
1000
0010
0100
0002
0000
0200
0003
2000
0300
0020
0000
3000
0031
0000
0100
0000
0010
1000
0100
2000
0000
0200
3000
0002
0300
0020
0003
0000
,  // measure 4
1030
0000
0000
0001
1001
0000
0000
0000
0001
0000
0000
1000
1001
0000
0000
0000
1000
0000
0010
1000
1010
0000
0000
0000
0001
0000
0100
0001
0101
0000
1000
1000
,  // measure 5
0001
0000
0100
0000
0010
1000
0100
0020
0000
0002
0030
0200
0003
2000
0000
0300
3010
0000
0001
0000
0100
0010
1000
0200
0000
0002
0300
0020
0003
2000
0000
0030
,  // measure 6
3100
0000
0000
0000
1100
0000
0000
0000
0100
1000
0001
0010
0100
1000
0100
0010
0001
0100
0010
1000
0001
0100
0001
1000
0100
0010
0001
1000
0001
0000
0000
0000
1100
0000
0000
0000
1100
0000
0000
0000
0010
0000
0001
0000
0100
0000
0000
0000
0010
0000
0000
1000
0000
0000
0100
0000
0010
0000
0001
0000
0010
0000
0000
0000
,  // measure 7
0001
0010
0100
1000
0000
1100
1100
0000
1000
0100
0010
0001
0000
0011
0011
0000
0001
0100
0010
1000
0000
1010
1010
0000
1000
0010
0100
0001
0000
0101
0101
0000
,  // measure 8
0010
0000
1000
0000
0100
0001
0100
0010
0000
0001
0000
0010
0000
0100
1000
0000
0100
0001
0100
0000
0010
0001
0010
0100
1000
0010
0100
0001
0100
0001
0100
0000
,  // measure 9
0100
0100
0010
0010
1000
1000
0001
0001
1000
1000
0100
0100
0010
0010
0001
0001
1001
0000
1001
0000
1000
0001
1001
0000
0001
1000
1001
0000
1000
0001
1001
0000
,  // measure 10
2010
0000
0200
0000
0011
0000
3300
0000
0012
0000
0200
0000
1010
0000
0303
0000
0101
0000
0000
1010
1010
0000
0000
0000
2200
0000
0000
0011
3311
0000
0000
0000
,  // measure 11
200M
0000
0001
0001
0001
0000
0010
0000
000M
0001
0001
0000
0001
0000
0001
0000
010M
0000
0000
0001
0001
0000
0010
0000
000M
0001
0001
0000
0001
0000
3001
0000
,  // measure 12
100M
0000
0100
0010
0002
0000
0000
0000
M103
0000
0010
1000
0002
0000
0000
0000
M103
0000
0001
1000
0200
0000
0000
0000
031M
0000
0001
0010
0200
0000
0000
0000
,  // measure 13
130M
0010
0100
0001
2000
0000
0000
0000
310M
0010
0001
1000
0020
0000
0000
0000
M130
0001
1000
0100
2000
0000
0000
0000
3M01
0010
0100
1000
0002
0000
2000
0003
,  // measure 14
30M1
0000
0000
0001
1000
0000
0000
1000
00M1
0100
0010
1000
0100
0010
0001
0000
100M
0000
0000
1000
0001
0000
0000
0001
M010
0100
1000
0001
0100
0010
1000
0000
,  // measure 15
0001
0000
0000
0001
0000
0000
0001
0000
0100
0000
0000
0100
0000
0000
0100
0000
0010
0000
1000
0000
0010
0000
0000
0000
0100
0000
0001
0000
0100
0000
0000
0000
0010
0000
1000
0000
0100
0000
0010
0000
0001
0000
0000
0000
0001
0000
0000
0000
1000
0000
0100
0000
0000
0000
0000
0000
0010
0000
0001
0000
1000
0000
0001
0000
,  // measure 16
100M
0000
000M
0000
000M
0000
000M
0000
0M01
0000
0M00
0000
0M00
0000
0M00
0000
0M00
0000
0M00
0000
0M00
0000
0M00
0000
01M0
0000
00M0
0000
00M0
0000
00M0
0000
00M0
0000
00M0
0000
00M0
0000
00M0
0000
M010
0000
M000
0010
M000
0000
M010
0000
2000
0000
0000
0000
0000
0000
0000
0000
3000
0000
0000
0000
0000
0000
0000
0000
;

//---------------dance-single - Renard----------------
#NOTES:
     dance-single:
     Renard:
     Easy:
     1:
     0.110,0.121,0.000,0.000,0.000:
0000
0000
0000
0000
,
1000
0100
0010
0001
,
0010
0100
1000
0010
,
0100
0001
0010
0001
,
0100
0010
1000
0100
,
0010
0001
0010
0100
,
1000
0010
0100
0001
,
0100
0010
1000
0100
,
0010
0001
0010
0100
,
1000
0010
0100
0001
0100
0010
1000
0100
,
0010
0001
0010
0100
1000
0010
0100
0001
,
0100
1000
0100
0001
0010
1000
0010
0100
,
1000
0010
0100
0001
0010
0100
1000
0010
,
0100
0001
0010
0001
1000
0100
0010
0001
,
0010
0100
1000
0010
0100
0001
0010
0100
,
1000
0001
0000
0100
0000
0010
1000
0000
;

//---------------dance-single - Renard----------------
#NOTES:
     dance-single:
     Renard:
     Medium:
     2:
     0.187,0.150,0.000,0.000,0.127:
0000
0000
0000
0000
,
1000
0100
0010
0001
0010
0100
1000
0010
,
0100
0000
0001
0100
0001
0000
0100
0010
0100
0000
0010
1000
0010
0000
1000
0100
,
0010
0001
0010
0100
1000
0010
0100
0001
,
0010
0000
0100
1000
0100
0000
0010
0001
0010
0000
0100
1000
0010
0000
0100
0001
,
1000
0100
0010
0001
0010
0100
1000
0010
,
0100
0000
0001
0100
0001
0000
0100
0010
0100
0000
0010
1000
0010
0000
1000
0100
,
0010
0001
0010
0100
1000
0010
0100
0001
,
0010
0000
0100
1000
0100
0000
0010
0001
0010
0000
0100
1000
0010
0000
0100
0001
,
0001
0010
0100
1000
0100
0010
0001
0100
,
0010
0000
1000
0010
1000
0000
0010
0100
0010
0000
0100
0001
0100
0000
0001
0010
,
0100
1000
0100
0010
0001
0100
0010
1000
,
0100
0000
0010
0001
0010
0000
0100
1000
0100
0000
0010
0001
0100
0000
0010
1000
,
0001
0010
0100
1000
0100
0010
0001
0100
,
0010
0000
1000
0010
1000
0000
0010
0100
0010
0000
0100
0001
0100
0000
0001
0010
,
0100
1000
0000
0100
0000
0010
0001
0000
;
