#TITLE:Cloud;
#SUBTITLE:;
#ARTIST:Fischerspooner;
#GENRE:Electroclash;
#TITLETRANSLIT:;
#SUBTITLETRANSLIT:;
#ARTISTTRANSLIT:;
#CREDIT:;
#BANNER:cloud.png;
#BACKGROUND:cloud-bg.png;
#LYRICSPATH:;
#CDTITLE:;
#MUSIC:cloud.ogg;
#OFFSET:0.000;
#SAMPLESTART:29.308;
#SAMPLELENGTH:13.000;
#SELECTABLE:YES;
#BPMS:0.000=130.000;
#STOPS:92.000=0.923
;
#BGCHANGES:;

//---------------dance-single - Renard----------------
#NOTES:
     dance-single:
     Renard:
     Hard:
     9:
     0.634,0.771,0.102,0.643,0.085:
0000
0000
0000
0000
,
0000
0000
0000
0000
,
0000
0000
0000
0000
,
0000
0000
0000
0000
,
1000
0000
0001
0000
0100
0010
0100
0000
0001
0000
1000
0000
0010
0100
0010
0000
,
1000
0000
0001
0000
0100
0010
0100
0000
0001
0000
1000
0000
0100
0000
0000
0000
,
0010
0000
0100
0000
1000
0001
1000
0000
0001
0000
0100
0000
0010
1000
0010
0000
,
0100
0000
0001
0000
1000
0001
1000
0000
0010
0000
0100
0000
0010
0000
0000
0000
,
1000
0000
0001
0100
0010
0000
1000
0000
0010
0000
0100
0000
0001
0000
1000
0000
,
0100
0000
0010
0100
1000
0000
0010
0000
0100
0000
0001
0000
2000
0000
0000
0000
,
3010
0000
0100
0000
0001
0000
1000
0100
0010
0000
0100
0000
1000
0000
0010
0000
,
0100
0000
0001
0000
0010
0000
0100
0010
0001
0000
0100
0000
0020
0000
0000
0000
,
1030
0000
0010
0000
0100
0000
0001
0010
0100
0000
0010
0000
0001
0000
1000
0000
,
0010
0000
0100
0000
0001
0000
1000
0100
0010
0000
0001
0000
0020
0000
0000
0000
,
0130
0000
1000
0000
0010
0000
0100
0001
0100
0000
0010
0000
1000
0000
0100
0000
,
0010
0000
0100
1000
0100
0000
1000
0000
0010
0100
0010
0000
0100
0000
0001
0000
,
0100
1000
0100
0001
0010
0100
0010
0001
,
0010
1000
0010
0100
0001
0100
1000
0010
,
0100
0001
0100
0010
0001
0010
1000
0100
,
0010
1000
0010
0001
0010
0100
2000
0000
,
3010
0100
0001
0100
1000
0010
0100
0001
,
1000
0100
0010
0100
1000
0010
0100
0001
,
0010
0001
1000
0100
0001
0100
1000
0010
,
0200
0300
0000
0000
0000
0000
0000
0000
0000
0000
0000
0000
1001
0000
0000
1000
0000
0000
1001
0000
0000
0001
0000
0000
,
1001
1000
1001
0001
0100
0010
1000
0100
,
0010
0001
0010
0100
1100
1000
1001
0001
,
1001
1000
1001
0001
0100
0010
1000
0100
,
0010
0100
1000
0010
0100
0010
0010
1000
,
0010
0100
0100
0001
0010
0001
0001
0100
,
0010
1000
1000
0100
1000
0010
0100
0001
,
0010
0001
1000
0100
0001
0100
1000
0010
,
0001
0010
1000
0100
2000
3200
0320
0032
,
0023
0230
2300
3020
0230
0302
2003
3200
,
0320
0000
0230
0000
2300
3020
0230
0302
,
0203
0320
2030
3200
0320
0230
2300
3200
,
0320
0000
0032
0000
0023
0230
2300
3002
,
0203
0320
2030
3200
0302
0203
2300
3020
,
0032
0023
2030
0000
3200
0000
0020
0300
,
0002
0030
2000
0003
0200
0000
0000
0000
,
3300
0000
1100
0000
1000
0100
0001
0100
,
1000
0010
0100
0001
0100
1000
0001
0010
,
1000
0001
0100
1000
0100
0010
0100
0001
,
0100
0010
1000
0010
0001
0010
0100
1000
,
0100
0001
0010
0100
1000
0100
1000
0010
,
0100
0001
1000
0100
0010
0100
1000
0001
,
0100
0010
1000
0100
0020
0000
0000
0000
,
0002
0000
2000
0000
,
0200
3333
0000
0000
0000
0000
0000
0000
;

//---------------dance-single - Renard----------------
#NOTES:
     dance-single:
     Renard:
     Medium:
     5:
     0.334,0.318,0.011,0.023,0.000:
0000
0000
0000
0000
,
0000
0000
0000
0000
,
0000
0000
0000
0000
,
0000
0000
0000
0000
,
1000
0000
0010
0100
0010
0000
1000
0010
,
1000
0000
0001
0100
0001
0000
0100
0010
,
0000
0000
1000
0100
0010
0000
0001
0010
,
0100
0000
1000
0010
0000
0000
0100
0000
,
0001
0000
0100
0010
0000
1000
0100
0000
,
1000
0000
0010
0100
0000
0001
0100
0000
,
0010
0000
1000
0100
0000
1000
0010
0000
,
0100
0000
0001
0100
0000
0010
1000
0000
,
0100
0000
1000
0010
0000
1000
0001
0100
,
0010
0000
1000
0010
0000
1000
0001
0000
,
0100
0000
0010
1000
0000
0001
0100
0010
,
1000
0000
1000
0010
0000
0100
0001
0000
,
0100
0000
0001
0100
0000
0000
0010
1000
,
0000
0100
0010
0001
,
0010
0000
0100
1000
0000
0000
0010
1000
,
0000
0100
1000
0010
,
0100
0000
0001
0010
0001
0000
0100
0010
,
0000
1000
0010
0100
,
0001
0000
0100
0010
1000
0000
0010
0000
,
1001
0000
1000
0010
,
0100
0000
0001
0010
0000
0100
0000
1000
,
0000
0010
0100
0000
0001
0000
0100
0000
,
0010
0000
1000
0100
0000
0010
0000
0001
,
0000
0010
0001
0000
0010
0100
1000
0000
,
0010
0000
0100
0001
0100
0000
0010
1000
,
0010
0000
0100
0001
0100
0000
0010
0000
,
1000
0000
0100
0010
0001
0010
0000
0100
,
0000
1000
0000
0010
0100
0000
0001
0100
,
0010
1000
0100
1000
,
0010
0000
0010
0000
0100
0000
0001
0010
,
0000
0100
1000
0000
0010
0000
0100
0000
,
0001
0000
1000
0000
0100
0000
0010
0001
,
0000
0010
0100
0000
1000
0000
0010
0000
,
0200
0000
0010
0001
,
1000
0000
0010
0000
0001
0000
0010
0010
,
0010
0010
0310
0000
1000
0000
0010
0100
,
0001
0000
0100
0010
0000
1000
0000
0010
,
0000
0100
0000
0000
0001
0000
0100
0010
,
1000
0000
0010
0100
0001
0000
0100
0010
,
1000
0000
0100
0010
0001
0000
0001
0010
,
0000
0100
1000
0000
0010
0000
0100
0001
,
0000
0100
0000
0000
0020
0000
0000
0000
,
1000
0000
0100
0000
,
0031
0000
0000
0000
;

//---------------dance-single - Renard----------------
#NOTES:
     dance-single:
     Renard:
     Easy:
     2:
     0.268,0.265,0.090,0.079,0.000: // measure 1
0000
0000
0000
0000
,  // measure 2
0000
0000
0000
0000
,  // measure 3
0000
0000
0000
0000
,  // measure 4
0000
0000
0000
0000
,  // measure 5
1000
0010
0100
0001
,  // measure 6
1000
0100
0010
0001
,  // measure 7
0010
0100
1000
0010
,  // measure 8
0100
0001
1000
1001
,  // measure 9
1000
0010
0100
0001
,  // measure 10
0010
0100
1000
0100
,  // measure 11
0001
0100
1000
0010
,  // measure 12
0100
0001
0010
0001
,  // measure 13
0001
0010
0100
1000
,  // measure 14
1000
0010
0100
0001
,  // measure 15
0001
1000
0010
0100
,  // measure 16
0100
0010
1000
0100
,  // measure 17
0010
0001
0010
0100
,  // measure 18
1000
0100
1000
0010
,  // measure 19
0100
0001
0010
0001
,  // measure 20
0100
0010
1000
0100
,  // measure 21
1000
0010
0100
0001
,  // measure 22
0010
0001
0100
0010
,  // measure 23
1000
1000
0010
0010
,  // measure 24
1001
0000
0010
1000
,  // measure 25
0001
0100
1001
0010
,  // measure 26
0100
0000
1010
0001
,  // measure 27
1000
0010
1001
1000
,  // measure 28
0001
0000
0001
0100
,  // measure 29
0010
1000
0100
1000
,  // measure 30
0010
0100
0020
0000
,  // measure 31
2030
0000
3100
1000
,  // measure 32
0010
0010
0100
0001
,  // measure 33
0100
0000
0010
1000
,  // measure 34
0200
0000
1300
0010
,  // measure 35
0100
0000
0001
0010
,  // measure 36
0002
0000
0103
0010
,  // measure 37
1000
0000
0100
0000
,  // measure 38
2020
0030
0002
0000
,  // measure 39
0000
0000
3000
0100
,  // measure 40
0100
0103
0100
0010
,  // measure 41
1000
0001
0100
0000
,  // measure 42
0100
0000
0010
1000
,  // measure 43
0100
0010
0001
0010
,  // measure 44
0011
0000
0001
0010
,  // measure 45
0100
1000
0010
0100
,  // measure 46
0010
1000
0100
0000
,  // measure 47
0010
0000
0001
0000
,  // measure 48
1001
0000
0000
0000
;
