#TITLE:Claw Me (MGD Edit);
#SUBTITLE:;
#ARTIST:Xavier Dang;
#GENRE:IDM;
#TITLETRANSLIT:;
#SUBTITLETRANSLIT:;
#ARTISTTRANSLIT:;
#CREDIT:;
#BANNER:claw.png;
#BACKGROUND:claw-bg.png;
#LYRICSPATH:;
#CDTITLE:;
#MUSIC:claw.ogg;
#OFFSET:0.000;
#SAMPLESTART:48.000;
#SAMPLELENGTH:12.000;
#SELECTABLE:YES;
#BPMS:0.000=140.000;
#STOPS:;
#BGCHANGES:;

//---------------dance-single - Renard----------------
#NOTES:
     dance-single:
     Renard:
     Hard:
     8:
     0.552,0.512,0.269,0.022,0.157:
0000
0000
0000
0000
,
0000
0000
0000
0000
,
1000
0001
0000
0000
0000
0000
0000
0000
0000
0000
0000
0000
0000
0000
0001
1000
,
0000
0000
0000
0000
,
0001
0100
0000
0000
0010
0000
0000
0000
1000
0000
0000
0000
0100
0000
1000
0100
,
0000
0010
0001
0010
,
0100
1000
0000
0000
0100
0000
0000
0000
1000
0000
0000
0000
0001
0000
0010
0001
,
0000
0000
1000
0000
0100
0100
1000
0000
,
0010
0000
0000
0000
0100
0001
0000
0000
0000
0000
0010
1000
0000
0000
0001
0100
,
0000
0000
0000
0000
0010
1000
0000
0000
0000
0000
0000
0000
0001
0100
0000
0000
,
0010
0000
1000
0000
0100
0000
0010
0001
0000
0000
1000
0100
0000
0000
0010
0001
,
0000
0000
1000
0000
0100
0000
1000
0000
0010
0000
0100
0000
0001
0000
1000
0100
,
1000
0000
0100
0000
0010
0000
0001
0010
0000
0000
0100
1000
0000
0000
1000
0010
,
0000
0000
0100
0000
0001
0010
0000
0000
0001
0000
0100
0000
0010
0000
1000
0000
,
0001
0100
0000
0000
0001
0000
1000
0001
0000
0000
0001
1000
0000
0000
0001
0100
,
0001
1000
0100
1000
0001
0100
0010
1000
,
0100
0010
0001
0010
0000
0100
0000
1000
,
0000
0010
0100
0001
0100
0010
1000
0100
,
0010
0001
0010
0100
0000
1001
0000
1010
,
0000
0100
0001
0100
0010
0000
0100
0000
,
0001
1000
0100
0010
0000
1100
0000
0011
,
0000
0100
1000
0010
0100
0001
1000
0100
,
1000
0001
0100
0001
0000
1001
0000
1100
,
0000
0011
0000
1000
0001
0100
0001
0000
,
1000
0000
0000
0000
1100
0000
0000
0100
1000
0000
0010
0000
0100
0000
0101
0000
,
0000
0000
0010
0000
1010
0000
0000
0000
1000
0000
0000
1100
0000
0000
0100
0000
,
0010
0001
0010
0001
0000
0011
0000
1100
,
0000
0000
0010
0000
0001
0000
1000
0000
0100
1000
0100
0000
1000
0000
0100
0000
,
1100
0000
0011
0000
0001
0100
0000
1010
,
0000
0100
0001
0010
0001
0010
0001
0011
,
0000
0100
1000
0010
0100
0001
1000
0010
,
0000
0100
0001
0010
0001
1000
0002
0000
,
0103
0000
0010
1000
0100
1000
0010
1010
,
0000
0100
0001
0010
0001
0100
0010
1010
,
0000
0000
0100
0001
0000
1010
0000
1100
,
0000
0010
0001
1000
0100
0100
1000
1000
,
0001
0010
1000
0010
1000
0100
0001
0010
,
0000
0100
1000
0000
0010
1000
0010
1000
,
0001
0100
0001
1000
0000
1100
0000
1010
,
0000
0100
0001
0010
0001
0001
0200
0000
,
0310
0000
1000
0100
0001
0100
0001
0010
,
1000
0100
0010
0001
0000
1000
0001
0100
,
0010
1000
0001
0100
0010
1000
0001
0100
,
0000
0001
0100
0010
1000
0010
1000
0001
,
0100
0010
1000
0100
0001
0100
0010
0001
,
0010
0000
0100
0000
1000
0000
0100
0000
1000
0000
0000
1000
0000
0000
1000
0000
,
0100
1000
0010
0100
0001
0010
0100
1000
,
0100
0010
0001
0010
1000
0010
0100
1000
,
0010
0100
0001
0010
1000
0010
0100
1000
,
0100
0000
0010
0000
0001
0000
0010
0000
0001
0000
0000
0001
0000
0000
0001
0000
,
0010
0001
0100
0010
1000
0100
0010
0110
;

//---------------dance-single - Renard----------------
#NOTES:
     dance-single:
     Renard:
     Challenge:
     11:
     0.852,0.913,0.459,1.000,0.308: // measure 1
0000
0000
0000
0000
,  // measure 2
0000
0000
0000
0000
,  // measure 3
2000
0002
0000
0000
0000
0000
0000
0000
0000
0000
0000
0000
0000
3000
0203
0020
,  // measure 4
0000
0000
0000
0330
,  // measure 5
1000
0100
0000
0010
0001
0000
1000
0100
0000
1000
0010
0000
0100
0001
0010
0001
,  // measure 6
0000
0000
1000
0000
0100
0000
1000
0000
0010
0000
0000
0010
0100
0000
0100
0000
,  // measure 7
0001
0100
0000
0001
0100
0000
0010
1000
0000
0010
1000
0000
0100
0000
1000
0100
,  // measure 8
0000
1000
0100
0000
1000
0000
0010
0000
0100
0000
0000
0100
0001
0000
1000
0000
,  // measure 9
0010
0020
0002
0000
0030
2000
0003
3100
,  // measure 10
0100
0200
0002
0000
0000
0003
0001
0000
,  // measure 11
2000
0300
0000
0002
3000
0010
0000
0013
,  // measure 12
0001
0010
0100
1000
0100
0001
0010
0001
,  // measure 13
0012
0000
0000
0103
0000
1010
0000
1100
,  // measure 14
0000
0000
0020
0000
0031
0002
0100
0203
,  // measure 15
2000
0000
0300
0200
3000
0002
0300
0013
,  // measure 16
0000
0000
0011
0000
0001
0010
0100
1000
,  // measure 17
1100
0000
0010
0001
0100
0200
0000
1001
,  // measure 18
0000
1010
0300
0100
0001
0010
0011
0000
,  // measure 19
0001
0010
0100
0200
0000
0011
0000
1010
,  // measure 20
0000
1301
0000
1000
0001
0001
1001
0000
,  // measure 21
0011
0000
0100
1000
0010
0020
0000
1001
,  // measure 22
0000
1001
0030
0010
1000
0100
1100
0000
,  // measure 23
1000
0100
0010
0020
0000
1001
0000
1001
,  // measure 24
0000
1031
0000
0001
1000
0001
1000
0001
,  // measure 25
1000
0000
0000
0000
0000
0000
0000
0000
1100
0000
0000
0000
0000
0000
0100
1000
0100
0000
1000
0000
0100
0000
0000
0000
1100
0000
0000
0000
0100
0000
0000
0000
,  // measure 26
0010
0000
0000
0000
0011
0000
0000
0000
0010
0000
0000
0011
0000
0001
0010
0000
,  // measure 27
0001
0000
0000
0000
0000
0000
0000
0000
0011
0000
0000
0000
0000
0000
0010
0001
0010
0000
0001
0000
0010
0000
0000
0000
0011
0000
0000
0000
0010
0000
0000
0000
,  // measure 28
0001
0010
0001
0000
0000
0000
0001
0000
1000
0000
0000
0000
1000
0000
0000
0000
0010
0000
0010
0000
1000
0000
1000
0000
0001
0000
0001
0000
1000
0000
0000
0000
,  // measure 29
0002
0203
2300
3200
0320
2030
3200
0302
,  // measure 30
0203
0320
0032
0023
2030
3020
0230
0302
,  // measure 31
0203
2300
3020
0032
2003
3002
0023
2030
,  // measure 32
3200
0302
2003
3002
0203
2300
3020
0230
,  // measure 33
0302
0023
2030
3200
0302
0013
0000
2100
,  // measure 34
0000
3020
0032
0203
2300
3020
0031
0000
,  // measure 35
0021
0000
0032
0023
0230
2300
3200
0302
,  // measure 36
0203
0320
0032
0023
2030
3002
2003
3020
,  // measure 37
0032
0023
0230
2300
3020
0230
0302
0203
,  // measure 38
0320
2030
3020
0230
0302
0203
0320
2030
,  // measure 39
3200
0302
0203
0310
0000
0011
0000
2100
,  // measure 40
0000
3200
2300
3020
0032
0023
0230
2300
,  // measure 41
3200
0302
0023
0032
0203
2300
3020
0032
,  // measure 42
0023
0230
2300
3020
0230
0302
0203
2300
,  // measure 43
3200
0320
2030
3020
0032
0023
2030
3200
,  // measure 44
0302
0203
2300
3002
0023
2030
3002
0100
,  // measure 45
0103
0000
0000
0000
0000
0000
0000
0000
1010
0000
0000
0000
0000
0000
0010
1000
0010
0000
0100
0000
0001
0000
0000
0000
0101
0000
0000
0000
0100
0000
0010
0000
,  // measure 46
1000
0000
0010
0100
0001
0000
1000
0000
0100
0000
0000
1100
0000
0100
1000
0000
,  // measure 47
0100
0000
0000
0000
0000
0000
0000
0000
0011
0000
0000
0000
0000
0000
0001
0010
0001
0000
0010
0000
0001
0000
0000
0000
0011
0000
0000
0000
0001
0000
0000
0000
,  // measure 48
0001
0100
0001
0000
0000
0000
1000
0000
0001
0000
0000
0000
1000
0000
0000
0000
0001
0000
0001
0000
0100
0000
0100
0000
0010
0000
0000
0000
1001
0000
0000
0000
,  // measure 49
0010
0000
0000
0000
0000
0000
0000
0000
0101
0000
0000
0000
0000
0000
0100
0001
0100
0000
0010
0000
1000
0000
0000
0000
1010
0000
0000
0000
0010
0000
0100
0000
,  // measure 50
0001
0000
0100
0010
1000
0000
0001
0000
0010
0000
0000
0011
0000
0010
0001
0000
,  // measure 51
0010
0000
0000
0000
0000
0000
0000
0000
1100
0000
0000
0000
0000
0000
1000
0100
1000
0000
0100
0000
1000
0000
0000
0000
2200
0000
0000
0000
0011
0000
0000
0000
,  // measure 52
3300
0000
0000
0000
;

//---------------dance-single - Dark Culex----------------
#NOTES:
     dance-single:
     Dark Culex:
     Medium:
     5:
     0.301,0.285,0.034,0.000,0.000:
0000
0000
0000
0000
,
0000
0000
0000
0000
,
0100
0000
0000
0000
0000
0000
0000
1000
,
0000
0000
0000
0000
,
0010
0010
0010
1000
,
0100
1000
1000
0001
,
1000
0100
0010
0100
,
1000
1000
0001
1000
,
0001
0000
0100
0000
0000
0001
0000
0010
,
0000
0001
0000
1000
,
0001
0000
0000
0001
0000
1000
0000
0001
,
0000
0000
1000
0000
0000
0000
0000
0100
,
0001
0000
0000
0100
0000
0100
0000
1000
,
0000
0000
0100
0000
0010
1000
1000
0001
,
0010
0000
0000
0001
0000
0001
0000
1000
,
0000
0000
1000
0000
0000
0000
0000
0100
,
0010
0000
0010
0000
0000
1000
0000
0010
,
0000
0010
0000
0010
,
0001
0000
0000
0010
0000
1000
0000
0100
,
0000
0000
1000
0000
0000
0000
0000
0001
,
0010
0000
0000
1000
0000
0010
0000
0010
,
0000
0100
0001
0010
,
0100
0000
0000
1000
0000
0001
0000
1000
,
0000
1000
0001
1000
,
1000
0001
0010
0010
,
0001
0100
0010
1000
,
0010
0010
1000
1000
,
0100
0100
0010
1000
,
1000
0000
0010
0000
0001
0001
0000
0100
,
0000
0000
0000
0100
1000
0100
1000
0100
,
0000
0000
0010
0001
0100
0010
0000
1000
,
0000
0010
0010
0001
,
0010
0000
0010
0000
0001
0000
0100
1000
,
0000
0000
0000
0010
0000
1000
0010
1000
,
0000
0000
0100
0001
0000
1010
0000
1001
,
0000
0000
0000
0010
1000
0000
1000
0000
,
0001
0001
0001
0010
,
0100
0000
1000
0000
1000
0001
0001
0100
,
0000
0000
0010
1000
0000
1000
0000
0001
,
0000
0000
1000
1000
0001
0010
0001
0000
,
0001
0001
1000
1000
,
0001
0000
0000
0100
0000
0100
0010
0010
,
0000
0000
0010
0010
0000
1000
0000
0010
,
0000
0000
0000
0100
0001
0010
0100
1000
,
0000
0100
0001
1000
,
0010
0001
0001
1000
,
1000
0100
0100
0100
,
0010
0001
0010
0100
,
1000
0010
0100
0100
,
0001
0001
0001
1000
,
0001
0000
0100
0000
1000
0000
0000
0101
;

//---------------dance-single - Dark Culex----------------
#NOTES:
     dance-single:
     Dark Culex:
     Easy:
     2:
     0.267,0.256,0.011,0.000,0.000: // measure 1
0000
0000
0000
0000
,  // measure 2
0000
0000
0000
0000
,  // measure 3
0010
0000
0000
0000
0000
0000
0000
0001
,  // measure 4
0000
0000
0000
0000
,  // measure 5
0010
0000
0000
0000
0000
0000
0000
1000
,  // measure 6
0000
0000
0000
0000
,  // measure 7
0001
0000
0000
0000
0000
0000
0000
0010
,  // measure 8
0000
0000
0000
0000
,  // measure 9
1000
0000
0100
0000
0000
0001
0000
1000
,  // measure 10
0000
1000
0000
0100
,  // measure 11
0100
0000
0000
0001
0000
0001
0000
1000
,  // measure 12
0000
0000
0001
0000
0000
0000
0000
0010
,  // measure 13
1000
0000
0000
1000
0000
0010
0000
0100
,  // measure 14
0000
0010
0001
0001
,  // measure 15
0001
0000
0000
0001
0000
0010
0000
0001
,  // measure 16
0000
0000
1000
0000
0000
0000
0000
0100
,  // measure 17
0001
0000
0001
0000
0000
0010
0000
0100
,  // measure 18
0000
0001
0000
0001
,  // measure 19
0010
0000
0000
1000
0000
0010
0000
0010
,  // measure 20
0000
0000
0001
0000
0000
0000
0000
0010
,  // measure 21
0100
0000
0000
0100
0000
0010
0000
0001
,  // measure 22
0000
0100
0010
0100
,  // measure 23
0100
0000
0000
1000
0000
0100
0000
0010
,  // measure 24
0000
0100
0010
0100
,  // measure 25
0010
0010
0100
0100
,  // measure 26
0010
1000
1000
0100
,  // measure 27
0100
1000
0100
0010
,  // measure 28
0001
1000
0010
0010
,  // measure 29
1000
1000
0100
1000
,  // measure 30
0100
1000
1000
1000
,  // measure 31
1000
0001
1000
0001
,  // measure 32
0100
0001
1000
0001
,  // measure 33
0010
0010
0001
0001
,  // measure 34
0001
0010
0001
0010
,  // measure 35
0010
0100
0010
0001
,  // measure 36
0010
1000
1000
0001
,  // measure 37
0010
0100
1000
0100
,  // measure 38
0010
0001
0010
0100
,  // measure 39
0100
1000
0001
0001
,  // measure 40
1000
1000
0100
1000
,  // measure 41
1000
1000
0010
1000
,  // measure 42
0010
1000
0100
0100
,  // measure 43
1000
0010
0100
0001
,  // measure 44
0001
0010
0010
0001
,  // measure 45
0010
1000
0001
0100
,  // measure 46
0100
0001
0100
0100
,  // measure 47
0100
0001
0100
0010
,  // measure 48
0010
1000
0010
0001
,  // measure 49
1000
1000
1000
0010
,  // measure 50
0100
0001
0010
0100
,  // measure 51
0010
0000
0001
0000
0100
0000
0100
1001
;
