#TITLE:Children of the Night;
#SUBTITLE:;
#ARTIST:Nakatomi;
#GENRE:Happy Hardcore;
#TITLETRANSLIT:;
#SUBTITLETRANSLIT:;
#ARTISTTRANSLIT:;
#GENRE:;
#CREDIT:;
#BANNER:childrenofthenight-banner.png;
#BACKGROUND:childrenofthenight-bg.png;
#LYRICSPATH:;
#CDTITLE:;
#MUSIC:children.ogg;
#OFFSET:0.000;
#SAMPLESTART:76.190;
#SAMPLELENGTH:12.000;
#SELECTABLE:YES;
#BPMS:0.000=182.750;
#STOPS:;
#BGCHANGES:;
#KEYSOUNDS:;

//---------------dance-single - Renard----------------
#NOTES:
     dance-single:
     Renard:
     Challenge:
     11:
     0.922,0.000,0.572,0.000,0.654: // measure 1
0000
0000
0000
0000
,  // measure 2
0000
0000
0000
0000
,  // measure 3
0000
0000
0000
0000
,  // measure 4
0000
0000
0000
0000
,  // measure 5
0000
0000
0000
0000
,  // measure 6
0000
0000
0000
0000
,  // measure 7
0000
0000
0000
0000
,  // measure 8
0000
0000
0000
0000
,  // measure 9
1010
0000
0101
0000
,  // measure 10
1011
0000
0110
0000
1000
0010
0100
0001
,  // measure 11
0010
0110
0011
1100
,  // measure 12
1000
0010
0100
0001
0000
0100
0000
0100
,  // measure 13
1000
0100
1000
0000
0100
0000
0001
0000
,  // measure 14
0010
1000
0010
0100
0000
1000
0000
0100
,  // measure 15
0001
0100
1000
0000
0010
0000
0100
0000
,  // measure 16
0001
0100
1000
0100
0000
0010
0000
1000
,  // measure 17
0010
0100
0001
0000
0100
0000
0010
0000
,  // measure 18
1000
0100
0010
0001
0000
0011
0000
1100
,  // measure 19
1100
0100
0110
0010
0011
0000
0101
0000
,  // measure 20
0010
1000
0001
0100
0000
0010
1000
0010
,  // measure 21
1010
1000
1100
0100
0110
0000
0001
0010
,  // measure 22
0100
1000
0010
0100
0000
0100
0001
0100
,  // measure 23
0101
0100
0110
0010
1010
1000
1001
0000
,  // measure 24
0001
0100
0010
1000
0000
0100
1000
0001
,  // measure 25
0010
0100
1000
0000
0010
0100
0001
0000
,  // measure 26
1000
0000
0001
0100
0001
0000
1000
0100
1000
0000
0001
0000
0100
0000
0001
0000
,  // measure 27
1000
0000
0100
1000
0010
0100
0001
1000
,  // measure 28
0000
1001
0000
1010
0000
0101
0000
1001
,  // measure 29
0000
0000
0000
1000
0100
1000
0010
0100
,  // measure 30
0000
0101
0000
0110
0000
1010
0000
1001
,  // measure 31
0000
0101
0000
0000
0000
0010
1000
0100
,  // measure 32
1000
0001
0000
0011
0000
1100
0000
1010
,  // measure 33
0000
0000
0000
0000
1000
0010
1000
0001
,  // measure 34
0100
0010
0000
1010
0000
0001
0100
0000
,  // measure 35
0010
0000
1000
0000
0001
0000
0100
0001
1000
0100
0000
0100
1000
0000
0010
0100
,  // measure 36
0001
0000
1000
0000
0100
0000
0010
0001
1000
0100
0000
0100
1000
0000
0001
0010
,  // measure 37
0001
0000
0100
0000
0010
0000
1000
0001
0100
0001
0000
0001
0100
0000
0010
0000
,  // measure 38
1000
0000
0001
0100
0001
0000
1000
0100
0010
0001
1000
0000
0001
0000
0100
0000
,  // measure 39
0001
0000
1000
0100
1000
0000
0001
0010
0001
0100
0000
0100
0010
0000
1000
0000
,  // measure 40
0100
0000
0010
0001
0010
0000
0100
1000
0001
0100
0000
0100
0001
0000
1000
0100
,  // measure 41
1000
0000
0100
1000
0010
0000
0100
0001
1000
0001
0000
0001
1000
0000
0010
0100
,  // measure 42
0001
0000
1000
0100
1000
0000
0001
0010
0001
0100
0000
0100
0001
0000
1000
0001
,  // measure 43
1000
0000
0100
0010
0001
0000
0010
0100
1000
0000
0001
0000
0100
0000
0010
1000
,  // measure 44
0010
0000
0100
0001
0100
0000
0001
1000
0001
1000
0001
0000
1000
0100
0010
0000
,  // measure 45
0001
0000
0010
0100
1000
0000
0001
0100
0001
0000
1000
0000
0100
1000
0100
0000
,  // measure 46
1000
0010
1000
0000
0001
0100
0001
0000
1000
0100
0010
0001
1000
0001
1000
0000
,  // measure 47
0001
0000
0100
0010
1000
0000
0010
0100
0001
0000
0100
0000
0010
0000
1000
0000
,  // measure 48
0100
0010
0001
0010
0100
0000
1000
0000
0001
0000
0100
0010
1000
0000
0100
1000
,  // measure 49
0001
0010
0100
1000
0100
0000
1000
0001
0010
0100
1000
0000
0100
0010
0001
0000
,  // measure 50
1001
0000
1001
0000
1001
0100
0100
0100
,  // measure 51
1001
0000
0000
0000
1010
0000
0101
0000
0000
0000
1000
0001
0100
0000
0100
0000
,  // measure 52
0010
1000
0100
0100
0010
0001
0011
0000
,  // measure 53
1100
0000
0010
0000
0001
0000
0100
0000
0000
0000
0010
1000
0010
0000
1010
0000
,  // measure 54
0000
0101
0010
1000
0100
0010
1001
0000
,  // measure 55
1010
0000
0100
0000
1001
0000
0100
0000
0001
0010
0001
0010
0001
0000
0010
0000
,  // measure 56
1001
0000
0100
0000
1001
0000
0010
0000
1000
0010
0100
0001
1000
0000
0001
0000
,  // measure 57
0101
0000
0010
0000
1001
0000
0010
0000
1000
0100
1000
0100
1000
0000
0100
0000
,  // measure 58
1001
0000
0010
0000
1001
0000
0100
0000
0001
0100
0010
1000
0001
1000
0100
0010
,  // measure 59
0001
0000
1000
0100
1000
0000
0001
0010
0100
1000
0001
0000
0100
0000
0010
1000
,  // measure 60
0010
0000
0100
0000
0001
0000
1000
0100
0010
0001
1000
0000
0001
0100
0001
0000
,  // measure 61
0100
0000
0010
0000
1000
0000
0001
0100
0001
1000
0100
0000
0010
0001
0010
0100
,  // measure 62
1000
0000
0001
0000
0100
0000
0001
1000
0100
0000
0010
0000
0001
0010
0100
0000
,  // measure 63
1000
0000
0001
0010
0001
0000
1000
0100
0010
0001
1000
0000
0010
0000
0100
0001
,  // measure 64
0100
0000
0010
0000
1000
0000
0001
0010
0100
1000
0001
0000
1000
0010
1000
0000
,  // measure 65
0010
0000
0100
0000
0001
0000
1000
0010
1000
0001
0010
0000
0100
1000
0100
0010
,  // measure 66
0001
0000
1000
0000
0010
0000
1000
0001
0010
0000
0100
0000
1000
0100
0010
0000
,  // measure 67
1001
0000
0000
0000
1010
0000
0000
0000
0101
0000
0000
0000
0001
0100
0001
0000
,  // measure 68
0100
0010
1000
0000
0010
0000
0100
0000
0001
0000
1000
0100
0010
0001
1000
0000
,  // measure 69
0001
0000
0010
0100
1000
0000
0001
0100
0001
0000
1000
0100
0010
0001
1000
0000
,  // measure 70
0001
0100
0001
0000
0100
0000
0010
0000
1000
0000
0100
1000
0100
0000
0010
0001
,  // measure 71
0010
0000
0100
1000
0010
0000
0100
0001
0100
0010
1000
0000
0010
0000
0100
0000
,  // measure 72
0001
0000
0100
0010
1000
0000
0001
0100
0001
1000
0100
1000
0001
0000
0100
0000
,  // measure 73
0010
1000
0010
0000
0100
0001
0100
0000
0001
1000
0100
0010
0001
0010
0100
1000
,  // measure 74
0001
0000
0100
0001
1000
0000
0100
1000
0001
0100
0010
1000
0001
0100
0010
0000
,  // measure 75
1001
0000
0000
0000
;

//---------------dance-single - Jinxie----------------
#NOTES:
     dance-single:
     Jinxie:
     Medium:
     6:
     0.406,0.000,0.214,0.071,0.000: // measure 1
0000
0000
0000
0000
,  // measure 2
0000
0000
0000
0000
,  // measure 3
0000
0000
0000
0000
,  // measure 4
0000
0000
0000
0000
,  // measure 5
0000
0000
0000
0000
,  // measure 6
0000
0000
0000
0000
,  // measure 7
0000
0000
0000
0000
,  // measure 8
0000
0000
0000
0000
,  // measure 9
1001
0000
1000
0000
,  // measure 10
1001
0001
1000
0001
,  // measure 11
0110
1000
0010
0010
,  // measure 12
1000
0010
0000
1000
0000
1000
0000
0000
,  // measure 13
1000
0001
0010
0010
,  // measure 14
0001
0010
0000
0001
0000
0010
0000
0000
,  // measure 15
0001
0001
0010
0010
,  // measure 16
0010
0001
0000
0001
0000
0010
0000
0000
,  // measure 17
0010
0001
0010
0010
,  // measure 18
1001
1010
0101
0110
,  // measure 19
0001
0001
0010
0010
,  // measure 20
0001
0100
0000
0010
0000
0100
0000
0000
,  // measure 21
0010
0010
1000
0100
,  // measure 22
0010
0001
0000
0100
0000
0001
0000
0000
,  // measure 23
0010
0010
0001
0001
,  // measure 24
0010
0100
0000
0010
0000
0001
0000
0000
,  // measure 25
1000
0001
1000
0001
,  // measure 26
1010
1001
0011
1001
,  // measure 27
2000
0000
0000
0000
,  // measure 28
0000
0000
0000
0000
,  // measure 29
3020
0000
0000
0000
,  // measure 30
0000
0000
0000
0000
,  // measure 31
0230
0000
0000
0000
,  // measure 32
0000
0000
0000
0000
,  // measure 33
0302
0000
0000
0000
,  // measure 34
0020
0000
0000
0033
,  // measure 35
1000
1000
0001
0001
,  // measure 36
0010
0000
0010
0000
0100
0010
0100
0000
,  // measure 37
1000
1000
0001
0001
,  // measure 38
0010
0000
0010
0000
0001
0010
0001
0000
,  // measure 39
1000
1000
0010
0010
,  // measure 40
1000
0000
1000
0000
0010
1000
0010
0000
,  // measure 41
1000
1000
0001
0001
,  // measure 42
0010
0001
0010
0000
1000
0010
1000
0000
,  // measure 43
0001
0001
0010
0010
,  // measure 44
0001
0000
0001
0000
1000
0001
1000
0000
,  // measure 45
0010
0010
0001
0001
,  // measure 46
1000
0000
1000
0000
0010
1000
0010
0000
,  // measure 47
1000
1000
0001
0001
,  // measure 48
0010
0000
0010
0000
0001
1000
0001
0000
,  // measure 49
1000
1000
0010
0010
,  // measure 50
0100
1100
0101
0000
,  // measure 51
1000
1000
0010
0010
,  // measure 52
1000
0000
1000
0000
0001
0001
0001
0000
,  // measure 53
1000
1000
0010
0010
,  // measure 54
0100
0000
0100
0000
0010
0010
0010
0000
,  // measure 55
1000
1000
0001
0001
,  // measure 56
0010
0000
0010
0000
0100
1000
0100
0000
,  // measure 57
0001
0001
1000
1000
,  // measure 58
0001
0000
0001
0000
1000
0010
1000
0001
,  // measure 59
1000
0001
0010
0010
,  // measure 60
0001
0001
0000
0010
0000
0110
0000
0000
,  // measure 61
0001
0001
1000
1000
,  // measure 62
0010
0010
0000
1000
0000
1010
0000
0000
,  // measure 63
1000
1000
0010
0010
,  // measure 64
1000
1000
0000
0010
0000
1010
0000
0000
,  // measure 65
1000
1000
0001
0001
,  // measure 66
1000
1000
0000
0001
0000
1010
0000
0000
,  // measure 67
0001
0001
1000
1000
,  // measure 68
0001
0001
0000
0100
0000
1001
0000
0000
,  // measure 69
0001
1000
0010
0100
,  // measure 70
0001
0001
0000
1000
0000
0101
0000
0000
,  // measure 71
1000
0001
0100
0001
,  // measure 72
0100
0100
0000
0001
0000
0101
0000
0000
,  // measure 73
1000
0001
0010
0001
,  // measure 74
1000
0001
0000
1000
0000
0001
1000
0001
,  // measure 75
2002
0000
0000
0000
,  // measure 76
3003
0000
0000
0000
;

//---------------dance-single - Jinxie----------------
#NOTES:
     dance-single:
     Jinxie:
     Easy:
     4:
     0.238,0.000,0.123,0.000,0.000: // measure 1
0000
0000
0000
0000
,  // measure 2
0000
0000
0000
0000
,  // measure 3
0000
0000
0000
0000
,  // measure 4
0000
0000
0000
0000
,  // measure 5
0000
0000
0000
0000
,  // measure 6
0000
0000
0000
0000
,  // measure 7
0000
0000
0000
0000
,  // measure 8
0000
0000
0000
0000
,  // measure 9
0001
0000
1000
0000
,  // measure 10
0010
0010
1000
0000
,  // measure 11
1000
0000
0100
0000
,  // measure 12
0010
0010
0001
0000
,  // measure 13
1000
0000
0100
0000
,  // measure 14
1000
1000
0010
0000
,  // measure 15
1000
0000
0001
0000
,  // measure 16
1000
1000
0001
0000
,  // measure 17
0100
0000
0010
0000
,  // measure 18
0010
0100
0110
0000
,  // measure 19
0001
0000
0001
0000
,  // measure 20
0010
0010
0010
0000
,  // measure 21
0100
0000
0001
0000
,  // measure 22
0100
0100
0100
0000
,  // measure 23
0001
0000
1000
0000
,  // measure 24
0010
0010
0100
0000
,  // measure 25
0001
0000
1000
0000
,  // measure 26
0010
1000
1001
0000
,  // measure 27
0001
0000
0000
0000
,  // measure 28
0100
0000
0000
0000
,  // measure 29
0001
0000
0000
0000
,  // measure 30
1000
0000
0000
0000
,  // measure 31
0100
0000
0000
0000
,  // measure 32
0010
0000
0000
0000
,  // measure 33
1000
0000
0000
0000
,  // measure 34
0001
0000
0000
0000
,  // measure 35
0010
0010
0010
0000
,  // measure 36
1000
1000
1000
0000
,  // measure 37
0010
0000
0100
0000
,  // measure 38
0001
1000
0001
0000
,  // measure 39
0010
0010
0001
0000
,  // measure 40
1000
1000
0010
0000
,  // measure 41
0100
0100
0001
0000
,  // measure 42
1000
1000
0010
0000
,  // measure 43
1000
0000
1010
0000
,  // measure 44
0001
0000
0011
0000
,  // measure 45
1000
0000
1001
0000
,  // measure 46
0010
0000
1010
0000
,  // measure 47
0001
0000
0011
0000
,  // measure 48
0001
0000
1100
0000
,  // measure 49
0001
0000
1010
0000
,  // measure 50
0001
0001
1000
0000
,  // measure 51
1000
0000
0001
0000
,  // measure 52
0001
0000
1000
1000
,  // measure 53
0010
0000
0010
0000
,  // measure 54
1000
0000
0001
0001
,  // measure 55
0100
0000
0100
0000
,  // measure 56
0001
0000
0010
0010
,  // measure 57
0100
0000
1000
0000
,  // measure 58
0001
1000
0001
1000
,  // measure 59
1001
0000
0010
0000
,  // measure 60
1000
0000
0001
0000
,  // measure 61
0010
0000
0001
0000
,  // measure 62
1000
0000
0010
0000
,  // measure 63
1000
0000
0001
0000
,  // measure 64
0010
0000
0001
0000
,  // measure 65
1000
0000
0010
0000
,  // measure 66
1000
0001
1000
0001
,  // measure 67
1001
0000
0100
0000
,  // measure 68
0010
0000
0100
0000
,  // measure 69
1000
0000
0001
0000
,  // measure 70
0010
0000
0100
0000
,  // measure 71
1000
0000
0001
0000
,  // measure 72
1000
0000
0010
0000
,  // measure 73
1000
0000
0001
0000
,  // measure 74
0010
0100
0010
0100
,  // measure 75
0110
0000
0000
0000
;

//---------------dance-single - Pyroko----------------
#NOTES:
     dance-single:
     Pyroko:
     Hard:
     9:
     0.562,0.000,0.194,0.061,0.071: // measure 1
0000
0000
0000
0000
,  // measure 2
0000
0000
0000
0000
,  // measure 3
0000
0000
0000
0000
,  // measure 4
0000
0000
0000
0000
,  // measure 5
0000
0000
0000
0000
,  // measure 6
0000
0000
0000
0000
,  // measure 7
0000
0000
0000
0000
,  // measure 8
0000
0000
0000
0000
,  // measure 9
1100
0000
0101
0000
,  // measure 10
0011
1010
1100
0000
,  // measure 11
1000
0100
0010
0100
,  // measure 12
0010
0001
0000
0100
0000
0010
0000
1000
,  // measure 13
0100
0000
0001
0000
0100
0000
1000
0010
,  // measure 14
0001
0010
0000
1000
0000
1000
0000
0100
,  // measure 15
0010
0001
0100
0010
,  // measure 16
1000
0100
0000
0010
0000
1000
0000
0010
,  // measure 17
0100
0000
1000
0000
0001
0000
1000
0001
,  // measure 18
1000
0100
0000
0010
0000
0001
1000
0010
,  // measure 19
0010
0010
0100
0010
,  // measure 20
0100
0100
0000
0010
0000
0100
0000
0001
,  // measure 21
0010
0000
1000
0000
0010
0000
0001
0100
,  // measure 22
1000
0100
0000
0001
0000
0001
0000
0010
,  // measure 23
0100
1000
0010
0100
,  // measure 24
0001
0010
0000
0100
0000
0001
0000
0100
,  // measure 25
0010
0000
0001
0000
1000
0000
0001
1000
,  // measure 26
0001
0010
0000
0100
0000
1000
0001
0100
,  // measure 27
0101
0000
0000
0000
0001
0100
0010
1000
,  // measure 28
0000
0000
0000
0000
0200
0000
0000
0000
0000
0000
0000
0000
0000
0000
0000
0000
2000
0000
0000
0000
0000
0000
0000
0000
0000
0000
0000
0000
0010
0000
0000
0000
0000
0000
0000
0000
0000
0000
0000
0000
0001
0000
0000
0000
0000
3300
0000
0000
,  // measure 29
0000
0000
0000
0010
1000
0100
0010
0001
,  // measure 30
0000
0100
0000
0000
0002
0000
0000
2000
0000
0000
0010
0000
,  // measure 31
0000
0000
0000
0000
0010
0000
0000
0000
0000
3003
0000
0000
0000
0000
0000
0000
0000
0000
0000
0000
0000
0000
0000
0000
0000
0000
0000
0000
0000
0000
1000
0000
0000
0000
0000
0000
0100
0000
0000
0000
0000
0000
0010
0000
0000
0000
0000
0000
,  // measure 32
0001
0000
0000
0001
0000
0000
0000
0000
1000
0000
0000
0000
0000
0000
0000
0020
0000
0000
0000
0000
0000
0200
0000
0000
,  // measure 33
0330
0000
0000
0000
0010
0010
1000
0001
,  // measure 34
0100
0100
0000
0101
0000
0000
0000
0000
,  // measure 35
0010
0010
1000
1000
0100
0100
0010
0000
,  // measure 36
0001
0001
0010
0010
1000
1000
0010
0000
,  // measure 37
0100
0100
0010
0010
0001
0001
1000
0000
,  // measure 38
1000
0100
0010
0100
0010
0001
0100
0000
,  // measure 39
0010
0100
1000
0100
0010
0100
0001
0000
,  // measure 40
0010
0001
0010
0100
0010
0001
0010
0000
,  // measure 41
0001
1000
0010
1000
0100
0010
0100
1000
,  // measure 42
1000
0100
0010
0001
1000
0100
0010
0001
,  // measure 43
1000
0100
0010
0001
1000
0010
0100
0010
,  // measure 44
0001
0010
1000
0100
0010
0100
0001
0100
,  // measure 45
1000
0010
0100
0010
0001
0010
1000
0100
,  // measure 46
0010
0001
1000
0010
0100
0010
1000
0000
,  // measure 47
0100
0010
0001
1000
0010
0100
0010
1000
,  // measure 48
0100
0010
0001
1000
0100
0010
0001
0000
,  // measure 49
1000
0010
0100
0010
1000
0100
0010
0000
,  // measure 50
0110
1001
0110
1001
,  // measure 51
0011
0000
1000
0100
0000
0010
1000
0010
,  // measure 52
0000
0100
1000
0010
0100
0001
0000
0000
,  // measure 53
0101
0000
0001
1000
0000
0010
0100
0010
,  // measure 54
0000
0010
1000
0100
0010
0100
1000
0000
,  // measure 55
1100
0000
0100
0010
0000
0010
0001
0010
,  // measure 56
0000
0001
1000
0001
0100
0010
1000
0000
,  // measure 57
1010
0000
1100
0000
,  // measure 58
0101
0000
0000
0000
0011
0000
0000
0000
1000
0100
1000
0100
1000
0100
1000
0100
,  // measure 59
1000
0100
0010
0100
,  // measure 60
0010
0001
0000
0100
0000
0010
0000
1000
,  // measure 61
0100
0000
0001
0000
0100
0000
1000
0010
,  // measure 62
0001
0010
0000
1000
0000
1000
0000
0100
,  // measure 63
0010
0001
0100
0010
,  // measure 64
1000
0100
0000
0010
0000
1000
0000
0010
,  // measure 65
0100
0000
1000
0000
0001
0000
1000
0001
,  // measure 66
1000
0100
0000
0010
0000
0001
1000
0010
,  // measure 67
0010
0010
0100
0010
,  // measure 68
0100
0100
0000
0010
0000
0100
0000
0001
,  // measure 69
0010
0000
1000
0000
0010
0000
0001
0100
,  // measure 70
1000
0100
0000
0001
0000
0001
0000
0010
,  // measure 71
0100
1000
0010
0100
,  // measure 72
0001
0010
0000
0100
0000
0001
0000
0100
,  // measure 73
0010
0000
0001
0000
1000
0000
0001
1000
,  // measure 74
0001
0010
0100
1000
0010
0001
0010
1000
,  // measure 75
1010
0000
0000
0000
;
