#TITLE:Centerfold;
#SUBTITLE:;
#ARTIST:Captain Jack;
#GENRE:Speed Dance;
#TITLETRANSLIT:;
#SUBTITLETRANSLIT:;
#ARTISTTRANSLIT:;
#CREDIT:;
#BANNER:centerfold.png;
#BACKGROUND:centerfold-bg.png;
#LYRICSPATH:;
#CDTITLE:;
#MUSIC:centerfold.ogg;
#OFFSET:-0.002;
#SAMPLESTART:35.154;
#SAMPLELENGTH:12.000;
#SELECTABLE:YES;
#BPMS:0.000=175.400;
#STOPS:;
#BGCHANGES:;

//---------------dance-single - Renard----------------
#NOTES:
     dance-single:
     Renard:
     Hard:
     9:
     0.849,0.783,0.585,0.000,0.244:
0000
0000
0000
0000
,
1001
0000
0000
0000
1010
0000
0000
0010
1000
0000
0001
0000
0100
0000
0001
0000
,
0010
0000
0100
0000
1000
0000
0001
1000
0001
0000
1000
0000
0100
0000
0000
0000
,
0011
0000
0000
0000
1100
0000
0000
1000
0010
0000
0100
0000
0001
0000
1000
0000
,
0001
0000
1000
0000
0010
0000
0100
0010
0100
0000
0001
0000
1000
0000
0001
0000
,
1001
0000
0000
0000
0101
0000
0000
0100
0001
0000
1000
0000
0010
0000
1000
0000
,
0100
0000
0010
0000
0001
0000
1000
0001
1000
0000
0001
0000
0010
0000
0000
0000
,
1100
0000
0000
0000
0011
0000
0000
0001
0100
0000
0010
0000
1000
0000
0001
0000
,
1000
0000
0001
0000
0100
0000
0010
0100
0010
0000
1000
0000
0001
0000
0000
0000
,
1001
1000
1001
0001
1001
1000
1001
0000
,
1000
0000
0100
0000
0010
0000
0001
0000
0010
0000
0100
1000
0100
0000
0010
0000
,
0001
0100
0010
1000
0010
0100
0001
0000
,
1000
0000
0100
0000
1000
0000
0001
0000
0010
0000
0001
0000
1000
0001
1000
0000
,
0001
0000
0100
0000
0010
1000
0000
0000
1001
0000
0000
0000
1010
0000
0000
0000
,
0001
0000
0010
0000
0100
0000
1000
0000
0100
0000
0010
0001
0010
0000
0100
0000
,
1000
0010
0100
0001
0100
0010
1000
0000
,
0001
0000
0010
0000
0001
0000
1000
0000
0100
0000
1000
0000
0001
1000
0001
0000
,
1000
0010
0000
0000
1000
0000
0001
0000
0100
0000
0000
0000
0001
0000
1000
0001
,
1000
0000
0100
0000
0010
0000
0001
0000
0100
0001
0000
0000
0100
0000
0010
0000
,
1000
0100
0010
0001
0010
0000
1001
0000
,
0001
0000
0100
0000
0010
0000
1000
0000
0001
1000
0000
0000
0001
0000
0100
0000
,
0010
0000
1000
0000
0100
0000
1000
0000
0001
1000
0001
0000
1000
0000
0001
0000
,
1000
0100
0010
0001
1000
0000
0011
0100
,
1000
0010
0100
0001
0100
0010
1000
0100
,
0010
0000
0001
0000
0010
0000
0001
0000
0010
0001
0010
0000
0100
0000
1000
0000
,
0100
0000
1000
0000
0100
0000
1000
0000
0001
1000
0001
0000
1000
0000
0000
0000
,
0001
0010
0100
1000
0001
0000
1100
0010
,
0001
0100
0010
1000
0010
0100
0001
0010
,
0100
0000
1000
0000
0100
0000
1000
0000
0100
1000
0100
0000
0010
0000
0001
0000
,
0010
0000
0001
0000
0010
0000
0001
0000
1000
0001
1000
0000
0001
0000
0000
0000
,
1100
0000
0000
0000
1010
0000
0000
0010
1000
0000
0001
0000
0100
0000
0001
0000
,
0010
0000
0001
0000
0100
0000
0001
1000
0001
0000
1000
0000
0100
0000
0000
0000
,
1100
0000
0000
0000
1010
0000
0000
0010
1000
0000
0001
0000
0100
0000
0001
0000
,
1000
0000
0100
0000
1000
0000
0001
0010
0001
0000
1000
0000
0001
0000
0000
0000
,
0011
0000
0000
0000
0101
0000
0000
0100
0001
0000
1000
0000
0010
0000
1000
0000
,
0100
0000
1000
0000
0010
0000
1000
0001
1000
0000
0001
0000
0010
0000
0000
0000
,
0011
0000
0000
0000
0101
0000
0000
0100
0001
0000
1000
0000
0010
0000
1000
0000
,
0001
0000
0010
0000
0001
0000
1000
0100
1000
0000
0001
0000
1000
0000
0000
0000
,
0001
0100
0001
0100
0010
0100
0010
0100
,
1000
0100
1000
0100
0010
0100
0010
0100
,
0010
1000
0010
1000
0010
0100
0010
0100
,
0010
0001
0010
0001
0010
0100
1000
0000
,
0100
0001
0100
0001
0100
1000
0100
1000
,
0100
0010
0100
0010
0100
0001
0100
0001
,
0010
0001
0010
0001
0010
1000
0010
1000
,
0010
0100
0010
0001
0010
0100
1000
0000
,
0001
0000
0100
0000
0010
0000
1000
0000
0100
1000
0000
0000
0100
0000
1000
0000
,
0010
0100
0001
0010
0001
0000
1001
0000
,
0001
0000
0100
0000
0010
0000
1000
0000
0100
0000
1000
0100
0000
0000
1000
0000
,
0001
0100
0010
1000
0100
0000
1100
0010
,
0001
0100
0010
1000
0100
0000
1001
0100
,
0010
1000
0100
1000
0001
0010
0001
0100
,
0001
0000
1000
0000
0100
0000
0100
0000
1000
0100
1000
0000
0100
0000
1000
0000
,
0001
0000
0100
0000
0001
0000
0000
0001
0100
0001
0100
0000
0001
0000
0100
0000
,
0010
1000
0100
0010
0001
0000
1001
0000
,
0001
0010
0100
1000
0010
0100
0001
0000
,
1000
0000
0000
0000
0010
0000
0000
0010
1000
0000
0001
0000
0100
0000
0001
0000
,
1000
0000
0100
0000
0010
0000
0000
0010
0001
0010
0001
0000
0010
0000
0001
0000
,
1001
0000
0000
0000
1001
0000
0000
1000
0001
0000
1000
0000
1001
0000
0000
0000
,
1001
0000
0001
0000
1001
0000
1000
0001
1000
0000
0001
0000
1001
0000
0000
0000
,
0110
0000
0000
0000
0110
0000
0000
0010
0100
0000
0010
0000
0110
0000
0000
0000
,
0110
0000
0100
0000
0110
0000
0010
0100
0010
0000
0100
0000
0110
0000
0000
0000
,
1001
0000
0000
0000
1001
0000
0000
0001
1000
0000
0001
0000
1001
0000
0000
0000
,
1001
0000
1000
0000
1001
0000
0001
1000
0001
0000
1000
0000
1001
0000
0000
0000
,
0110
0000
0000
0000
0110
0000
0000
0100
0010
0000
0100
0000
0110
0000
0000
0000
,
0110
0010
0110
0100
0110
0010
1001
0000
;

//---------------dance-single - Renard----------------
#NOTES:
     dance-single:
     Renard:
     Medium:
     7:
     0.503,0.534,0.087,0.032,0.000: // measure 1
0000
0000
0000
0000
,  // measure 2
1000
0000
1000
0000
0001
0100
0001
0000
,  // measure 3
1000
0000
1000
0000
0100
0000
0010
0001
,  // measure 4
1000
0000
0001
0000
0100
0000
0001
1000
,  // measure 5
0001
0000
1000
0000
0010
0010
0010
0000
,  // measure 6
0100
0000
0001
0000
1000
0100
1000
0000
,  // measure 7
0001
0010
0001
0000
1000
0010
1000
0000
,  // measure 8
0001
0000
0100
0000
0001
1000
0001
0000
,  // measure 9
1000
0100
0010
0001
0010
0100
1000
0000
,  // measure 10
0001
0001
1000
1000
0001
0000
1001
0000
,  // measure 11
1000
0000
0010
0000
0100
0001
0100
0000
,  // measure 12
0010
1000
0100
0000
0010
0000
0000
0000
,  // measure 13
0001
0000
0100
0000
0010
1000
0001
0000
,  // measure 14
1000
0100
0010
0001
0010
0000
0100
0000
,  // measure 15
1000
0000
0001
0100
0001
0000
1000
0100
,  // measure 16
1000
0010
1000
0001
1000
0000
0001
0000
,  // measure 17
0100
0001
0010
0001
1000
0001
0000
1000
,  // measure 18
0001
0100
0001
1000
0001
0000
1000
0000
,  // measure 19
0010
0000
0100
0001
1000
0000
0100
1000
,  // measure 20
0001
0000
0100
0001
1000
0000
0100
1000
,  // measure 21
0001
0000
0100
0001
1000
0000
0100
1000
,  // measure 22
0001
1000
1001
1010
,  // measure 23
0101
1001
0010
1001
,  // measure 24
0010
1000
0100
0010
,  // measure 25
0001
0010
0100
0000
1000
0000
0000
0000
,  // measure 26
1000
0100
0010
0000
0001
0000
0000
0000
,  // measure 27
2000
0200
0000
3311
,  // measure 28
1000
0000
0010
0000
0100
0001
0100
0000
,  // measure 29
0010
0010
1000
0100
,  // measure 30
0010
0010
0001
0000
,  // measure 31
1000
0000
0010
0000
0100
0001
0100
0000
,  // measure 32
0010
1000
0010
0000
1000
0000
0100
0000
,  // measure 33
0010
0000
0010
0000
0001
1000
0001
0000
,  // measure 34
0100
0100
0010
0010
,  // measure 35
1000
0000
0100
0000
1000
0001
1000
0000
,  // measure 36
0001
0100
0001
0001
,  // measure 37
1000
1000
0100
0100
,  // measure 38
1000
0010
0100
0001
,  // measure 39
1000
1000
0100
0100
,  // measure 40
0010
0001
1000
1000
,  // measure 41
0001
0000
0100
0000
0001
0000
1000
0001
,  // measure 42
1000
0001
0100
0010
,  // measure 43
1000
1000
0001
0001
,  // measure 44
0100
0001
1000
0000
0001
0000
0100
0000
,  // measure 45
0001
0001
1000
1000
,  // measure 46
0100
0000
0010
0001
0010
0000
0100
0000
,  // measure 47
1000
1000
0010
0100
,  // measure 48
0001
1000
0001
1000
0001
0000
1000
0000
,  // measure 49
0001
1000
0001
1000
,  // measure 50
0010
0100
0010
0100
0010
0000
1000
0000
,  // measure 51
0010
0200
0000
0311
,  // measure 52
1000
0000
0010
0000
0100
0000
0001
0010
,  // measure 53
0001
0000
0010
0000
0100
0000
1000
0001
,  // measure 54
1000
0010
0100
0000
,  // measure 55
0001
0000
0100
0000
0010
0000
1000
0001
,  // measure 56
1000
0000
0001
1000
0001
0000
1000
0000
,  // measure 57
0010
0000
0100
0000
0001
0001
0001
0000
,  // measure 58
1000
0100
0010
0001
,  // measure 59
1000
0000
0100
0000
0001
0010
0100
0000
,  // measure 60
1000
0000
0100
0000
0001
0010
0100
0000
,  // measure 61
1000
0000
0100
0000
0001
0010
0100
0000
,  // measure 62
1000
0100
0001
0000
,  // measure 63
1000
0100
0010
0000
0001
0010
0100
0000
,  // measure 64
1000
0010
0100
0000
0001
0100
0010
0000
,  // measure 65
1000
0100
0010
0001
,  // measure 66
1000
0010
0100
0001
1000
0100
0010
0000
;

//---------------dance-single - Renard----------------
#NOTES:
     dance-single:
     Renard:
     Easy:
     5:
     0.493,0.534,0.715,0.000,0.000:
0000
0000
0000
0000
,
0001
0001
1000
1010
,
0001
0001
0010
0100
,
1001
1000
0010
1000
,
1001
0001
0100
0100
,
0010
1000
0001
0011
,
1000
1100
0001
0101
,
1000
0010
1000
1001
,
0001
0110
1100
0011
,
1000
0001
1000
1001
,
0001
0100
0010
1010
,
0100
0011
0100
0000
,
1000
0010
0100
1001
,
0001
0110
1100
0010
,
0001
1000
1010
0001
,
0011
0101
1001
1000
,
0010
1100
1001
1000
,
1001
1010
1001
0001
,
0100
0010
1001
0010
,
1001
0010
1001
0010
,
1001
0010
1001
0010
,
1001
0001
1001
0101
,
1010
1001
0100
1001
,
0100
0001
0010
0100
,
1000
0110
0001
0000
,
0001
0110
1000
0000
,
0001
0100
0010
1001
,
0001
0100
0010
1010
,
0100
0100
0001
0010
,
0100
0100
1000
0000
,
0001
0100
0010
1010
,
0100
0101
0001
0010
,
0100
0100
1000
1001
,
0010
0010
0100
0100
,
0001
0010
0001
1001
,
1000
0010
1000
1000
,
0001
0001
0010
0010
,
0001
0100
0010
1000
,
0001
0001
0010
0010
,
0100
1000
0001
0001
,
1000
0010
1000
0001
,
1001
1000
0010
0100
,
0001
0001
1000
1000
,
0010
1001
1000
0010
,
1000
1000
0001
0001
,
0010
0100
1100
0010
,
0001
0001
0100
0010
,
1000
1001
1001
0001
,
1000
0001
1000
0001
,
0100
0110
0110
0001
,
0100
0010
0000
1001
,
0001
0100
0010
1000
,
1100
0100
0010
0001
,
1001
0100
0010
0000
,
1000
0010
0100
0001
,
1001
1000
1001
0001
,
0100
0010
1000
1000
,
0001
0010
0100
1000
,
0001
0010
1000
0110
,
0001
0010
1000
0110
,
0001
0010
1000
0110
,
0001
0010
1000
0000
,
0001
0110
1000
0110
,
0001
0110
1000
0110
,
0001
0010
0100
1000
,
0001
0110
1001
0110
;
