#TITLE:Capital Murder;
#SUBTITLE:;
#ARTIST:Genaside;
#TITLETRANSLIT:;
#SUBTITLETRANSLIT:;
#ARTISTTRANSLIT:;
#CREDIT:;
#BANNER:captial.png;
#BACKGROUND:capital-bg.png;
#LYRICSPATH:;
#CDTITLE:;
#MUSIC:capital.ogg;
#OFFSET:-0.060;
#SAMPLESTART:33.520;
#SAMPLELENGTH:12.000;
#SELECTABLE:YES;
#BPMS:0.000=172.000,44.000=171.860,58.000=171.400,109.333=171.980,125.333=171.680,132.333=171.560,133.333=171.460,142.000=171.740,159.000=171.040,163.000=170.920,170.000=171.760,180.667=171.340,200.667=171.400,213.000=171.840,237.000=171.320,242.000=171.540;
#STOPS:;
#BGCHANGES:;
#GENRE:Nustyle Hardcore;

//---------------dance-single - Renard----------------
#NOTES:
     dance-single:
     Renard:
     Challenge:
     10:
     0.761,0.847,0.922,0.126,0.936:
0000
0000
0000
0000
,
0000
0000
0000
0000
,
0000
0000
0000
0000
,
0000
0000
0000
0000
,
0000
0000
0000
0000
,
0000
0000
0000
0000
,
0000
0000
0000
0000
0000
1000
0001
0000
0000
0000
0000
0100
,
0010
0000
0000
0000
0000
1000
0001
0000
0000
0000
0000
0000
,
1010
0000
0010
1000
0000
1000
0100
0000
0100
0010
0001
0010
,
0100
0000
0100
1000
0000
1000
0010
0000
0010
0100
0001
0100
,
0001
0000
0001
1000
0000
1000
0100
0000
0100
0010
0001
0010
,
0100
0000
0100
1000
0000
1000
0010
0000
0010
0100
0001
0100
,
0010
1000
0010
1000
0000
1000
0001
0000
0001
0100
0001
1000
,
0100
0000
0100
1000
0001
0100
0010
0000
0010
1000
0000
1000
,
0010
0000
0010
0100
0001
0100
0010
0000
0000
0010
0000
0010
,
1000
0000
1000
0100
0000
0100
0010
0000
0000
0011
0000
1000
,
1100
0000
1000
0100
0000
0100
0010
0000
0000
0010
0000
0010
,
0001
0000
0001
0100
0000
0100
0010
0000
0000
0010
0000
0010
,
1010
0000
0010
0100
0000
0100
0001
0000
0000
0001
0000
0001
,
1000
0000
1000
0100
0000
0100
0100
0000
0100
0100
0000
0000
,
1100
0000
0100
0010
0000
0010
0011
0000
0001
0100
0000
0100
,
0101
0000
0001
0100
0000
0100
0110
0000
0010
1000
0000
0010
,
1010
0000
0010
1000
0000
1000
0001
0000
0101
0000
0110
0000
,
1010
0000
1100
0000
0011
0000
2002
0000
0110
0000
0000
3003
,
1100
0000
0100
0010
0000
0010
0110
0000
0000
0011
0000
0000
,
0101
0000
0001
0100
0000
0100
0110
0000
0000
1010
0000
0000
,
1001
0000
0001
0100
0000
0001
1000
0000
0000
1001
0000
0000
,
1100
0000
0100
0010
0000
0000
0011
0000
0000
2200
0000
0000
,
3311
0000
0000
1000
0000
0001
0010
0000
0000
0010
0000
0100
,
1000
0010
0100
0001
0000
0000
0001
0100
0010
1000
0000
0000
,
1001
0000
0001
0100
0000
0010
1000
0000
0000
1001
0000
1000
,
1100
0000
0001
0011
0000
0001
1001
0000
0000
0110
0000
0100
,
0001
0000
1000
0100
0000
0010
0001
0000
0000
1100
0000
0100
,
1000
0000
0000
0011
0000
0001
0100
0000
0000
1010
0000
0001
,
0100
0000
0100
0010
0000
0010
2000
0000
0000
3200
0000
0000
,
0301
0000
0001
0100
0000
0100
0010
0001
0010
1000
0000
1000
,
0010
0000
0010
0100
0000
0100
1000
0000
0000
0010
0000
0010
,
0100
0000
0000
0001
0000
0001
1001
0000
1000
1010
0000
0000
,
0101
0110
1100
1001
,
0101
0011
1010
1001
,
1100
0011
0101
1010
,
1001
0000
0100
1010
0000
0100
0011
0000
0010
0100
0000
0000
,
1100
0011
0110
1100
,
0101
0000
0010
1001
0000
0100
1010
0000
0100
0001
0000
0000
,
0011
1100
1010
0101
,
1001
0000
0010
0101
0000
0010
1100
0000
0100
0010
0000
0000
,
0011
1100
0110
0011
,
1010
0000
0100
1001
0000
0010
0101
0000
0010
1000
0000
0000
,
0001
0100
0001
0100
0010
0100
0010
0000
0010
1000
0000
1000
,
0100
0010
0100
0010
0000
0010
0001
0100
0001
0100
0000
0100
,
0010
1000
0100
0010
0000
0010
0100
1000
0010
0100
0000
0100
,
0001
0100
0001
0100
0000
0000
0010
1000
0010
1000
0000
0000
,
0010
0100
0001
0100
0000
0100
0010
0000
0010
1000
0000
1000
,
0100
0010
0100
0010
0000
0010
0001
1000
0001
1000
0000
1000
,
0001
0100
0010
0100
0000
0100
0001
0000
0000
2200
0000
0000
,
0022
0000
0000
3333
,
1000
0000
0100
0001
0000
0001
0000
0000
0000
1100
0000
0000
,
0011
0000
0001
0010
0000
0010
1000
0000
0000
1010
0000
0000
,
0011
0000
0001
0100
0000
0100
0000
0000
0000
1100
0000
0000
,
0100
0001
0100
0010
0000
0010
1000
0000
0000
0011
0000
0000
,
0100
1000
0100
0001
0000
0001
0000
0000
0000
1100
0000
0000
,
1000
0000
0010
0001
0000
0010
0100
0000
0000
0101
0000
0000
,
1010
0000
0001
0100
0000
1100
0000
0000
0100
0001
0000
0001
,
0100
0000
0010
1000
0001
1000
0001
0000
0000
1001
0000
0000
,
1100
0000
0010
0001
0000
0001
0100
0000
0000
0010
0000
0000
,
1000
0100
1000
0010
0000
0010
0100
0000
0000
0001
0000
0000
,
1100
0000
0010
0001
0000
0010
1000
0000
0000
0010
0000
0000
,
0100
0001
0100
1000
0000
0000
0010
0000
0000
1001
0000
0000
,
0101
0000
0010
1000
0000
1000
0010
0000
0000
0101
0000
0000
,
1100
0000
1000
0100
0000
0001
0100
0000
0000
0110
0000
0000
,
0010
0000
1000
0000
0000
0001
0100
0000
0100
0001
0000
1000
,
0100
0000
0000
0000
0010
0000
0001
0000
0000
0000
0010
0000
0200
0000
0000
0000
0000
0000
0000
2000
0000
0000
0000
0000
,
0000
0020
0000
3330
;

//---------------dance-single - Renard----------------
#NOTES:
     dance-single:
     Renard:
     Hard:
     9:
     0.567,0.635,0.272,0.049,0.704:
0000
0000
0000
0000
,
0000
0000
0000
0000
,
0000
0000
0000
0000
,
0000
0000
0000
0000
,
0000
0000
0000
0000
,
0000
0000
0000
0000
,
0000
0000
0000
0000
,
0000
0000
0000
0000
,
1000
0000
1000
0001
0000
0001
0100
0000
0000
0100
0000
0100
,
0010
0000
0000
0010
0000
0010
1000
0000
0000
1000
0000
1000
,
0100
0000
0010
0001
0000
0010
0100
0000
0000
0100
0000
1000
,
0010
0000
0000
0010
0000
0100
0001
0000
0000
0100
0000
0001
,
1000
0000
1000
0100
0000
0100
0010
0000
0000
0001
0000
0001
,
1000
0000
0000
0010
0000
0010
0100
0000
0000
0001
0000
0001
,
1000
0000
0100
1000
0000
0001
1000
0000
0000
0001
0000
0001
,
0010
0000
0000
0100
0000
1000
0010
0000
0000
1001
0000
0000
,
1010
0000
0100
0001
0000
0010
0100
0000
0000
0000
0000
0000
,
1010
0000
0100
0001
0000
0010
0100
0000
0000
0000
0000
0010
,
0001
0000
0100
0010
0000
1000
0001
0000
0000
0000
0000
0010
,
0001
0000
0100
0010
0000
1000
0100
0000
0000
0000
0000
0000
,
0011
0000
0010
0100
0000
1000
0010
0000
0010
0100
0000
0001
,
0010
0000
0010
0100
0000
1000
0010
0000
0010
0100
0000
0001
,
1000
0000
1000
0100
0000
0010
0001
0000
0010
0000
0100
0000
,
1000
0000
0010
0000
0100
0000
2002
0000
0000
0000
3003
0000
,
1000
0000
1000
0010
0000
0010
0100
0000
0000
0100
0000
0100
,
0001
0000
0000
0010
0000
0010
0100
0000
1000
0010
0100
0001
,
0010
0000
0010
0100
0000
0100
1000
0000
0000
1000
0000
0010
,
0100
0000
0000
0001
1000
0001
1000
0000
0000
0001
1000
0001
,
1000
0000
1000
0010
0000
0010
0100
0000
0000
0001
0000
0001
,
0010
0000
0000
0010
0100
1000
0010
0000
0000
0100
0000
0000
,
1001
0000
0000
1000
0000
1000
0100
0000
0000
0010
0000
0010
,
0001
0000
0000
0100
0000
0100
0010
0000
0000
1000
0000
0100
,
0010
0000
0001
0010
0000
0100
1000
0000
0000
0010
0000
0100
,
0001
0000
0000
1000
0000
0100
0010
0000
0000
0001
0000
0010
,
0100
0000
1000
0010
0000
0100
0001
0000
0000
1000
0000
0100
,
0010
0000
0000
0001
0000
0010
0100
0000
0000
1000
0000
0000
,
0110
0000
0000
0001
0000
0100
0010
0000
0000
1000
0000
0100
,
0010
0000
0000
0001
0000
0010
0100
0000
1000
0010
0000
0000
,
0101
0000
0000
0101
0000
0010
1000
0000
0100
0010
0000
0010
,
0001
0000
1000
0100
0000
0100
0010
0000
0001
0010
0000
0000
,
1100
0010
0101
0010
,
1001
0000
0000
1000
0000
0100
0010
0000
0001
0010
0000
0000
,
1100
0011
0101
1010
,
1001
0000
1000
0100
0000
0010
0001
0000
0010
0010
0000
0000
,
0100
1010
0101
1010
,
0101
0000
0000
0010
0000
1000
0100
0000
0010
0001
0000
0000
,
0110
1010
0101
0010
,
1000
0000
1000
0100
0000
0010
0001
0000
0001
0001
0000
0000
,
0100
0000
0010
1000
0000
0000
0100
0000
0010
0001
0000
0000
,
0100
1010
0101
1010
,
0001
0000
0100
0010
0000
0000
1000
0000
0100
0010
0000
0000
,
0001
0000
0010
0100
0000
0010
0100
0000
0010
0100
0000
0000
,
1000
0000
0010
0100
0000
0000
0001
0000
0100
0010
0000
0000
,
1000
0000
0100
0010
0000
0000
0001
0000
0010
0100
0000
0000
,
1000
0000
0010
0100
0000
0010
0100
0000
0001
0100
0000
0001
,
1000
0000
0000
0000
,
1000
0000
0100
0010
0000
0001
0000
0000
0000
0000
0000
0000
,
0100
0000
0010
1000
0000
0010
1000
0000
0000
0010
0000
0000
,
0100
0000
0001
1000
0000
0100
0000
0000
0000
0000
0000
0000
,
1000
0000
0001
0010
0000
0010
0100
0000
0000
1000
0000
0000
,
0010
0000
0100
0001
0000
0100
0000
0000
0000
0000
0000
0000
,
0010
0000
1000
0100
0000
0100
0010
0000
0000
0001
0000
0000
,
0010
0000
0100
1000
0000
0010
0000
0000
0000
0000
0000
0000
,
0100
0000
0001
0100
0000
0010
1000
0000
0000
0101
0000
0000
,
0010
0000
1000
0100
0000
0010
0000
0000
0000
0000
0000
0000
,
0001
0000
0010
0100
0000
1000
0100
0000
0000
0010
0000
0000
,
0001
0000
1000
0010
0000
0100
0000
0000
0000
0000
0000
0000
,
0001
0000
0100
0010
0000
0010
1000
0000
0000
0100
0000
0000
,
0010
0000
0001
1000
0000
0010
0000
0000
0000
0000
0000
0000
,
0100
0000
0001
1000
0000
0100
0010
0000
0000
0001
0000
0000
,
0010
0000
0100
0000
0000
1000
0010
0000
0100
0001
0000
0100
,
0010
0000
0000
0000
1000
0000
0100
0000
0000
0000
0010
0000
0002
0000
0000
0000
0000
0000
0000
0200
0000
0000
0000
0000
,
0000
0020
0000
0333
;

//---------------dance-single - Renard----------------
#NOTES:
     dance-single:
     Renard:
     Medium:
     7:
     0.424,0.529,0.233,0.039,0.393:
0000
0000
0000
0000
,
0000
0000
0000
0000
,
0000
0000
0000
0000
,
0000
0000
0000
0000
,
0000
0000
0000
0000
,
0000
0000
0000
0000
,
0000
0000
0000
0000
,
0000
0000
0000
0000
,
1001
0000
0000
1000
0000
0100
0010
0000
0000
0000
0000
0000
,
0001
0000
0010
0000
,
0100
0000
0000
1000
0000
0010
0100
0000
0000
0000
0000
0000
,
0001
0000
0100
0000
,
0010
0000
0000
1000
0000
0100
0010
0000
0000
0000
0000
0000
,
0001
0000
1000
0000
,
0001
0000
0100
0000
,
0010
0000
1000
0010
0000
0000
1000
0000
0010
1000
0000
0000
,
0010
0000
0000
0010
0000
0100
0001
0000
0000
0000
0000
0000
,
0010
0000
0000
0010
0000
0100
1000
0000
0000
0000
0000
0000
,
0010
0000
0000
0010
0000
0100
0001
0000
0000
0000
0000
0000
,
0010
0000
0000
0010
0000
0100
1000
0000
0000
0000
0000
0000
,
0100
0000
0000
0100
0000
0010
0001
0000
0000
0001
0000
0100
,
0010
0000
0000
0010
0000
1000
0100
0000
0000
0100
0000
1000
,
0001
0000
0000
1000
0000
0000
0001
0000
1000
0000
0001
0000
,
1000
0000
0001
0000
1000
0000
0002
0000
0000
0000
0000
0000
,
1003
0000
0000
1000
0000
0010
0100
0000
0000
0000
0000
0000
,
0011
0010
0110
0100
,
1100
0000
0000
1000
0000
0010
0100
0000
0000
0000
0000
0000
,
0101
0100
0110
0010
,
1010
0000
0000
1000
0000
0010
0100
0000
0000
0000
0000
0000
,
0101
0001
0011
0010
,
0110
0000
0000
0100
0000
1000
0010
0000
0000
0000
0000
0000
,
1000
0000
0000
0010
0000
1000
0010
0000
1000
0010
0000
0000
,
1000
0000
0000
1000
0000
0010
0100
0000
0000
0000
0000
0000
,
0001
0000
0000
0100
0000
0001
0100
0000
0000
0000
0000
0000
,
0010
0000
0000
1000
0000
0100
1000
0000
0000
0000
0000
0000
,
0001
0000
0000
0010
0000
0001
0100
0000
0000
0000
0000
0000
,
0001
0000
0000
1000
0000
0100
0010
0000
0000
0000
0000
0000
,
0001
0000
0000
0010
0000
0100
1000
0000
0000
0000
0000
0000
,
0010
0100
0001
1000
,
1100
0110
0011
1001
,
1010
0100
0001
0010
,
0100
0000
0000
1000
0000
0010
1000
0000
0010
1000
0000
0000
,
0101
0100
0101
0100
,
0110
0000
0000
0010
0000
1000
0010
0000
1000
0010
0000
0000
,
0110
0100
0101
0001
,
1001
0000
0000
1000
0000
0100
1000
0000
0100
1000
0000
0000
,
1010
1000
1001
0001
,
0101
0000
0000
0001
0000
1000
0001
0000
1000
0001
0000
0000
,
1000
1000
0010
0010
,
0100
0000
0000
0100
0000
0001
0100
0000
0001
0100
0000
0000
,
0001
0001
0010
0010
,
0100
0000
0000
0100
0000
1000
0100
0000
1000
0100
0000
0000
,
1000
1000
0010
0010
,
0100
0000
0000
0100
0000
0001
0100
0000
0001
0100
0000
0000
,
0001
0000
1000
0000
0000
0100
0010
0000
0001
0010
0000
0100
,
1000
0000
0010
0100
0000
0001
1000
0000
0001
1000
0000
0000
,
0001
0000
1000
0010
0000
0100
0000
0000
0000
0000
0000
0000
,
0000
0000
0001
1000
0000
1000
0001
0000
0000
1000
0000
0000
,
0000
0000
0001
1000
0000
1000
0000
0000
0000
0000
0000
0000
,
0000
0000
0001
1000
0000
1000
0100
0000
0000
0010
0000
0000
,
0000
0000
0001
1000
0000
1000
0000
0000
0000
0000
0000
0000
,
0000
0000
0001
0100
0000
0100
0010
0000
0000
1000
0000
0000
,
0000
0000
0100
0010
0000
0010
0000
0000
0000
0000
0000
0000
,
0000
0000
0001
0100
0000
0100
0001
0000
0000
1000
0000
0000
,
0000
0000
0100
1000
0000
1000
0000
0000
0000
0000
0000
0000
,
0000
0000
0001
1000
0000
1000
0010
0000
0000
1000
0000
0000
,
0000
0000
0100
0010
0000
0010
0000
0000
0000
0000
0000
0000
,
0000
0000
0001
0100
0000
0100
0001
0000
0000
0010
0000
0000
,
0000
0000
0001
1000
0000
1000
0000
0000
0000
0000
0000
0000
,
0000
0000
0010
1000
0000
1000
0100
0000
0000
0010
0000
0000
,
0000
0000
0001
1000
0000
1000
0000
0000
0000
0000
0000
0000
,
0010
0000
0100
0000
0002
0000
0000
2000
,
0000
0000
0000
0000
0000
0000
0000
0020
0000
0000
0000
0000
0000
0000
0000
3033
0000
0000
0000
0000
0000
0000
0000
0000
;

//---------------dance-single - Renard----------------
#NOTES:
     dance-single:
     Renard:
     Easy:
     5:
     0.359,0.636,0.281,0.049,0.209: // measure 1
0000
0000
0000
0000
,  // measure 2
0000
0000
0000
0000
,  // measure 3
0000
0000
0000
0000
,  // measure 4
0000
0000
0000
0000
,  // measure 5
0000
0000
0000
0000
,  // measure 6
0000
0000
0000
0000
,  // measure 7
0000
0000
0000
0000
,  // measure 8
0000
0000
0000
0000
,  // measure 9
1001
1010
0101
0000
,  // measure 10
1000
0000
0000
0000
0000
1000
0001
0000
0000
0000
0000
0000
,  // measure 11
0101
1001
1100
0000
,  // measure 12
0001
0000
0000
0000
0000
0001
1000
0000
0000
0000
0000
0000
,  // measure 13
1010
1001
1100
0000
,  // measure 14
1000
0000
0000
0000
0000
1000
0001
0000
0000
0000
0000
0000
,  // measure 15
0000
0000
0100
0000
0000
0000
0010
0000
0000
0000
0000
0000
,  // measure 16
0000
0000
1000
0000
0000
0000
0100
0000
0000
0000
0000
0000
,  // measure 17
0011
0000
0110
0000
,  // measure 18
1100
0000
0110
0000
,  // measure 19
0011
0000
0101
0000
,  // measure 20
0110
0000
1010
0000
,  // measure 21
1100
0110
0011
0101
,  // measure 22
0110
1010
1100
0110
,  // measure 23
0011
0000
1001
0000
,  // measure 24
1000
0000
0001
0000
1000
0000
0002
0000
0000
0000
0000
0000
,  // measure 25
1003
0000
0000
1000
0000
0000
1000
0000
0000
0000
0000
0001
,  // measure 26
0100
0000
0000
0000
0000
0001
0100
0000
0000
0000
0000
0000
,  // measure 27
0001
0000
0000
0001
0000
0000
0001
0000
0000
0000
0000
1000
,  // measure 28
0100
0000
0000
0000
0000
1000
0100
0000
0000
0000
0000
0000
,  // measure 29
1000
0000
0000
1000
0000
0000
1000
0000
0000
0000
0000
0001
,  // measure 30
0100
0000
0000
0000
0000
0001
0100
0000
0000
0000
0000
0000
,  // measure 31
0001
0000
0000
0001
0000
0000
0001
0000
0000
0000
0000
1000
,  // measure 32
0100
0000
0000
0000
0000
0010
0001
0000
0000
1000
0000
0000
,  // measure 33
0001
0001
0001
0001
,  // measure 34
0001
0000
0000
0001
0000
0000
0001
0000
0100
0010
0000
0000
,  // measure 35
1000
1000
1000
1000
,  // measure 36
1000
0000
0000
1000
0000
0000
1000
0000
0100
0010
0000
0000
,  // measure 37
0001
0001
0001
0001
,  // measure 38
0001
0000
0000
0001
0000
0000
0001
0000
0010
0100
0000
0000
,  // measure 39
1000
1000
1000
1000
,  // measure 40
1000
0000
0000
1000
0000
0000
1000
0000
0010
0100
0000
0000
,  // measure 41
0001
0001
0001
0001
,  // measure 42
0001
0000
0000
0001
0000
1000
0001
0000
1000
0001
0000
0000
,  // measure 43
1000
1000
1000
1000
,  // measure 44
1000
0000
0001
1000
0000
0001
1000
0000
0001
1000
0000
0000
,  // measure 45
0001
0001
0001
0001
,  // measure 46
0001
0000
0000
0001
0000
1000
0001
0000
1000
0001
0000
0000
,  // measure 47
1000
1000
1000
1000
,  // measure 48
1000
0000
0001
1000
0000
0001
1000
0000
0001
1000
0000
0000
,  // measure 49
0001
0000
0000
0001
0000
0000
0001
0000
0000
0000
0000
0100
,  // measure 50
0010
0000
0000
0000
0000
1000
0010
0000
0000
0000
0000
0000
,  // measure 51
0100
0000
0000
0100
0000
0000
0100
0000
0000
0000
0000
0001
,  // measure 52
0010
0000
0000
0000
0000
0100
0010
0000
0000
0000
0000
0000
,  // measure 53
0001
0000
0000
0001
0000
0000
0001
0000
0000
0000
0000
1000
,  // measure 54
0010
0000
0000
0000
0000
0100
0010
0000
0000
0000
0000
0000
,  // measure 55
0000
1000
0000
0000
0000
0000
0100
0000
0000
0000
0000
0000
,  // measure 56
0000
0000
0001
0000
0000
0000
0010
0000
0000
0000
0000
0000
,  // measure 57
0100
0000
0000
0100
0000
0010
0000
0000
0000
0000
0000
0000
,  // measure 58
0001
0000
0100
0000
,  // measure 59
0010
0000
0000
1000
0000
0100
0000
0000
0000
0000
0000
0000
,  // measure 60
0010
0000
0100
0000
,  // measure 61
1000
0000
0000
0010
0000
0100
0000
0000
0000
0000
0000
0000
,  // measure 62
0001
0000
0100
0000
,  // measure 63
0001
0000
0000
1000
0000
0100
0000
0000
0000
0000
0000
0000
,  // measure 64
0010
0000
0001
0000
,  // measure 65
0110
0100
0001
0001
,  // measure 66
0100
0100
1000
1000
,  // measure 67
0110
0100
0001
0100
,  // measure 68
1000
0100
0002
0000
,  // measure 69
1003
1000
0100
0100
,  // measure 70
0010
0010
0001
0001
,  // measure 71
0000
0000
1000
0000
0000
0000
0010
0000
0000
0000
0000
0000
,  // measure 72
0001
0000
0000
0000
0200
0000
0000
0020
,  // measure 73
0000
0000
0000
0000
0000
0000
0000
0002
0000
0000
0000
0000
0000
0000
0000
0000
0000
0000
0000
0000
0000
0333
0000
0000
;
