#TITLE:Capacity!;
#SUBTITLE:;
#ARTIST:MGD-Crew;
#TITLETRANSLIT:;
#SUBTITLETRANSLIT:;
#ARTISTTRANSLIT:;
#CREDIT:;
#BANNER:run.img;
#BACKGROUND:run-bg.img;
#LYRICSPATH:;
#CDTITLE:;
#MUSIC:run.ogg;
#OFFSET:0.000;
#SAMPLESTART:31.628;
#SAMPLELENGTH:12.000;
#SELECTABLE:YES;
#BPMS:0.000=182.000;
#STOPS:;
#BGCHANGES:;
#GENRE:Cheesecore;

//---------------dance-single - Renard----------------
#NOTES:
     dance-single:
     Renard:
     Hard:
     9:
     0.704,0.668,0.603,0.000,0.005:
0000
0000
0000
0000
,
0000
0000
0000
0000
,
0000
0000
0000
0000
,
0000
0000
0000
0000
,
1000
0000
1000
1000
0001
0100
0010
0000
,
0000
1000
0000
1000
0001
0100
0001
0010
,
0100
0000
0100
0100
1000
0010
0100
0000
,
0000
0001
0000
0001
0100
0000
0010
0000
,
1000
0000
0010
0000
0101
0000
0100
0010
,
1000
0100
0010
0001
0010
0100
1000
0010
,
0100
0000
0001
0000
1100
0000
0010
0001
,
0010
0100
1000
0010
0100
0000
0001
0000
,
1010
0000
0100
0001
0010
0000
0100
1000
,
1010
0000
0100
0001
0010
0000
0001
0100
,
0101
0000
0100
0010
1000
0000
0100
1000
,
1100
0000
0010
0001
0011
0000
0010
0100
,
1100
0000
0000
1010
0000
0101
0000
1001
,
0000
1100
0000
0010
0001
1000
0010
0000
,
0101
0000
0000
0010
0000
1000
0000
0100
,
0000
0010
0000
0001
1000
1000
0001
0000
,
0110
0000
0000
1010
0000
0101
0000
0011
,
0000
1100
0000
1000
0010
0100
0001
0000
,
1100
0000
0000
0011
0000
0101
0000
0010
,
1000
0001
1000
0001
1000
0100
1000
0100
,
1000
0010
0100
0001
0000
1010
0000
1100
,
0000
0010
0001
0100
0010
1000
0100
0000
,
0010
0001
1000
0010
0000
0101
0000
1010
,
0000
1100
0000
0011
0000
1000
0001
0100
,
0001
1000
0100
0010
0000
0011
0000
0110
,
0000
1100
0000
1000
0010
0100
0001
0100
,
0010
1000
0100
0010
0000
0011
0000
0110
,
0000
1100
0000
1000
0010
0100
0001
0100
,
0001
0000
0001
1000
0000
1000
0001
0000
,
0100
0010
0100
0010
1000
0010
1000
0010
,
1000
0000
1000
0100
0000
0100
0010
0000
,
0001
0010
0001
0010
0100
0010
0100
1000
,
0100
1000
0010
0100
0000
0100
0001
0000
,
0100
0010
1000
0100
0010
0001
0010
0100
,
1000
0001
0100
0001
0000
0001
1000
0000
,
0100
1000
0001
0100
0001
0000
1001
0000
,
1000
0000
0010
0000
0110
0000
0100
0001
,
0100
0010
1000
0000
1010
0000
1000
0100
,
0010
0000
0001
0000
0011
0000
0010
0100
,
1000
0010
0100
0000
0101
0000
0001
0100
,
0001
0000
1000
0000
1100
0000
0001
0010
,
0100
1000
0010
0000
1010
0000
1000
0010
,
0100
0000
0001
0100
0010
0000
1000
0100
,
0010
0011
0110
1100
,
1000
0000
0010
0100
0001
0100
0010
1000
,
0100
0000
0010
0001
0010
0100
1000
0010
,
0100
0000
0001
0100
0010
1000
0100
1000
,
0010
1000
0001
1000
0100
1000
0010
1000
,
0100
0000
0100
1000
0010
0100
0001
0010
,
0010
0000
0010
0001
0100
0010
1000
0100
,
0100
0000
1000
0010
0100
0000
0100
0001
,
0100
0010
1000
0000
1001
0000
1010
0000
,
0101
0000
0100
0001
0010
0100
1000
0000
,
1010
0000
0100
0001
0010
0100
1000
0000
,
1001
0000
1000
0001
0100
0010
1000
0100
,
1100
0011
0101
1010
,
1001
0000
0100
0010
1000
0100
0010
0001
,
0011
0000
0010
0100
1000
0010
0100
0001
,
0101
0000
0100
0010
0110
0000
0010
1000
,
1010
0101
1001
1100
,
0011
0000
1000
0000
0001
0100
0010
0000
,
1000
0000
0100
0000
0010
0001
0010
0100
,
1000
0000
0001
0000
0100
0001
1000
0000
,
0100
0000
1000
0000
0001
1000
0010
1000
,
0001
0000
0100
0000
0001
1000
0100
0000
,
1000
0000
0001
0010
0001
1000
0010
0000
,
1001
0000
1000
0010
0100
0000
0001
1000
,
0100
0010
0001
1000
0010
0100
0001
0000
,
1001
0000
1000
0010
0100
0001
0100
0010
,
1000
0010
0100
0001
1000
0100
0010
0001
,
0010
0100
1000
0010
0100
0001
0100
1000
,
0100
0001
0100
0010
0100
1000
0100
0010
,
0100
0001
0010
0100
1000
0010
0100
0001
,
0100
1000
0100
0001
0010
0100
1000
0100
,
0001
0100
1000
0010
0100
0001
0100
0010
,
1000
0010
0100
0001
0100
1000
0100
0001
,
1000
0001
1000
0000
0001
0000
0100
0000
0010
0000
1000
0000
0100
0000
0010
0000
,
1001
0110
1001
0000
0000
0000
0000
0000
;

//---------------dance-single - BlueChaos----------------
#NOTES:
     dance-single:
     BlueChaos:
     Medium:
     6:
     0.496,0.483,0.192,0.009,0.000:
0000
0000
0000
0000
,
0000
0000
0000
0000
,
0000
0000
0000
0000
,
0000
0000
0000
0000
,
1000
1000
0001
1000
,
0000
0000
0001
0000
1000
0001
1000
0000
,
0001
0001
1000
0001
,
0000
0000
1000
0000
0001
1000
0001
0000
,
1000
0010
1010
0000
,
0001
0100
0101
0000
,
0001
0010
0011
0000
,
1000
0100
1100
0000
,
1001
0100
0010
1000
,
0010
0100
0001
0010
,
0001
0100
0001
1000
,
0110
1000
0101
1000
,
1010
0000
1000
0100
0000
0100
0000
0100
,
0000
0100
0000
0100
0010
0001
1000
0000
,
0010
0000
1000
0001
0000
0001
0000
0001
,
0000
0001
0000
0001
0200
0000
0000
0000
,
0310
0000
1000
0010
0000
0100
0000
0001
,
0000
1000
0000
0100
0010
0010
0001
0000
,
1000
0000
0010
0100
0000
0001
0000
1000
,
0010
0000
0010
0000
1000
0001
1000
0000
,
0001
1010
0100
0001
,
0010
0110
0100
1000
,
0010
0101
0010
1000
,
0100
0011
0100
1000
,
0010
1001
0100
0010
,
1000
0101
0001
0010
,
0100
1010
0100
0001
,
1000
0000
0001
0000
1000
0001
1000
0000
,
0001
0001
1000
0010
,
0100
0000
0001
0000
1000
0001
1000
0000
,
0001
0001
0100
0100
,
0010
0000
0010
0000
1000
0100
1000
0000
,
0010
1000
0100
0100
,
0010
0000
0010
0000
0001
1000
0001
1000
,
0001
0000
0001
1000
0001
0000
1000
0001
,
1000
0001
1000
0000
0001
1000
0001
0000
,
1000
0010
0100
0001
,
1000
0100
1000
0100
1000
0100
1000
0000
,
1000
0010
0100
0001
,
0010
0001
0010
0001
0010
0001
0010
0000
,
0001
0100
0010
1000
,
0100
1000
0100
1000
0100
1000
0100
0000
,
1000
0010
0100
0001
,
0010
0001
0010
0001
0010
0000
0001
0000
,
1000
1000
0001
0001
,
0100
0000
0010
0000
1000
0010
1000
0010
,
0100
0001
0010
0100
,
1000
0000
0001
0000
0100
0001
0100
0001
,
0100
0100
0010
0010
,
1000
0000
0100
0000
1000
0001
1000
0001
,
1000
0010
0100
0001
,
0010
0001
0010
0000
0001
0010
0001
0000
,
0100
0000
0100
0000
0010
1000
0010
1000
,
0010
0010
1000
1000
,
0001
0000
0100
0000
0001
0010
0001
0010
,
0001
0001
0100
0100
,
1010
0000
1000
0000
0100
1000
0100
1000
,
0100
0010
0001
0100
,
0001
0000
0100
0001
0100
0000
0010
1000
,
0010
1001
0000
1001
,
1010
0000
0100
0000
,
0001
0000
0010
0000
0100
0000
1000
0001
,
1000
0000
0010
0000
,
0100
0000
0001
0000
1000
0000
0100
1000
,
0100
0000
1000
0000
,
0010
0000
0100
0000
0001
0000
0010
0001
,
0010
0000
0000
0100
1000
0000
0000
1000
,
0010
0000
0100
0000
0001
0000
1000
0001
,
1000
1000
0001
0001
,
0100
0001
1000
0001
1000
0001
1000
0000
,
0001
0100
0010
1000
,
0001
0000
1000
0000
0010
1000
0001
1000
,
0001
0100
0001
1000
,
0100
0000
0010
0000
0001
1000
0001
1000
,
0001
0100
0010
1000
,
0001
1000
0001
1000
0001
1000
0001
0000
,
1000
0001
0100
0001
1000
0100
1000
0000
,
0110
1001
0000
0000
;

//---------------dance-single - BlueChaos----------------
#NOTES:
     dance-single:
     BlueChaos:
     Challenge:
     12:
     1.000,1.000,0.640,0.484,0.749: // measure 1
0000
0000
0000
0000
,  // measure 2
0000
0000
0000
0000
,  // measure 3
0000
0000
0000
0000
,  // measure 4
0000
0000
0000
0000
,  // measure 5
1000
0100
0100
0010
0011
0001
1001
0000
,  // measure 6
0000
0000
0010
0000
0100
0000
0001
0100
0010
0000
1000
0000
1001
0000
0001
0000
,  // measure 7
0100
0001
1001
0100
0010
1000
1100
0000
,  // measure 8
0000
0000
1000
0000
0100
0010
0001
0000
0001
0010
0100
0000
0010
0000
0100
0000
,  // measure 9
0110
0010
0001
0100
0101
0001
2000
0000
,  // measure 10
0000
0000
3001
0000
0010
0000
0100
1000
0010
0000
1000
0000
1010
0000
0010
0000
,  // measure 11
0101
0001
1000
0010
0010
1000
1100
0000
,  // measure 12
0000
0000
1000
0000
1100
0000
1001
0000
0001
0000
1000
0001
0100
0000
0010
0000
,  // measure 13
1000
0001
0100
1000
0100
0001
0020
0000
,  // measure 14
0000
0000
0130
0000
1000
0000
0010
1000
0100
0000
0010
0000
0011
0000
0001
0000
,  // measure 15
0100
0110
0010
1000
0001
0001
0101
0000
,  // measure 16
0001
0100
0001
0100
0010
0100
0010
1000
0010
1000
0100
0010
0001
0010
0100
1000
,  // measure 17
0100
1000
0100
22MM
33MM
2M2M
3M3M
2MM2
,  // measure 18
3MM3
M2M2
M3M3
0011
0001
0100
0110
0000
,  // measure 19
2MM2
0MM0
3MM3
M2M2
M3M3
MM22
MM33
22MM
,  // measure 20
33MM
2M2M
3M3M
0100
2MM2
0MM0
3MM3
0000
,  // measure 21
0010
0100
1000
22MM
33MM
MM22
MM33
2M2M
,  // measure 22
3M3M
MM22
MM33
M11M
0100
0010
MM22
MM33
,  // measure 23
1MM1
1000
0010
2M2M
3M3M
22MM
33MM
M22M
,  // measure 24
M33M
0000
MM22
0000
MM33
0000
1MM1
0000
0001
0100
0010
1000
0100
1000
0010
0000
,  // measure 25
1000
0010
0100
0001
0010
1000
0010
0001
,  // measure 26
0100
0010
0100
0001
2000
0100
0200
3000
,  // measure 27
1300
0M10
0001
0010
0100
0001
0100
0010
,  // measure 28
1000
0000
0100
0000
0010
0000
0100
0000
2000
0000
3001
0100
0010
0000
0100
0000
,  // measure 29
0101
0001
0010
0100
0010
0001
1000
0010
,  // measure 30
0001
0010
0100
0001
0020
0100
0200
0030
,  // measure 31
0310
0M01
0100
1000
0100
0001
0010
1000
,  // measure 32
0010
0000
0100
0000
1000
0000
0100
0000
0010
0001
0010
0001
0100
0010
1000
0000
,  // measure 33
0002
0100
0203
001M
0320
1M00
2030
01M0
,  // measure 34
3100
0000
M010
0000
0001
0100
0010
0000
0100
0000
0010
0000
0100
0010
1000
0001
,  // measure 35
0010
0001
0100
1000
0100
0001
0100
0001
,  // measure 36
0010
0001
0100
0000
0010
0000
1000
0000
0100
0000
0010
0001
0100
0000
0001
0000
,  // measure 37
2000
0100
3100
M010
0002
0100
0103
001M
,  // measure 38
1000
0000
0001
0100
0010
1000
0100
0000
1000
0000
0100
0000
0010
0001
0100
0001
,  // measure 39
1000
0100
0020
0001
0031
01M0
0010
1000
,  // measure 40
0100
1000
0001
1000
0010
1000
0001
1000
0100
0010
0001
0100
0010
1000
0001
0000
,  // measure 41
1000
0010
0100
0101
0001
1000
1100
0000
,  // measure 42
1010
0000
0010
1000
0100
0000
1000
0000
1001
0000
0001
0100
0010
0000
1000
0000
,  // measure 43
1100
0100
0010
0011
0001
0100
0101
0000
,  // measure 44
1001
0000
0001
1000
0010
1000
0100
0000
1100
0000
1000
0100
0010
0001
0100
0000
,  // measure 45
0101
0000
0001
0000
1000
0000
0100
0000
1100
0000
1000
0000
0010
1000
0001
0000
,  // measure 46
1001
0000
1000
0001
0100
0010
1000
0000
1010
0000
0010
1000
0100
0010
0100
0000
,  // measure 47
1100
1000
0010
0110
0100
0001
1001
0000
,  // measure 48
1000
0001
0100
0001
1000
0010
0100
0001
0010
0100
1000
0100
0010
0001
1000
0000
,  // measure 49
0001
0010
0001
0000
0010
0000
0010
0000
0100
1000
0100
0000
1000
0000
1000
0000
,  // measure 50
0001
0100
0001
0000
0100
0000
0100
0000
0010
1000
0001
1000
0100
0010
0001
0000
,  // measure 51
1000
0001
1000
0000
0001
0000
0100
0000
0010
1000
0001
0000
1000
0000
0100
0000
,  // measure 52
0010
0100
1000
0000
0100
1000
0010
0000
1000
0001
0100
0000
0001
0100
0010
1000
,  // measure 53
0100
0000
1000
0000
0100
0000
0010
0000
0001
0100
0010
0000
0100
0000
0001
0000
,  // measure 54
1000
0100
0010
0000
0100
0000
1000
0000
0010
1000
0001
1000
0100
0010
0001
0000
,  // measure 55
1000
0000
0001
0000
0100
0001
0010
0000
0100
0000
1000
0000
0100
1000
0010
0000
,  // measure 56
1000
0000
0100
0000
0010
0001
0100
0000
0001
0000
0100
0001
1000
0100
0010
0001
,  // measure 57
1000
0000
0010
0000
1000
0010
0100
0000
0010
0000
0100
0000
0001
0010
0100
0000
,  // measure 58
0010
0000
0001
0000
0100
0010
1000
0000
0010
0000
0100
0000
0001
0000
1000
0000
,  // measure 59
0100
1000
0100
0000
1000
0000
0010
0000
0100
0001
0100
0000
0001
0000
1000
0000
,  // measure 60
0001
0100
0001
0000
0001
0010
0001
0000
0001
1000
0001
0000
0001
1000
0100
0010
,  // measure 61
0100
0000
1000
0000
0010
0100
0001
0000
1000
0000
0100
0000
1000
0010
0100
0000
,  // measure 62
1000
0000
0100
0000
0001
1000
0100
0000
0001
0000
0100
0000
1000
0010
0100
0000
,  // measure 63
0001
0000
0100
0000
0010
1000
0100
0000
1000
0100
0010
0000
0100
1000
0010
0000
,  // measure 64
1000
0100
1000
0001
0100
0001
1000
0010
1000
0001
0010
0100
0010
0001
1000
0000
,  // measure 65
1001
0000
0001
0000
0101
0000
0100
0001
1000
0000
0010
0000
1010
0000
0000
0000
,  // measure 66
0000
0000
1000
0000
1001
0000
0001
0100
0010
0000
0100
0000
0110
0000
0010
0000
,  // measure 67
1000
0000
0100
0010
0001
0000
1000
0000
1100
0000
0010
0000
0001
0000
0000
0000
,  // measure 68
0000
0000
0010
0000
0001
0000
0001
0000
0010
0000
0100
1000
0001
0100
0010
0000
,  // measure 69
1001
0001
0100
0001
0010
0100
1000
1010
,  // measure 70
1010
0000
1000
0000
0001
0000
0100
0000
0001
0100
0010
0000
1000
0000
0100
0000
,  // measure 71
0011
0001
0100
0010
0100
0001
1100
0000
,  // measure 72
0000
0000
1000
0000
0010
0100
0010
0000
1000
0001
1000
0000
0001
0100
0010
0000
,  // measure 73
1000
0100
0010
0100
1000
0100
0010
0001
1000
0010
0100
0010
1000
0100
0010
0001
,  // measure 74
1000
0100
0010
0001
0100
0010
1000
0000
0001
0000
0100
0000
0010
0000
1000
0000
,  // measure 75
1000
0010
0100
0001
0100
0010
1000
0100
0010
0100
0010
0001
0100
0010
0100
0010
,  // measure 76
1000
0001
1000
0010
0100
0001
0010
0000
0001
0000
02M0
0000
00M0
0000
00M0
0000
,  // measure 77
0310
1000
0010
0100
0001
0100
0010
1000
0001
0010
0100
0010
0001
1000
0010
0100
,  // measure 78
0001
0010
0100
1000
0010
0100
0010
0100
0001
0000
1000
0000
0100
0000
1000
0000
,  // measure 79
0010
0100
0010
1000
0100
0010
0001
0010
0001
1000
0001
0100
0001
0010
0100
1000
,  // measure 80
0100
0010
0001
0000
0100
0001
0100
0000
0010
1000
0010
1000
0100
0000
0100
0000
,  // measure 81
1000
0100
0010
0001
0010
0100
1000
0000
0100
1000
0010
0100
0010
1000
0100
0000
,  // measure 82
1001
0110
1001
0000
0000
0000
0000
0000
;

//---------------dance-single - BlueChaos----------------
#NOTES:
     dance-single:
     BlueChaos:
     Easy:
     4:
     0.392,0.557,0.302,0.292,0.000:
0000
0000
0000
0000
,
0000
0000
0000
0000
,
0000
0000
0000
0000
,
0000
0000
0000
0000
,
1000
0100
0010
0001
,
0000
0010
0001
0100
,
0010
1000
0001
1000
,
0000
0100
0100
0010
,
0010
0001
0100
0101
,
0000
1001
0010
1001
,
0100
0001
1000
0100
,
0000
1000
1000
0001
,
0001
1000
0100
0010
,
0000
0001
0100
0100
,
0001
1000
0100
1000
,
2002
0000
0000
3003
,
2000
0000
0000
0001
0000
0001
0000
0001
,
0000
0001
0000
3001
0000
0000
1001
0000
,
0002
0000
0000
1000
0000
1000
0000
1000
,
0000
1003
0000
0000
1100
0000
0000
0000
,
2000
0000
0000
0010
0000
0010
0000
0010
,
0000
3010
0000
0000
1001
0000
0000
0000
,
0002
0000
0000
0010
0000
0010
0000
0010
,
0000
0013
0000
0000
2002
0000
3003
0000
,
1000
1000
1000
1000
,
0001
0001
0002
0203
,
0310
0010
1000
1000
,
0001
0010
0022
0033
,
0001
0001
1000
1000
,
0010
0010
0200
0302
,
1003
0100
0010
0001
,
0010
0100
2000
0000
,
3001
0000
0101
0000
,
0001
0001
1000
1000
,
0200
0000
1000
0000
,
2300
0000
0001
0000
,
3002
0000
0100
0000
,
0203
0000
0010
0000
,
0320
0000
1000
0000
,
2030
0000
0000
0000
,
3001
0000
0101
0000
,
1000
0000
1100
0000
,
0010
0000
1010
0000
,
1000
0000
1100
0000
,
0001
0000
0101
0000
,
1000
0000
1001
0000
,
0001
0000
0011
0000
,
0020
0000
0000
0000
,
0130
1000
0100
1000
,
0001
1000
0001
0100
,
0001
0100
0010
1000
,
0001
1000
0100
0100
,
1000
0001
0100
0010
,
1000
0001
1000
0100
,
0010
0100
1000
0001
,
0100
0001
1000
0000
,
2001
0001
3001
0000
,
0102
0100
0103
0000
,
0210
0010
0310
1020
,
1000
1030
2001
0001
,
3001
0100
0100
0001
,
1000
0100
0100
0010
,
0001
1000
0001
1000
,
0200
0000
0000
0000
,
1300
0000
1001
0000
,
0001
1000
1100
0000
,
1000
0001
0010
0011
,
0000
0001
0001
0001
,
1001
0000
0000
0000
,
1100
0000
0000
0000
,
0011
0000
0000
0000
,
1000
0001
0001
0010
,
0200
0000
0000
1000
0000
1000
0000
1000
,
0000
1300
0000
0000
1001
0000
0000
0000
,
0002
0000
0000
0100
0000
0100
0000
0100
,
0000
0103
0000
0000
1010
0000
0000
0000
,
2000
0000
0000
0001
0000
0001
0000
0001
,
0000
3001
0000
0000
0011
0000
0000
0000
,
0020
0000
0000
0100
0000
0100
0000
0100
,
0000
0130
0000
0000
0101
0000
0001
0000
,
0010
0100
0010
0001
,
1000
1001
0000
0000
;
