#TITLE:Call of the Shadows;
#SUBTITLE:;
#ARTIST:Renard;
#GENRE:Symphonic;
#TITLETRANSLIT:;
#SUBTITLETRANSLIT:;
#ARTISTTRANSLIT:;
#CREDIT:;
#BANNER:call.png;
#BACKGROUND:call-bg.png;
#LYRICSPATH:;
#CDTITLE:;
#MUSIC:call.ogg;
#OFFSET:0.000;
#SAMPLESTART:9.560;
#SAMPLELENGTH:16.000;
#SELECTABLE:YES;
#BPMS:0.000=250.000,152.000=125.000,216.000=250.000;
#STOPS:216.000=1.440
;
#BGCHANGES:;

//---------------dance-single - Renard----------------
#NOTES:
     dance-single:
     Renard:
     Challenge:
     11:
     0.848,1.000,0.226,0.138,0.531:
0000
0000
0000
0000
,
0000
0000
0000
0000
,
0000
0000
0000
0000
,
0000
0000
0000
0000
,
1000
0000
0100
1000
0010
0000
0010
0100
,
0000
0001
0010
0000
0001
0000
1000
0000
,
0010
0100
0010
0100
0001
0000
0001
1000
,
0000
1000
0010
0000
0100
0000
0020
0000
,
0000
0000
0000
0000
,
0000
0000
0000
0000
,
0130
0000
0010
1000
0100
0000
0100
1000
,
0000
0001
0000
0100
0000
0010
1000
0000
,
0100
0000
1000
0010
0100
0000
0001
0010
,
0000
0001
0000
1000
0100
0000
1000
0100
,
1000
0000
0001
0010
0100
0000
0010
0001
,
0000
0100
0000
0001
0000
0010
0100
0000
,
0010
0000
0001
0100
0001
0000
0010
0001
,
0000
1000
0000
0100
0010
0000
0100
1000
,
0010
0000
0100
0001
0100
0000
0010
0100
,
0000
0110
0000
1010
0000
1001
1001
0000
,
0101
0000
0001
0100
0010
0000
1000
0100
,
0000
1010
0000
0001
0100
0010
0100
0010
,
0100
0000
0010
0000
1000
0000
0100
1000
,
0010
0000
0000
0000
0100
0000
0000
0000
0001
0000
0000
0010
0001
0000
0100
0000
,
0001
1000
0010
0000
0100
0000
0010
0000
,
1000
0000
0000
0000
0010
0000
0100
0000
0001
0000
0100
0000
0001
0000
0010
0001
,
0010
0000
0001
0100
0010
0000
1000
0010
,
0000
1010
0000
1001
0000
0101
0101
0000
,
1000
0000
0010
0100
0001
0000
0010
0001
,
0000
0100
0000
0010
0100
0010
0100
0010
,
0100
0000
0110
0000
1001
0000
1010
1010
,
0000
0000
0001
0000
0100
0000
0010
1000
,
0001
0000
0100
0000
0010
0000
1000
0010
,
0100
0001
0100
0000
0010
0000
1000
0000
,
1000
0000
2000
0100
0000
0200
0010
0000
,
0020
0001
0000
0001
3331
0000
1000
0010
,
0100
0000
0001
0000
0100
0010
1000
0100
,
0010
0000
0100
1000
0010
0100
0001
0000
,
1000
0100
1000
0100
0010
0001
0010
0001
1000
0010
1000
0010
0100
0001
0100
0001
,
0100
0010
0100
0010
1000
0001
1000
0001
0100
0001
0100
0001
1000
0010
1000
0010
,
1000
0100
0010
0001
0010
0100
1000
0010
0100
0001
1000
0010
0100
0010
1000
0100
,
1000
0100
0010
0100
1000
0010
0100
0010
1000
0100
0010
1000
0010
0100
1000
0010
,
0100
0001
0010
0100
0001
0100
0010
0001
0100
0001
0010
0001
0100
0010
1000
0100
,
0010
0001
0010
0100
0001
0100
1000
0100
0001
0100
1000
0010
0100
1000
0001
0010
,
0100
0010
0001
1000
0100
0010
0100
0001
0100
1000
0100
0001
0010
0001
0100
0010
,
1000
0100
1000
0010
0100
0001
0100
0010
1000
0100
0010
0001
0010
0100
1000
0010
,
0100
0000
0100
0001
0100
0000
0010
1000
0000
0100
0000
1000
0000
0020
2000
0030
,
0010
3000
1000
0000
0100
1000
0010
0000
0100
0001
0010
0001
0100
0000
0010
0000
,
1000
0100
0001
0000
0100
1000
0010
0100
0001
0100
0010
1000
0010
0000
0100
0000
,
0001
0010
0001
0010
0100
1000
0100
1000
0001
0100
0001
0100
0010
0000
0010
0000
,
1000
0000
1000
0010
0100
0000
0100
0001
0000
0010
0000
0001
0000
0200
0020
0300
,
0100
0000
0130
0010
1000
0000
0010
0100
0000
0001
0000
1000
0010
0100
0001
1000
,
0001
0000
0001
0000
0100
0000
0010
1000
0100
1000
0010
0000
0100
0000
0001
0010
,
0001
0000
0100
0010
1000
0000
0100
1000
0010
0100
0001
0000
1000
0000
0020
0000
,
0000
0030
0000
0000
0000
0000
0000
0000
0000
0000
0000
0000
0000
0000
0000
0000
1000
0000
0000
0000
0000
0000
0000
0000
0010
0000
0000
0000
1000
0000
0000
0000
,
0100
0000
0010
0001
0000
0010
0000
0100
,
0000
1000
0001
0000
0100
0000
0001
0010
,
0001
0000
1000
0100
0000
1000
0000
0100
,
0010
0000
0100
1000
0010
0000
0100
0001
,
0010
0000
0100
0010
0000
0001
0000
0100
,
0000
0001
0010
0000
0100
0000
1000
0001
,
1000
0000
0100
0010
0000
0001
0000
1000
,
0010
0000
0100
0001
1000
0000
1000
1000
,
0100
0000
0100
1000
0000
0010
0000
0100
,
0000
0100
0001
0000
0010
0000
0001
0100
,
0010
0000
1000
1000
0000
0100
0000
1000
,
0100
1000
0010
0100
0001
0000
0010
0001
,
0100
0000
0010
2000
0000
0100
0000
0010
,
0000
3100
2000
0000
3200
0000
1300
0010
,
0100
0000
0001
0010
0000
0001
0000
0100
,
0000
0020
2000
0030
3010
0000
0100
0001
,
0100
0000
0010
1000
0000
0100
0000
1000
,
0000
0010
0100
0000
0001
0000
0100
0010
,
0100
0000
0001
0010
0000
0001
0000
0100
,
0010
1000
0010
0100
0001
0000
1000
0010
,
0100
0000
0001
0100
0010
0000
1000
0010
,
0100
0000
0001
0100
0010
0000
1000
0100
,
0010
0000
0001
0010
0100
0000
1000
0010
,
0100
0001
0100
0000
0001
0000
1000
0010
,
0100
0000
0100
0001
0000
0011
0000
1001
,
0000
1010
1010
0000
0101
0000
1000
0010
,
0100
0000
0001
0100
0000
1001
0000
1010
,
0000
1100
1100
0000
0001
0000
0001
1000
,
0000
1000
0010
0000
0010
0100
0000
0100
,
0001
0000
0000
0000
1000
0000
0010
0000
0000
0000
0000
0000
1000
0100
0010
0001
,
0010
0100
1000
0010
0100
0001
1000
0010
0100
0000
0000
0000
0000
0000
0000
0000
;

//---------------dance-single - ----------------
#NOTES:
     dance-single:
     Renard:
     Hard:
     10:
     0.682,0.966,0.000,0.098,0.216:
0000
0000
0000
0000
,
0000
0000
0000
0000
,
0000
0000
0000
0000
,
0000
0000
0000
0000
,
1000
0000
0001
1000
0001
0000
0100
0000
,
0010
1000
0100
0010
,
0001
0000
0010
0100
1000
0000
0010
0100
,
0001
0100
0010
1000
,
0200
0000
0000
0000
,
0300
0000
0000
0000
,
1000
0000
0100
1000
0100
0000
1000
0010
,
0000
0010
0000
0010
0000
0100
0001
0000
,
0010
0000
0100
1000
0010
0000
0100
0001
,
0000
0001
0000
0001
0100
0000
0010
0100
,
0001
0000
0001
0100
0010
0000
0010
1000
,
0000
1000
0000
1000
0000
0010
0100
0000
,
0001
0000
0010
0100
1000
0000
0010
0100
,
0000
0001
0000
1000
0001
0000
1000
0001
,
0100
0000
0001
0100
0001
0000
0100
0001
,
0000
1000
0000
0010
0000
0100
0001
0000
,
1000
0000
0100
0010
0001
0000
0010
0100
,
0000
1000
0000
0010
0100
0001
0100
0001
,
0100
0010
1000
0100
,
0010
0001
0010
0100
,
1000
0010
0100
0001
,
0010
0100
1000
0010
,
0100
0000
0001
0100
0001
0000
0100
0001
,
0000
0100
0000
0001
0000
0100
0010
0000
,
1000
0000
0100
1000
0100
0000
1000
0100
,
0000
1000
0000
0010
0000
0100
0001
0000
,
1000
0000
0010
0000
0100
0000
0001
0010
,
0100
1000
0010
0100
,
0001
1000
0100
0010
,
0001
0010
0100
1000
,
0100
0000
0100
1000
0000
1000
0010
0000
,
0010
0100
0000
0100
0001
0000
0010
0001
,
0010
0100
1000
0010
,
0100
0001
0100
0001
0100
0000
0001
0000
,
0100
0000
0001
0100
0001
0000
0100
0000
0010
0000
1000
0000
0200
0000
0000
0000
,
1300
0000
0100
1000
0010
0000
0100
0000
0001
0000
0010
0000
0200
0000
0000
0000
,
1300
0000
0010
0100
0001
0000
0010
0100
1000
0000
0100
1000
0200
0000
0000
0000
,
1300
0000
0010
0100
0001
0000
0010
0100
1000
0100
1000
0000
0200
0000
0000
0000
,
1300
0000
1000
0000
0010
0000
0010
0000
0100
0000
0001
0010
0100
1000
0010
0000
,
0100
0000
0001
0000
0010
0000
0001
0000
1000
0000
0100
0010
0001
0010
0100
0000
,
1000
0000
0010
0000
0100
0000
0001
0000
0010
0000
0100
0010
0001
0010
0100
0000
,
1000
0000
0010
0000
0100
0000
0001
0000
0010
0000
0100
1000
0100
1000
0100
0000
,
1000
0000
0000
1000
0010
0000
0000
0010
0100
0000
0001
0000
0010
0000
0100
1000
,
0100
0000
0000
0100
1000
0000
0000
1000
0010
0000
0100
0000
0001
0000
0010
0100
,
1000
0000
0000
1000
0100
0000
0000
0100
1000
0000
0010
0000
0100
0000
0001
0010
,
0100
0000
0000
0100
1000
0000
0000
1000
0100
0000
1000
0000
0010
0000
0100
0001
,
0100
0000
0001
0100
0001
0000
0100
0000
0010
0000
0000
0010
1000
0000
0000
1000
,
0100
0000
0010
0001
0010
0000
0000
0010
0100
0000
0000
0100
1000
0000
0000
1000
,
0010
0000
0100
0001
0100
0000
0010
1000
0010
0000
0000
0100
0001
0000
0000
0100
,
0010
0000
0000
1000
0010
0000
0000
0100
0001
0000
0000
0010
0100
1000
0010
0100
,
0001
0000
0000
0000
1000
0000
0001
1000
,
0001
0000
1000
0001
0000
1000
0000
0001
,
0000
1000
0001
0000
1000
0000
0001
1000
,
0001
0000
1000
0001
0000
1000
0000
0001
,
1000
0000
0001
0000
0100
0000
0010
0100
,
0010
0000
0100
0010
0000
0100
0000
0010
,
0000
0100
0010
0000
0100
0000
0010
0100
,
0010
0000
0100
0010
0000
0100
0000
0010
,
0100
0000
0010
0100
0010
0000
1000
0000
,
0010
0000
0100
0001
0000
0010
0000
0100
,
0000
2000
0020
3000
0130
0000
0001
0000
,
0010
0000
0100
1000
0000
0010
0000
0100
,
0002
0000
0200
0003
0310
0000
0100
0000
,
0010
1000
0010
0001
,
0010
0100
0010
1000
,
0100
0010
0001
0010
,
0100
0000
1000
0010
0100
0000
0010
0100
,
0010
0000
0100
0001
0000
0100
0000
0010
,
0000
1000
0100
0000
0010
0000
0100
1000
,
0100
0000
1000
0010
0000
0100
0000
0001
,
0000
0010
0100
0000
1000
0000
0010
0000
,
1000
0001
1000
0010
,
1000
0100
1000
0010
,
0100
0001
0010
0001
,
1000
0000
0001
0000
0100
0001
0100
0001
,
0100
0010
0100
0010
1000
0010
1000
0010
,
0100
0010
0100
0010
1000
0010
1000
0010
,
0100
0001
0100
0001
0010
0001
0010
0001
,
1000
0100
1000
0100
1000
0010
0100
0001
,
0010
0001
1000
0100
1000
0010
0100
0001
,
0010
0001
1000
0200
0000
0000
1300
0010
,
0100
0001
0010
0100
1000
0000
0000
0000
;

//---------------dance-single - Renard----------------
#NOTES:
     dance-single:
     Renard:
     Medium:
     7:
     0.451,0.588,0.029,0.020,0.000:
0000
0000
0000
0000
,
0000
0000
0000
0000
,
0000
0000
0000
0000
,
0000
0000
0000
0000
,
1000
0001
1000
0010
,
0100
0000
0100
0000
,
0001
0100
0010
1000
,
0100
0000
0100
0000
,
2002
0000
0000
0000
,
0000
0000
3003
0000
,
1000
0000
0010
0000
0100
0000
0001
0100
,
0000
0001
0000
0100
0000
0000
0000
0000
,
0010
0000
1000
0000
0100
0000
0010
0001
,
0000
0010
0000
0001
0000
0000
0000
0000
,
0010
0000
0100
0000
1000
0000
0010
0100
,
0000
0010
0000
0100
0000
0000
0000
0000
,
0001
0000
0100
0000
0010
0000
1000
0100
,
0000
1000
0000
0100
0000
0000
0000
0000
,
1000
0010
0100
0001
,
0100
0010
1000
0000
,
0010
0100
0001
1000
,
0100
0010
0001
0000
,
0010
0000
0001
0000
0010
0000
0001
0010
,
0000
0000
0001
0010
,
0100
0000
1000
0100
0000
0000
0000
0000
,
0100
1000
0010
0000
,
0100
0001
0100
0010
,
1000
0100
0010
0000
,
0100
1000
0001
0100
,
0010
1000
0100
0000
,
1000
0000
0010
0000
0100
0000
0001
0100
,
0000
0000
0010
1000
,
0100
0000
0010
0001
,
0100
0000
0010
0000
,
1000
0000
1000
0001
0000
0001
0100
0000
,
0000
0010
1000
0000
,
0010
0000
0100
0000
,
0001
1000
0001
0000
,
0100
0010
0100
0010
0100
0000
0100
0000
,
0001
0100
0001
0100
0001
0000
0001
0000
,
1000
0010
0100
0001
0100
0000
0100
0000
,
0001
0100
0010
1000
0100
0000
0100
0000
,
0010
0001
0010
0000
0001
0010
0001
0000
,
0100
1000
0100
0000
1000
0100
1000
0000
,
0010
0100
0010
0000
0100
0001
0100
0010
,
1000
0000
1000
0000
0010
0100
0010
0000
,
0100
0001
0100
0010
1000
0000
1000
0000
,
0010
0100
0001
0100
0010
0000
0010
0000
,
1000
0100
0010
0001
0010
0000
0010
0000
,
0100
1000
0100
0010
0001
0000
0001
0000
,
0010
0100
1000
0010
0100
0000
0100
0000
,
0001
0100
0010
0100
0001
0000
0001
0000
,
1000
0001
1000
0010
0100
0000
0100
0000
,
0001
0100
0010
1000
0100
0000
0100
0000
,
1001
0000
0100
1000
,
0010
0100
0001
0000
,
0001
0000
0000
0000
0100
0000
0000
0010
,
1000
0100
1000
0010
,
0100
0000
0001
0100
,
0010
1000
0100
0000
,
0100
0000
1000
0010
,
0100
0001
0100
0000
,
0010
0000
1000
0100
,
1000
0000
0010
0100
0000
0001
0000
0100
,
0000
0000
0010
1000
,
0100
0000
0010
0001
0000
0010
0000
0001
,
0000
0000
0010
0001
,
0010
0001
0010
0001
,
0010
0001
0010
0001
,
0010
0001
0010
0001
,
0010
0001
0010
0001
,
0010
0000
0100
1000
0000
0100
0000
1000
,
0000
0000
0100
1000
,
0010
0000
0100
0001
0000
0100
0000
0001
,
0000
0000
0100
0010
,
0100
0010
1000
0010
,
1000
0010
0100
0010
,
0100
0010
1000
0010
,
1000
0000
0010
0100
,
0001
0000
0100
0010
0000
1000
0000
0010
,
0000
0100
0001
0100
,
0010
0000
1000
0010
0000
0100
0000
0001
,
0000
0100
0010
1000
,
0100
0010
0001
0010
,
0100
0000
1000
0000
0000
0000
1000
0100
,
1000
0100
1100
0000
;

//---------------dance-single - Renard----------------
#NOTES:
     dance-single:
     Renard:
     Easy:
     4:
     0.334,0.504,0.118,0.000,0.000: // measure 1
0000
0000
0000
0000
,  // measure 2
0000
0000
0000
0000
,  // measure 3
0000
0000
0000
0000
,  // measure 4
0000
0000
0000
0000
,  // measure 5
1000
0000
0001
0000
,  // measure 6
1000
0001
1000
0000
,  // measure 7
0010
0000
0100
0000
,  // measure 8
0001
0100
0010
0000
,  // measure 9
1001
0000
0000
0000
,  // measure 10
0000
0000
0000
0000
,  // measure 11
1000
0010
1000
0010
,  // measure 12
1000
0000
1000
0000
,  // measure 13
0001
0000
0001
0000
,  // measure 14
0100
0000
0100
0000
,  // measure 15
0010
1000
0010
1000
,  // measure 16
0010
0000
0010
0000
,  // measure 17
0100
0000
0100
0000
,  // measure 18
0001
0000
0001
0000
,  // measure 19
1000
0000
1000
0000
,  // measure 20
0100
0010
0001
0000
,  // measure 21
0010
0000
0010
0000
,  // measure 22
0100
1000
0001
0000
,  // measure 23
0100
0010
0100
0000
,  // measure 24
0010
0000
1000
0000
,  // measure 25
0001
0100
0001
0000
,  // measure 26
0100
0010
0100
0000
,  // measure 27
0010
1000
0010
0100
,  // measure 28
0001
0000
0001
0000
,  // measure 29
0100
0010
1000
0100
,  // measure 30
0010
0000
0010
0000
,  // measure 31
0001
0010
0001
0010
,  // measure 32
0001
0000
0010
0100
,  // measure 33
1000
0000
0100
1000
,  // measure 34
0010
0000
0100
0001
,  // measure 35
0100
0000
0010
0000
,  // measure 36
1000
0000
0100
0010
,  // measure 37
0001
0000
0000
0000
,  // measure 38
0000
0000
0000
0000
,  // measure 39
1000
0010
0100
0001
,  // measure 40
0100
0010
1000
0100
,  // measure 41
0010
0001
0010
0100
,  // measure 42
1000
0010
0100
0001
,  // measure 43
0100
0100
0010
0010
,  // measure 44
1010
1000
0100
0100
,  // measure 45
0110
0010
0001
0001
,  // measure 46
0101
0100
0010
0010
,  // measure 47
1000
0010
0100
0001
,  // measure 48
1000
0010
0100
0001
,  // measure 49
1000
0100
0010
0001
,  // measure 50
1000
0100
0010
0001
,  // measure 51
1000
0001
1000
1001
,  // measure 52
1010
0100
0001
0010
,  // measure 53
0110
0100
1000
0010
,  // measure 54
1010
0010
0100
0001
,  // measure 55
2002
0000
1000
0010
,  // measure 56
0100
0000
0001
0000
,  // measure 57
0001
0000
0100
0000
,  // measure 58
0100
0000
0010
0000
,  // measure 59
0010
0000
1000
0100
,  // measure 60
0010
0000
0001
0000
,  // measure 61
0001
0000
0010
0000
,  // measure 62
0010
0000
0100
0000
,  // measure 63
1000
0000
0100
1000
,  // measure 64
0100
1000
0100
0000
,  // measure 65
0100
0000
1000
0010
,  // measure 66
1000
0010
1000
0000
,  // measure 67
1000
0000
0010
0000
,  // measure 68
0100
0000
0001
0000
,  // measure 69
0100
0000
0010
0000
,  // measure 70
1000
0000
0010
0000
,  // measure 71
0100
0000
0001
0100
,  // measure 72
0001
0000
0100
0000
,  // measure 73
0010
0000
1000
0010
,  // measure 74
0100
0000
0001
0000
,  // measure 75
0100
0000
0010
0000
,  // measure 76
0010
0000
1000
0000
,  // measure 77
1000
0000
0100
0010
,  // measure 78
0001
0000
0010
0100
,  // measure 79
1000
0000
0010
0100
,  // measure 80
0001
0000
0100
0010
,  // measure 81
1000
0000
0010
0100
,  // measure 82
0001
0000
0100
0010
,  // measure 83
1000
0000
0010
0000
,  // measure 84
0100
0000
0001
1000
,  // measure 85
0001
0000
0000
1001
,  // measure 86
0000
0110
0000
0000
1001
0000
0000
0000
;
