#TITLE:C Squared;
#SUBTITLE:;
#ARTIST:Alien#Six13;
#TITLETRANSLIT:;
#SUBTITLETRANSLIT:;
#ARTISTTRANSLIT:;
#GENRE:;
#CREDIT:;
#BANNER:;
#BACKGROUND:;
#LYRICSPATH:;
#CDTITLE:;
#MUSIC:squared.ogg;
#OFFSET:0.000;
#SAMPLESTART:30.935;
#SAMPLELENGTH:12.000;
#SELECTABLE:YES;
#BPMS:0.000=128.000;
#STOPS:;
#BGCHANGES:;
#KEYSOUNDS:;
#GENRE:Future Breaks;
#LABEL:;

//---------------dance-single - Renard----------------
#NOTES:
     dance-single:
     Renard:
     Challenge:
     10:
     0.825,0.000,0.551,0.027,1.000:
0000
0000
0000
0000
,
0000
0000
0000
0000
,
0000
0000
0000
0000
,
0000
0000
0000
0000
,
1000
0000
1000
0100
0000
0100
1000
0000
0001
0000
0100
0010
1000
0000
0001
0100
,
0001
0000
1000
0000
0100
0000
0010
0001
1000
0000
0001
0100
0010
0000
1000
0001
,
0100
0000
0100
0001
0000
0001
1000
0000
1000
0000
0001
0100
0001
0000
1000
0100
,
0010
0000
0001
0010
0100
0000
1000
0000
0001
0100
0001
0000
1000
0001
1000
0000
,
1001
0000
0000
0110
0000
0000
1001
0000
0000
0000
1000
0100
1000
0000
0001
0000
,
0100
0001
0100
0000
0010
0000
1000
0100
0000
0100
1000
0010
0100
0001
0100
0000
,
0101
0000
0000
0110
0000
0000
1010
0000
0000
0000
0001
0100
0010
0000
1000
0000
,
0010
0100
0001
0000
1000
0000
0100
0010
0001
0010
0100
0000
1000
0001
1000
0000
,
0001
0000
0001
0100
0000
0100
0010
0000
0010
1000
0000
1000
0100
0000
0100
0010
,
0001
0010
0100
1000
0000
1000
2000
0000
,
3010
0000
0010
0100
0000
0100
0001
0000
0001
0100
0000
0100
0010
0000
0010
1000
,
0001
0100
0010
1000
0000
1001
1001
0000
,
1010
0000
0000
1001
0000
0000
0101
0000
0000
0011
0000
0000
0110
0000
0000
0000
,
1100
0000
0100
1000
0100
0000
1000
0100
1000
0000
0100
1000
0100
1000
0100
0000
,
0011
0000
0001
0010
0000
0000
1100
0000
0000
1010
0000
0000
0101
0000
0000
0000
,
0011
0000
0010
0001
0010
0000
0001
0010
0001
0000
0010
0001
0010
0001
0010
0000
,
0001
0010
0100
1000
0010
0100
0001
0100
0000
0100
0010
0000
1010
0000
0101
0000
,
0100
0010
1000
0100
0010
0001
0010
0100
1000
0001
0100
0001
1000
0100
1000
0001
,
0010
0100
1000
0000
1010
0000
0001
0100
0000
0100
0010
0000
1010
0000
0101
0000
,
1000
0100
1000
0000
0001
0010
0100
1000
0000
1001
0000
1000
0010
0100
0001
0001
,
0100
0010
1000
0000
1010
0000
0001
0100
0000
0001
0100
0000
1010
0000
0101
0000
,
1000
0100
1000
0000
0001
0010
0100
1000
0000
1000
0010
0100
0001
0100
0001
0000
,
0101
0000
1010
0000
1100
0000
0010
0001
0000
0001
0010
0000
1100
0000
0011
0000
,
1000
0010
0100
0001
0100
0010
1000
0001
0100
0001
0000
1001
0000
1000
0001
1000
,
0001
0100
0010
1000
0100
1000
0000
1100
0000
0010
0001
0010
0100
1000
0010
0100
,
0001
0100
0001
0000
0001
0100
0000
0101
0000
0001
0100
0010
1000
0100
1000
0001
,
0100
0001
0010
0100
1000
0010
0000
1001
0000
0001
0100
0010
0100
0010
1000
0000
,
0001
0100
0010
1000
0010
0100
0000
1001
0000
1000
0010
0100
0001
0100
0001
0000
,
1000
0010
0100
0001
0010
0001
0000
0011
0000
0100
1000
0100
0010
0001
0100
0010
,
1000
0010
1000
0000
1000
0010
0000
1010
0000
1000
0010
0100
0001
0010
0001
1000
,
0010
1000
0100
0010
0001
0100
0000
1001
0000
1000
0010
0100
0010
0100
0001
0000
,
1000
0010
0100
0001
0100
0010
0000
1001
0000
0001
0100
0010
1000
0010
1000
0000
,
0001
0000
0100
0001
0100
0000
0001
0100
0001
0000
0100
0001
0100
0000
0001
0000
,
1000
0000
1000
0001
0000
0001
2000
0000
0000
0000
0001
0000
3001
0000
0000
0000
,
1001
0000
0000
1010
0000
0000
0101
0000
0000
0000
1000
0001
0100
0000
0010
0000
,
1000
0000
0100
0010
0001
0000
0010
0100
0000
0100
1000
0001
0100
0001
0100
0000
,
0101
0000
0000
0110
0000
0000
1100
0000
0000
0000
1000
0100
0001
0000
0100
0000
,
0010
1000
0010
0000
0100
0001
0000
0100
0010
0000
1000
0000
0100
0010
0001
0000
,
1010
0000
0010
0100
0000
0100
0001
0000
0000
0000
0100
0000
0110
0000
0000
0000
,
1000
0010
0100
0000
0001
0000
0100
0010
0000
0010
1000
0100
0010
0001
1000
0000
,
0001
0100
0001
1000
0010
1000
0001
0000
0000
0000
1000
0100
1000
0000
0001
0000
,
0010
0100
1000
0000
0001
0100
0000
1001
0000
1000
0100
1000
0001
0010
0001
0000
,
1000
0000
1000
0001
0000
0001
0100
0000
0100
0001
0000
0001
1000
0000
1000
0100
,
0010
0000
0010
0100
0000
0100
1000
0001
,
1001
1001
0000
0000
0100
0100
0100
0000
,
0010
1000
0001
0200
0000
0010
0310
0000
,
1000
1000
0010
0100
0001
0010
0100
0001
0100
0100
1000
0010
0100
0001
0100
0010
,
1000
0010
1000
0000
0010
1000
0000
0101
0000
0001
0100
0010
1000
0100
0010
0000
,
0001
0001
0010
0100
1000
0010
0100
0001
0100
0100
0010
1000
0100
1000
0010
0100
,
0001
0010
0001
0000
0001
0010
0000
0110
0000
0100
1000
0010
0100
0001
0100
0000
,
0010
1000
0001
0100
0010
1000
0010
0100
0000
0100
0001
0000
0101
0000
0110
0000
,
1010
0000
1000
0000
0100
0010
0000
0011
0000
0001
0010
0100
1000
0010
0100
0001
,
0100
0010
1000
0100
0010
0000
0010
0001
0000
0001
0010
0000
0110
0000
1100
0000
,
1000
0010
0100
0001
0100
0010
1000
0010
0000
0010
0100
0001
1000
0001
1000
0000
,
1001
0000
0000
0000
;

//---------------dance-single - Jinxie----------------
#NOTES:
     dance-single:
     Jinxie:
     Easy:
     3:
     0.240,0.000,0.098,0.178,0.000: // measure 1
0000
0000
0000
0000
,  // measure 2
0000
0000
0000
0000
,  // measure 3
0000
0000
0000
0000
,  // measure 4
0000
0000
0000
0000
,  // measure 5
1000
0010
1000
0000
,  // measure 6
0001
0010
0001
0000
,  // measure 7
0010
1000
0100
0000
,  // measure 8
0001
0010
0100
0000
,  // measure 9
1000
0010
1000
0000
,  // measure 10
1000
0001
0100
0000
,  // measure 11
0010
0001
0100
0000
,  // measure 12
1000
0010
1000
0000
,  // measure 13
0010
0000
1000
0000
,  // measure 14
0002
0000
0000
2000
0000
0000
0000
0000
,  // measure 15
3003
1000
0100
0100
,  // measure 16
2000
0000
0000
0002
0000
0000
0000
0000
,  // measure 17
3003
0100
0100
0010
,  // measure 18
0200
0000
0000
0020
0000
0000
0000
0000
,  // measure 19
0330
0010
0001
0100
,  // measure 20
2000
0000
0000
0020
0000
0000
0000
0000
,  // measure 21
3030
0001
0010
0100
,  // measure 22
1000
1000
0010
0010
,  // measure 23
1000
1000
0001
0001
,  // measure 24
0100
1000
0010
0100
,  // measure 25
0001
0000
1000
0000
,  // measure 26
0010
0100
1000
0100
,  // measure 27
0001
0000
1000
0000
,  // measure 28
0010
0100
1000
1000
,  // measure 29
0011
0010
0000
0010
,  // measure 30
1100
0100
0000
0100
,  // measure 31
1001
0100
0000
0100
,  // measure 32
1010
1000
0000
1000
,  // measure 33
0011
0100
0000
0100
,  // measure 34
0110
1000
0000
1000
,  // measure 35
0011
0100
0000
0100
,  // measure 36
1010
1000
0000
0001
,  // measure 37
2002
0000
3000
0000
,  // measure 38
2003
0000
0000
0002
0000
0000
0000
0000
,  // measure 39
3003
0010
0010
0100
,  // measure 40
0000
0001
0010
0100
,  // measure 41
0000
1000
0100
1000
,  // measure 42
0000
0010
0100
1000
,  // measure 43
0000
0010
0010
1000
,  // measure 44
0000
0100
0010
0001
,  // measure 45
0000
0010
0100
0001
,  // measure 46
0000
1000
0001
0001
,  // measure 47
0220
0000
0000
0330
,  // measure 48
2000
0000
0000
0002
0000
0000
0000
0000
,  // measure 49
3003
0000
0000
0000
,  // measure 50
0200
0000
0000
0002
0000
0000
0000
0000
,  // measure 51
0303
1000
0010
0010
,  // measure 52
1000
1000
0001
0001
,  // measure 53
1000
1000
0100
0100
,  // measure 54
1000
1000
0010
0010
,  // measure 55
0001
0001
0010
0010
,  // measure 56
0001
0001
1000
1000
,  // measure 57
0001
0001
0100
0100
,  // measure 58
0001
0001
1000
0010
,  // measure 59
2002
0000
0000
0000
,  // measure 60
0000
0000
0000
0000
,  // measure 61
3003
0000
0000
0000
;

//---------------dance-single - Jinxie----------------
#NOTES:
     dance-single:
     Jinxie:
     Medium:
     6:
     0.310,0.000,0.027,0.142,0.036: // measure 1
0000
0000
0000
0000
,  // measure 2
0000
0000
0000
0000
,  // measure 3
0000
0000
0000
0000
,  // measure 4
0000
0000
0000
0000
,  // measure 5
1000
0000
0000
1000
0000
0000
1000
0000
0000
0000
0000
0000
0010
0000
0000
0000
,  // measure 6
1000
0100
0010
0100
,  // measure 7
1000
0000
0000
0001
0000
0000
1000
0000
0000
0000
0000
0000
0010
0000
0000
0000
,  // measure 8
0100
0000
0010
0000
1000
0001
0010
0000
,  // measure 9
1000
0000
0000
1000
0000
0000
0010
0000
0000
0000
0000
0000
1000
0000
0000
0000
,  // measure 10
0100
0010
0001
0100
,  // measure 11
0010
0000
0000
1000
0000
0000
0100
0000
0000
0000
0000
0000
1010
0000
0000
0000
,  // measure 12
0010
0000
0100
0000
0001
0010
0001
0000
,  // measure 13
1000
1000
0010
0010
,  // measure 14
2000
0000
0000
0000
0000
0000
0002
0000
0000
0000
0000
0000
0000
3003
0000
0000
,  // measure 15
0010
0100
0001
0010
,  // measure 16
0200
0000
0000
2000
0000
0000
3300
0000
,  // measure 17
0010
1000
0001
0100
,  // measure 18
0020
0000
0000
0200
0000
0000
0330
0000
,  // measure 19
0001
1000
0000
0000
0000
0000
0000
0000
,  // measure 20
0020
0000
0000
0000
0000
0000
2000
0000
0000
0000
0000
0000
0000
3030
0000
0000
,  // measure 21
0001
1000
1000
0010
,  // measure 22
1000
0000
0001
0000
0010
0001
0010
0000
,  // measure 23
0001
1000
0010
0100
,  // measure 24
0010
0000
1000
0000
0001
0010
0100
0010
,  // measure 25
0001
1000
0100
0010
,  // measure 26
0001
0000
0100
0000
0010
0100
0010
0000
,  // measure 27
1000
0100
0010
0001
,  // measure 28
1000
0010
1000
0000
1000
0001
0010
0100
,  // measure 29
1000
1000
0010
0100
,  // measure 30
0001
0010
0100
0000
0001
0000
1000
0000
,  // measure 31
0010
0001
0010
0000
1000
0000
1000
0000
,  // measure 32
0010
0100
0010
0000
0001
0000
0001
0000
,  // measure 33
1000
0001
1000
0000
0010
0000
0010
0000
,  // measure 34
1000
0001
1000
0000
0100
1000
0100
0000
,  // measure 35
1000
0010
1000
0000
0001
0010
0001
0000
,  // measure 36
1000
0010
1000
0001
1000
0010
1000
0000
,  // measure 37
0110
0000
0000
0000
,  // measure 38
2000
0000
0000
0002
0000
0000
0000
3003
,  // measure 39
0010
0000
0000
0100
0000
0000
1000
0000
0000
0000
0000
0000
1000
0000
0000
0000
,  // measure 40
0001
0010
0001
1000
,  // measure 41
0010
0000
0000
0100
0000
0000
0001
0000
0000
0000
0000
0000
1000
0000
0000
0000
,  // measure 42
0010
0000
0100
0000
0001
1000
0001
0000
,  // measure 43
0010
0000
0000
0001
0000
0000
0100
0000
0000
0000
0000
0000
1000
0000
0000
0000
,  // measure 44
0001
0010
0100
1000
,  // measure 45
0010
0000
0000
0010
0000
0000
0010
0000
0000
0000
0000
0000
1000
0000
0000
0000
,  // measure 46
0100
0000
0010
0000
0001
1000
0010
0000
,  // measure 47
1000
0001
0010
1000
,  // measure 48
0020
0000
0000
0200
0000
0000
0000
0330
,  // measure 49
0001
1000
0000
0000
0000
0000
0000
0000
,  // measure 50
0200
0000
0000
0002
0000
0000
0000
0303
,  // measure 51
1000
0010
1000
0100
,  // measure 52
0010
0000
0001
0000
1000
0010
1000
0000
,  // measure 53
0001
0001
0010
0010
,  // measure 54
0100
0000
1000
0000
0010
1000
0001
1000
,  // measure 55
0010
0100
0001
1000
,  // measure 56
0100
0000
1000
0000
0100
0001
0100
0000
,  // measure 57
1000
0010
0100
0010
,  // measure 58
1000
0001
1000
0000
1000
0100
0010
0100
,  // measure 59
0220
0000
0000
0000
,  // measure 60
0330
0000
0000
0000
;

//---------------dance-single - Pyroko + Jinxie----------------
#NOTES:
     dance-single:
     Pyroko + Jinxie:
     Hard:
     9:
     0.447,0.000,0.142,0.444,0.302: // measure 1
0000
0000
0000
0000
,  // measure 2
0000
0000
0000
0000
,  // measure 3
0000
0000
0000
0000
,  // measure 4
0000
0000
0000
0000
,  // measure 5
2000
0000
0000
0200
0000
0000
0002
0000
0000
0000
0000
0000
0000
0000
0000
3303
,  // measure 6
0000
0000
0000
0000
,  // measure 7
0200
0000
0000
0020
0000
0000
2000
0000
0000
0000
0000
0000
0000
0000
0000
0000
,  // measure 8
3330
0000
0000
0000
0000
0000
0000
0000
0000
0000
1010
0000
0001
0010
0001
0000
,  // measure 9
2000
0000
0000
0200
0000
0000
0020
0000
0000
0000
0000
0000
0000
0000
0000
0000
,  // measure 10
3330
0000
0000
0000
,  // measure 11
0020
0000
0000
2000
0000
0000
0002
0000
0000
0000
0000
0000
0000
0000
0000
0000
,  // measure 12
3033
0000
0000
0000
0000
0000
0000
0000
0000
0000
1001
0000
0010
0100
0001
0000
,  // measure 13
0020
0000
0000
0000
,  // measure 14
2000
0000
0030
0002
0000
0000
0000
3003
,  // measure 15
0220
0000
0000
0000
0000
0000
0000
0030
,  // measure 16
2000
0000
0300
0020
0000
0000
0000
3000
,  // measure 17
0002
0000
0000
0000
0000
0000
0000
0033
,  // measure 18
2000
0000
0000
0002
0000
0000
0000
3003
,  // measure 19
0110
0020
0000
0000
0000
0000
0000
0000
,  // measure 20
2000
0000
0030
0002
0000
0003
0002
3003
,  // measure 21
1000
0100
1000
0000
0100
0000
0100
0010
0000
0000
0010
0000
0001
0000
0001
0000
,  // measure 22
0010
1000
0010
0000
0001
0000
0001
0010
0000
0000
0100
0000
1000
0000
1000
0000
,  // measure 23
1000
0100
0010
0000
0010
0000
0100
1000
0000
0000
1000
0000
0100
0000
0001
0000
,  // measure 24
0001
0100
0010
0000
0001
0000
0001
0100
0000
0000
1000
0000
0100
0000
0010
0000
,  // measure 25
1010
0100
0010
0000
1000
0000
0100
1000
0000
0000
0001
0000
0100
0000
0010
0000
,  // measure 26
0101
1000
0100
0000
0010
0000
0010
0001
0000
0000
0010
0000
1000
0000
0001
0000
,  // measure 27
1001
0010
0100
0000
0010
0000
0100
1000
0000
0000
0001
0000
0010
0000
0001
0000
,  // measure 28
0011
0100
1000
0000
0100
0000
0010
0001
0000
0000
0001
0000
0010
0000
0100
0000
,  // measure 29
1000
0000
1000
0100
0000
0100
0000
0000
1000
0000
0100
0000
1000
0000
0100
0000
,  // measure 30
0010
0000
0001
0010
0000
0010
0000
0000
0010
0000
0001
0000
0100
0000
0010
0000
,  // measure 31
1000
0000
0100
0010
0000
0010
0000
0000
0001
0000
0010
0000
0100
0000
0010
0000
,  // measure 32
0001
0000
0001
0010
0000
0010
0000
0000
0100
0000
1000
0000
0100
0000
0010
0000
,  // measure 33
0100
0000
0010
0001
0000
0001
0000
0000
0010
0000
0100
0000
0100
0000
0010
0000
,  // measure 34
0010
0000
0100
0010
0000
0010
0000
0000
0010
0000
0100
0000
1000
0000
1000
0000
,  // measure 35
0100
0000
0100
1000
0000
1000
0000
0000
1000
0000
0100
0000
0010
0000
0010
0000
,  // measure 36
0001
0000
0010
0001
0000
0001
0000
0000
0010
0000
0100
0000
1000
0000
0100
0000
,  // measure 37
2002
0000
0000
0000
0000
0000
0000
3003
,  // measure 38
0020
0000
0000
0200
0000
0000
0000
0330
,  // measure 39
0002
0000
0000
0020
0000
0000
2000
0000
0000
0000
0000
0000
0000
0000
0000
3033
,  // measure 40
0000
0000
0000
0000
,  // measure 41
0020
0000
0000
2000
0000
0000
0002
0000
0000
0000
0000
0000
0000
0000
0000
3033
,  // measure 42
0000
0000
0000
0000
0000
0000
0000
0000
0000
0000
1010
0000
0001
0100
0001
0000
,  // measure 43
0020
0000
0000
0200
0000
0000
2000
0000
0000
0000
0000
0000
0000
0000
0000
3330
,  // measure 44
0000
0000
0000
0000
,  // measure 45
1010
0000
0000
0202
0000
0000
2020
0000
0000
0000
0000
0000
0000
0000
0000
3333
,  // measure 46
0000
0000
0000
0000
0000
0000
0000
0000
0000
0000
0101
0000
0010
1000
0010
0000
,  // measure 47
2000
0000
0000
0000
,  // measure 48
0020
0000
3000
0002
0000
0000
0000
0033
,  // measure 49
1100
0200
0000
0000
0000
0000
0000
0000
,  // measure 50
0002
0000
0000
0010
0000
0300
1000
0003
,  // measure 51
1000
0010
1000
0000
1000
0000
1000
0100
0000
1000
0100
0000
1000
0000
0001
0000
,  // measure 52
0010
0100
0010
0000
0100
0000
1000
0010
0000
1000
0010
0000
0100
0000
0001
0000
,  // measure 53
0010
0001
0010
0000
0100
0000
0010
0001
0000
0010
0001
0000
0100
0000
0001
0000
,  // measure 54
1000
0001
1000
0000
0100
0000
0010
0100
0000
0010
0100
0000
1000
0000
0001
0000
,  // measure 55
1000
0010
1000
0000
1000
0000
0100
1000
0100
1000
0100
0000
1000
0000
0010
0000
,  // measure 56
0100
0001
0100
0000
0001
0000
0100
0010
0100
0010
0100
0000
0010
0000
1000
0000
,  // measure 57
0001
0100
0001
0000
0100
0000
0010
1000
0010
1000
0010
0000
0100
0000
0010
0000
,  // measure 58
0100
0010
0100
0000
0001
0000
0100
0001
0100
0001
0100
0000
0001
0000
1000
0000
,  // measure 59
0220
0000
0000
0000
,  // measure 60
0330
0000
0000
0000
;
