#TITLE:Breathe;
#SUBTITLE:;
#ARTIST:The Prodigy;
#TITLETRANSLIT:;
#SUBTITLETRANSLIT:;
#ARTISTTRANSLIT:;
#CREDIT:;
#BANNER:breathe.png;
#BACKGROUND:breathe-bg.png;
#LYRICSPATH:;
#CDTITLE:;
#MUSIC:breathe.ogg;
#OFFSET:-0.000;
#SAMPLESTART:22.134;
#SAMPLELENGTH:12.000;
#SELECTABLE:YES;
#BPMS:0.000=130.000,213.000=129.000;
#STOPS:;
#BGCHANGES:;
#GENRE:Breakbeats;
#LABEL:XL Recordings;

//---------------dance-single - Renard----------------
#NOTES:
     dance-single:
     Renard:
     Hard:
     8:
     0.566,0.590,0.512,0.020,0.231:
0000
0000
0000
0000
,
0000
0000
0000
0000
,
1000
0010
0100
0001
0100
0010
1000
0100
,
0000
0000
1000
0000
0010
0000
0000
0000
0100
0001
0000
0100
0000
0001
0000
0100
,
0010
1000
0100
0000
1000
0010
0100
0001
,
0000
0000
1010
0000
1001
0000
0000
1100
0000
0000
1000
0000
0010
0000
0100
0000
,
0001
0000
0010
0000
0101
0000
0000
0000
0010
0000
0000
1000
0100
0000
1000
0000
,
0000
0000
0010
0000
0100
0000
0000
1001
0000
0000
0000
0000
0010
0000
0100
0000
,
0001
0000
1000
0000
1010
0000
0000
0000
0100
0000
0000
0001
0010
0001
0010
0000
,
0000
0000
0001
0000
0100
0000
0000
1001
0000
0000
0000
0000
0000
0000
1000
0000
,
0010
0000
0100
0000
1001
0000
0000
0000
0000
0000
0000
0010
0100
0010
0100
0000
,
0000
0000
0010
0000
1001
0000
0000
1010
0000
0000
0100
0000
0001
0000
0100
0000
,
0010
0000
1000
0000
0100
0000
1000
0010
0000
0000
0010
0000
0100
0000
0001
0000
,
0010
0000
0100
0000
1000
0000
0010
0100
0000
0000
0101
0000
0100
0000
0010
0000
,
1000
0100
1000
0010
0100
0001
1000
0100
,
0010
0000
0001
0000
0010
0000
0100
0000
1000
0010
1000
0000
1100
0000
0000
0000
,
2000
0000
0000
0000
0010
0000
0000
0000
0001
0000
0000
3000
0000
0000
0000
0000
,
0002
0000
0000
0000
0100
0000
0000
0000
0010
0000
0010
0000
0010
0003
0000
0000
,
1001
0000
1010
0000
1100
0001
0100
0000
,
0110
0001
0000
1010
0100
0000
0001
0000
,
1000
0010
0100
0000
0001
1000
0000
0100
,
0010
0000
0001
0010
0000
0100
1000
0010
,
0100
0001
0100
0000
0010
1000
0000
0100
,
0010
0000
0000
0000
0001
0000
0000
0000
0010
0100
0000
0010
0000
0100
0000
0010
,
0100
1000
0010
0100
0001
1000
0010
0100
,
0001
1000
0100
0010
0100
1000
0010
0100
,
0001
0100
1000
0100
0001
0010
1000
0010
,
0001
0010
0100
1000
0010
0100
0001
1000
,
0010
0000
0100
0000
1001
0000
0000
0000
1000
0010
1000
0000
0000
0000
0101
0000
,
0000
1010
1100
0000
0000
1010
0000
0101
,
1010
0000
1100
0000
1001
0000
0000
0000
0001
0100
0010
0000
0000
0000
1001
0000
,
0000
1010
0101
0000
1100
0000
1010
1001
,
0100
0000
0001
0000
1010
0000
0000
0000
0000
0000
0000
0001
0100
0010
1000
0000
,
0000
0000
0100
0000
1010
0000
0000
0101
0000
0000
0000
0000
0000
0000
1000
0000
,
0010
0000
0100
0000
1001
0000
0000
0000
0000
0000
0000
0010
0100
0001
1000
0000
,
0000
0000
0010
0000
0101
0000
0000
1010
0000
0000
0000
0000
0000
0000
1000
0000
,
0100
0000
0010
0000
1001
0000
0000
0000
0000
0000
0000
0010
0100
0001
1000
0000
,
0000
0000
0010
0000
0101
0000
0000
1010
0000
0000
0000
0000
0000
0000
0100
0000
,
1000
0000
0010
0000
1001
0000
0000
0000
0000
0000
0000
0010
0100
0001
1000
0000
,
0000
0000
0010
0000
1001
0000
0000
0000
1000
0010
0000
0000
0100
0001
0000
0000
,
0110
1000
0100
1000
0010
0100
0001
0100
,
0010
0100
0010
0100
0001
0100
0010
1000
,
0100
0000
0000
0100
1000
0000
0000
1000
0010
0000
0000
0010
0100
0000
0000
0100
,
0001
0000
0100
0000
0010
0000
1000
0000
0001
1000
0010
0000
1001
0000
0000
0000
,
1000
0010
1010
1000
0001
0000
0100
0000
,
0001
0000
0100
0010
0100
0000
0000
0000
0010
0000
1000
0010
1000
0000
0000
0000
,
0010
0100
0001
0010
0100
1000
0010
0100
,
0001
0100
0010
1000
0100
0010
0001
0010
,
0100
1000
0010
0100
0001
0010
0100
1000
,
0010
0000
0100
0000
0001
0000
0100
0010
0100
0000
0001
0000
0100
0000
0010
0100
,
0010
0100
0001
1000
0010
0100
1001
0000
,
0100
1010
0000
0100
1001
0000
0110
0000
,
1000
0000
0000
0001
0000
0000
0010
0000
0000
0100
0000
1000
,
0010
0000
0100
0001
0000
0000
0110
0000
0000
0000
0000
0000
;

//---------------dance-single - Renard----------------
#NOTES:
     dance-single:
     Renard:
     Medium:
     6:
     0.416,0.483,0.140,0.000,0.000:
0000
0000
0000
0000
,
0000
0000
0000
0000
,
0000
0000
0000
0000
,
0000
1001
1010
0101
,
1000
0001
0100
0001
0100
0001
0100
0000
,
0001
1000
0100
1000
0100
1000
0100
0000
,
1000
0001
0010
0001
0010
0001
0010
0000
,
0001
1000
0010
1000
0010
1000
0010
0000
,
0001
1000
0100
0000
0100
1000
0000
0001
,
0000
0100
0001
0000
0001
0000
0001
0000
,
1000
0100
0010
0000
0001
0000
1000
0001
,
0000
0001
0100
0000
0010
0000
1000
0000
,
0001
1000
0001
1000
0001
0000
0001
0000
,
0100
0010
1000
0100
,
0010
0001
0010
0100
,
1000
0001
1000
0100
1000
0010
1000
0000
,
1010
1100
1010
1100
,
0011
0101
0011
0101
,
1001
0000
1010
0000
0101
1000
0001
0000
,
0100
0010
0000
1000
0001
0000
0100
0000
,
0010
0000
0010
0000
1000
0000
0001
0100
,
0000
0100
0001
0000
1000
0000
0100
0000
,
0010
0000
0001
0000
0010
0000
0001
1000
,
0000
1000
0001
0000
0100
0001
0100
0000
,
0010
1000
0100
0000
1000
0000
1000
0000
,
0001
0010
0001
0000
0100
0000
0010
0000
,
1000
0001
1000
0000
0001
0000
0001
0000
,
0100
0010
0100
0000
0001
0000
1000
0000
,
0100
1000
0010
0000
0100
0001
0000
1000
,
0000
0010
0100
0000
0001
0000
1000
0000
,
0100
0010
0001
0000
1000
0010
0000
0100
,
0000
0001
1000
0000
0010
0000
0100
0001
,
1000
0100
0010
0000
0001
0000
0010
0100
,
1000
0010
0100
0000
0001
0000
1000
0000
,
0001
0100
0010
0000
1000
0000
0001
0100
,
0000
0010
1000
0000
0001
0000
0100
0001
,
1000
0100
0010
0000
0001
0000
0010
0100
,
0000
1000
0010
0000
0100
0000
0001
0100
,
0010
1000
0001
0000
1000
0000
0100
1000
,
0000
0001
0010
0000
0001
0000
1000
0000
,
0001
1000
0001
1000
0001
1000
0001
1000
,
0010
1000
0010
1000
0100
1000
0100
1000
,
0001
0100
0001
0100
0001
0100
0001
0100
,
0001
0100
0001
0100
0001
0100
0001
0000
,
1000
1000
0100
0100
,
1000
0010
0100
0000
0001
0100
0010
0000
,
0100
0000
0001
0000
0010
0100
1000
0000
,
0001
0100
0010
0000
1000
0000
1000
0000
,
0001
0100
0001
0100
0001
0100
0010
0100
,
0010
1000
0010
1000
0100
1000
0100
1000
,
0001
1000
0010
0100
,
0001
1000
0000
1000
0001
0000
0100
0000
,
0010
1000
0001
0100
,
0010
1000
0001
0000
;

//---------------dance-single - Renard----------------
#NOTES:
     dance-single:
     Renard:
     Easy:
     3:
     0.301,0.295,0.060,0.020,0.000:
0000
0000
0000
0000
,
0000
0000
0000
0000
,
0000
0000
0000
0000
,
0000
0000
0000
0000
,
1001
0000
0100
0001
,
1000
0000
0100
0000
,
1001
0000
0010
0100
,
0001
0000
1010
0000
,
0100
0001
1000
0000
0100
0000
1000
0000
,
0001
0000
1001
0000
,
0010
1000
0100
0000
1000
0000
0000
0000
,
1001
0010
0101
0010
,
1000
1000
0001
0001
,
0200
0010
0001
1000
,
0310
1000
0001
0100
,
0001
0000
1000
0000
0100
1000
0100
0000
,
1000
0010
0100
0001
,
0200
0010
1000
0001
,
0310
1000
0001
0100
,
0010
1000
0000
1000
0010
0000
0100
0000
,
0001
0001
1000
1000
,
0001
0100
0001
1000
,
0010
0001
0010
1000
,
0100
0000
0001
0000
0100
0000
1000
0001
,
1000
0001
0100
0001
,
1000
0001
0010
1000
,
0010
0001
0100
1000
,
0100
0000
0001
0000
0010
0000
0100
0001
,
0100
0010
0001
0100
,
0010
1000
0100
1000
,
0010
0000
0100
0000
1000
0100
0000
0010
,
0000
1000
0001
0000
0100
0000
0100
0000
,
0010
0000
1000
0000
0001
0000
0100
0001
,
0000
0100
0010
0000
0010
0000
1000
0000
,
0001
0000
1000
0000
0100
0000
0010
0001
,
0000
0010
0100
1000
,
0010
0000
0100
0000
0001
0000
1000
0100
,
0000
1000
0010
0100
,
0001
0000
1000
0000
0001
0000
0001
0100
,
0000
0010
1000
0100
,
1000
1000
0001
0001
,
0100
0100
0001
1000
,
0100
1000
0010
0100
,
0001
1000
0001
0000
1000
0001
1000
0000
,
0001
0001
0001
0001
,
1000
1000
0010
0010
,
0100
0100
0100
0100
,
0001
1000
0100
1000
,
0001
0010
0001
1000
,
0001
0100
0001
1000
,
0010
0000
1000
0000
0001
0100
0001
0000
,
1000
0100
0000
1000
0001
0000
0100
0000
,
0010
0010
1000
0001
,
0100
0010
1000
0000
;
