#TITLE:Breakneck Bombing Run (Crew Remix);
#SUBTITLE:;
#ARTIST:MGD-Crew;
#TITLETRANSLIT:;
#SUBTITLETRANSLIT:;
#ARTISTTRANSLIT:;
#CREDIT:;
#BANNER:capacity.png;
#BACKGROUND:capacity-bg.png;
#LYRICSPATH:;
#CDTITLE:;
#MUSIC:capacity.ogg;
#OFFSET:0.005;
#SAMPLESTART:10.951;
#SAMPLELENGTH:12.000;
#SELECTABLE:YES;
#BPMS:0.000=175.000;
#STOPS:;
#BGCHANGES:16.000=renfullshot=0.500=1=0=1,
32.000=renNORM=1.000=0=0=1,
64.000=renfullshot=1.200=0=0=1,
88.000=herewego=1.000=0=0=1,
96.000=renBW=0.600=0=0=1,
128.000=herewego=0.600=0=0=1,
144.000=herewego=0.600=0=0=1,
160.000=scream=1.000=0=0=1,
166.000=jazzy=1.000=0=0=1,
168.000=scream2=1.000=0=0=1,
174.000=jazzy=1.000=0=0=1,
176.000=scream3=1.000=0=0=1,
182.000=jazzy=1.000=0=0=1,
184.000=scream2=1.000=0=0=1,
190.000=jazzy=1.000=0=0=1,
192.000=renNORM=1.000=0=0=1,
198.000=jazzy=1.000=0=0=1,
200.000=renNORM=1.000=0=0=1,
206.000=jazzy=1.000=0=0=1,
208.000=renNORM=1.000=0=0=1,
214.000=jazzy=1.000=0=0=1,
216.000=renNORM=1.000=0=0=1,
222.000=jazzy=1.000=0=0=1,
224.000=scream=1.000=0=0=1,
229.000=capacity-bg.png=1.000=1=0=1,
232.000=scream2=1.000=0=0=1,
237.000=capacity-bg.png=1.000=1=0=1,
240.000=scream3=1.000=0=0=1,
245.000=capacity-bg.png=1.000=1=0=1,
248.000=scream2=1.000=0=0=1,
253.000=capacity-bg.png=1.000=1=0=1,
256.000=herewego=1.800=0=0=1,
260.000=renNORM=1.600=1=0=1,
276.000=renfullshot=1.600=1=0=1,
284.000=renfullshot=2.000=0=0=1,
292.000=capacity-bg.png=1.000=0=0=1,
99999=-nosongbg-=1.000=0=0=0 // don't automatically add -songbackground-
;

//---------------dance-single - Renard----------------
#NOTES:
     dance-single:
     Renard:
     Hard:
     8:
     0.659,0.643,0.773,0.000,0.020:
0000
0000
0000
0000
,
0000
0000
0000
0000
,
0000
0000
0000
0000
,
0000
0000
0000
0000
,
1001
0000
0100
0000
0100
0000
0010
0010
,
1000
0000
0001
0000
1000
0100
0010
0000
,
1001
0100
1001
0010
,
1001
1010
0000
0100
0000
1001
0101
0000
,
0010
1001
0100
1010
,
0100
0000
0011
0000
0100
0010
0010
1000
,
0010
1001
0010
1100
,
0010
0000
0101
0000
0010
1000
0010
1000
,
0100
0011
0100
1010
,
0100
0000
1001
0000
0100
0010
0010
1000
,
0010
0101
0010
1100
,
0010
0000
1001
0000
0001
0100
1000
0100
,
0001
0100
0001
0001
0100
0010
0010
1000
,
0010
1000
0100
1000
0001
1000
0010
1000
,
0010
0100
0001
0001
1000
0100
0100
1000
,
0010
0100
0001
1000
0100
0000
0011
0000
,
0101
0000
0100
0100
0010
1000
0100
0000
,
1100
0000
0010
0010
0001
0100
0010
0000
,
1010
0000
0010
0010
0101
0000
0010
0010
,
1001
1010
0101
0011
,
1100
0000
0100
1000
0000
1000
0010
0000
,
0100
0001
0100
0001
0100
0000
0001
0000
,
0101
0000
0100
0010
0000
0010
1000
0000
,
0001
0100
0001
0100
0001
1000
0001
0000
,
1100
0000
0010
0001
0000
1000
0100
0000
,
0010
0010
0001
0001
0100
0000
1010
0000
,
0101
0000
0100
0010
0000
0010
1000
0000
,
0100
1000
0100
1000
0100
0010
0001
0000
,
1001
0000
0010
1000
0000
0001
0101
0000
,
0100
0010
1000
1000
0010
0100
0001
0000
,
1010
0000
1000
0100
0000
0010
0011
0000
,
1001
0000
1010
0000
0100
0100
0100
0000
,
1010
0000
0100
0001
0010
0100
1000
0000
,
0011
0000
0100
1000
0010
0000
1001
0000
,
1010
0000
0100
0001
0101
0000
1000
0010
,
1010
1001
0100
1001
,
0001
0001
0100
0100
0010
1000
0100
0000
,
1000
0010
0100
0001
1000
0000
0001
0000
,
1000
1000
0100
0100
0010
0001
1000
0000
,
0001
0100
0001
1000
0100
0000
1001
0000
,
1000
1000
0100
0100
0010
0001
1000
0000
,
0001
0100
0010
1000
0001
0000
1001
0000
,
1000
0100
1000
0001
0010
0001
0100
0000
,
1010
0000
0000
0000
0101
0000
0000
0000
1001
0000
0000
0000
0100
0001
0100
0000
,
0001
0100
0010
1000
0100
1000
0001
0000
,
0010
0100
1000
0001
0100
0000
0010
0000
,
1000
0010
0100
0001
1000
0100
1000
0000
,
0001
0010
0100
1000
0001
0000
1010
0000
,
0100
0001
0010
1000
0010
0100
1000
0000
,
0010
0100
0001
0100
1000
0000
0100
0000
,
0010
1000
0010
0001
0010
0100
1000
0000
,
0100
0001
0100
0010
1000
0000
1001
0000
,
1001
0000
0000
0000
0000
0000
0000
1010
,
0101
0000
0000
0000
0000
0000
0000
0001
,
1001
0000
0000
0000
0000
0000
0000
1100
,
0011
0000
0011
0011
1100
0000
1001
0000
,
0101
0000
0000
0000
0000
0000
0000
1010
,
1010
0000
0000
0000
0000
0000
0000
0001
,
0110
0000
0000
0000
0000
0000
0000
1100
,
0110
0000
0101
0101
0110
0000
1100
0000
,
0010
0000
0000
0000
0000
0000
0100
0000
0000
0010
0000
0000
0100
0000
0000
0000
0000
0000
0001
0000
0000
0000
0000
0000
1000
0000
0000
0000
0001
0000
0000
0000
1000
0000
0000
0000
0001
0000
0000
0000
0000
0000
0000
0000
0000
0000
0000
0000
,
1000
0100
1000
0010
1000
0001
0100
0001
,
0010
0001
0100
0010
1000
0000
0110
0000
,
1000
0100
0010
0001
1000
0010
0100
0001
,
1000
0100
1000
0001
0010
0000
1001
0000
,
1000
0100
1000
0001
0010
0001
1000
0010
,
1000
0001
0100
0001
1000
0000
0110
0000
,
1000
0100
0010
1000
0010
0100
1000
0001
,
0100
0010
0001
0010
0100
0000
1001
0000
,
0110
0000
0000
0000
;

//---------------dance-single - Renard----------------
#NOTES:
     dance-single:
     Renard:
     Medium:
     7:
     0.456,0.464,0.392,0.010,0.000:
0000
0000
0000
0000
,
0000
0000
0000
0000
,
0000
0000
0000
0000
,
0000
0000
0000
0000
,
1000
0001
1001
0000
,
1000
0100
1000
0000
1001
0000
0000
0000
,
1000
0001
1001
0000
,
0001
0100
0001
0000
1001
0000
0000
0000
,
1000
0000
0100
0000
1000
0010
1000
0000
,
0100
0100
0010
0010
,
0001
0000
0100
0000
0001
0010
0001
0000
,
0100
0100
0010
0010
,
1000
0000
0001
0000
1000
0100
1000
0000
,
0001
0001
1000
1000
,
0001
0000
1000
0000
0001
0100
0001
0000
,
1000
1000
0001
0000
,
1000
1010
0000
0101
,
0001
0011
0000
1100
,
1000
1001
0000
0110
,
0010
0110
0000
1001
,
1000
0100
1000
0100
,
0010
0100
0010
0100
,
0010
0001
1000
0100
,
2000
0000
0010
0000
0010
0000
0010
3000
,
1000
0010
1000
0010
,
0100
0000
0100
0001
0100
0000
0100
0000
,
0010
0010
1000
1000
,
0100
0000
0100
0010
0001
0000
0001
0000
,
0010
0010
0100
0100
,
1000
0000
1000
0001
1000
0000
1000
0000
,
0001
0001
0100
0100
,
0010
0100
0010
0100
0010
0100
0010
0000
,
1000
0000
0010
0100
0000
0000
0001
0000
,
0100
0000
0010
1000
0000
0000
0100
0000
,
0010
0000
0001
0010
0000
0000
0100
0000
,
1000
0000
0010
0100
0000
0000
0001
0000
,
1000
1100
0000
0011
,
0100
1010
0000
0101
,
1000
0101
0000
1010
,
0100
1001
0110
1001
,
1000
0100
1000
0010
,
0100
0001
0010
0001
0010
0000
0001
0000
,
0100
0010
1000
0100
,
1000
0010
1000
0010
1000
0000
0010
0000
,
0100
0001
0010
0100
,
1000
0001
1000
0001
1000
0000
0001
0000
,
0100
0010
1000
0001
,
0010
0001
0010
0001
0010
0000
0011
0000
,
0010
0110
0100
1100
,
1000
1001
1000
0000
,
0001
1001
1000
1010
,
0010
0110
0100
0000
,
0100
0110
0010
1010
,
1000
1001
1000
0000
,
1000
1100
0100
0110
,
0010
0011
0001
0000
,
0100
0100
0001
0001
,
1000
1000
0001
0000
,
1010
0100
0001
0010
,
0011
0000
0100
0000
,
0010
1000
0100
0010
,
0001
0100
0010
1000
,
1001
0000
0100
0010
,
1010
0000
0101
0000
,
1000
0000
1000
0000
0001
1000
0001
1000
,
0001
0000
0100
0000
0010
1000
0010
0000
,
1000
1000
0001
0001
,
0100
0000
0001
0000
1000
0100
1000
0000
,
0001
0001
1000
0010
,
0100
0000
0100
0000
0010
1000
0010
0000
,
0100
0000
0100
0000
0001
0010
0001
0000
,
1000
0000
0100
1000
0001
0000
0010
0001
,
1000
0000
0001
1000
0010
0100
0001
0000
,
1001
0000
0000
0000
;

//---------------dance-single - Renard----------------
#NOTES:
     dance-single:
     Renard:
     Easy:
     4:
     0.366,0.393,0.196,0.020,0.000: // measure 1
0000
0000
0000
0000
,  // measure 2
0000
0000
0000
0000
,  // measure 3
0000
0000
0000
0000
,  // measure 4
0000
0000
0000
0000
,  // measure 5
1000
0001
1001
0000
,  // measure 6
0001
1000
1001
0000
,  // measure 7
1000
0001
1001
0000
,  // measure 8
1001
0000
1010
0000
,  // measure 9
0101
0000
0100
0010
,  // measure 10
1000
0000
0100
0000
,  // measure 11
0011
0000
0100
1000
,  // measure 12
0010
0010
1000
0000
,  // measure 13
0101
0000
0010
1000
,  // measure 14
0100
0000
0010
0000
,  // measure 15
0101
0000
1001
0000
,  // measure 16
1010
0000
1001
0000
,  // measure 17
1000
1000
0001
0001
,  // measure 18
1000
1000
0001
0001
,  // measure 19
1000
1000
0001
0001
,  // measure 20
1000
0001
1000
0001
1000
0000
1000
0000
,  // measure 21
0010
0010
0100
0100
,  // measure 22
0010
0010
0100
0100
,  // measure 23
0010
0010
0100
0100
,  // measure 24
0010
0100
0010
0100
0010
0000
0010
0000
,  // measure 25
1000
0000
0001
0000
,  // measure 26
0100
0100
0100
0100
,  // measure 27
0001
0000
1000
0000
,  // measure 28
0010
0010
0010
0010
,  // measure 29
1000
0000
0001
0000
,  // measure 30
0100
0100
0100
0100
,  // measure 31
0001
0000
1000
0000
,  // measure 32
0010
0010
0010
0010
,  // measure 33
1000
0001
1000
0010
,  // measure 34
1000
0100
1000
0010
,  // measure 35
1000
0001
1000
0010
,  // measure 36
1000
0100
1000
0000
,  // measure 37
0001
0010
0001
0100
,  // measure 38
0001
1000
0001
0010
,  // measure 39
0001
1000
0001
0100
,  // measure 40
0001
1000
0001
0010
,  // measure 41
0001
0001
1000
1000
,  // measure 42
0001
1000
0001
1000
,  // measure 43
0001
0001
1000
1000
,  // measure 44
0001
1000
1001
0000
,  // measure 45
0010
0010
0100
0100
,  // measure 46
0010
0100
0010
0100
,  // measure 47
0010
0010
0100
0100
,  // measure 48
0010
0100
0110
0000
,  // measure 49
1000
1000
0001
0100
,  // measure 50
0001
1000
0100
0000
,  // measure 51
1000
1000
0001
0010
,  // measure 52
0100
1000
0001
0000
,  // measure 53
1000
0001
0100
0001
,  // measure 54
1000
0100
1000
0001
,  // measure 55
1000
0001
1000
1000
,  // measure 56
0001
0000
0001
0000
1000
0001
1000
0000
,  // measure 57
0001
0001
0001
0001
,  // measure 58
0001
0000
0001
0000
,  // measure 59
1000
1000
1000
1000
,  // measure 60
1000
0000
1000
0000
,  // measure 61
0010
0010
0010
0010
,  // measure 62
0010
0000
0010
0000
,  // measure 63
0110
0000
0110
0000
,  // measure 64
1010
0000
0101
0000
,  // measure 65
2002
0000
0000
3003
,  // measure 66
1000
1000
0001
0001
,  // measure 67
0100
0100
0010
0010
,  // measure 68
1000
0100
0010
0001
,  // measure 69
1000
0010
0100
0001
,  // measure 70
1000
1000
0001
0001
,  // measure 71
0100
0100
0010
0010
,  // measure 72
1000
0100
0010
0001
,  // measure 73
1000
0000
0001
0000
1000
0001
1000
0000
,  // measure 74
1001
0000
0000
0000
;

//---------------dance-single - Renard----------------
#NOTES:
     dance-single:
     Renard:
     Challenge:
     11:
     0.879,0.857,0.411,0.000,0.421:
0000
0000
0000
0000
,
0000
0000
0000
0000
,
1000
0000
0000
0000
0001
0000
0000
0001
0100
0000
0010
0000
1000
0000
0100
0000
,
0010
0000
0000
0000
0001
0000
0000
0001
0010
0000
0010
0000
0100
0000
1000
0000
,
0010
0000
0000
0010
0100
0000
0001
0000
0100
0000
0010
0000
1000
0000
0100
0000
,
1000
0000
0000
1000
0010
0000
0100
0000
0001
0000
0010
0000
0100
0000
1000
0000
,
0010
0000
0000
0010
0100
0000
0001
0000
0100
0000
0000
0100
0010
0000
1000
0000
,
0100
1000
0000
0000
0000
1001
1001
0000
,
1000
0000
0001
0100
0001
0000
1000
0000
0100
0000
0010
0001
0010
0000
0001
0000
,
0010
0000
0100
1000
0100
0000
1000
0000
0001
0000
0100
0001
0100
0000
0001
0000
,
1000
0000
0100
1000
0100
0000
1000
0000
0010
0000
0100
0001
0100
0000
0001
0000
,
0100
0000
0010
0100
0010
0000
0100
1000
0100
0000
0001
0100
0001
0000
0100
0000
,
0001
0000
1000
0100
1000
0000
0100
0000
1000
0000
0010
1000
0010
0000
1000
0000
,
0010
0000
0100
0010
0100
0000
0010
0000
0100
0000
0001
0100
0001
0000
0100
0000
,
0001
0000
0010
0001
0010
0000
0001
0000
0010
0000
0100
0010
0100
0000
0010
0000
,
0100
0000
1000
0100
1000
0000
0001
1000
0001
0100
0001
0100
0001
0000
0100
0000
,
0001
0000
1000
0100
1000
0000
0100
0000
1000
0000
0010
0000
0100
0000
0001
0000
,
0010
0000
0001
0000
0010
0001
0010
0000
0001
0000
0010
0000
0100
0000
1000
0000
,
0010
0000
1000
0010
1000
0000
0010
0000
0100
0000
0001
0000
0010
0000
0100
0000
,
1000
0000
0001
0000
0100
0001
1000
0000
0001
0000
1000
0000
0100
0000
1000
0000
,
0010
0100
0001
0001
0010
0100
0100
1000
,
0010
0000
0100
0001
0100
0000
0001
0100
0001
0000
0100
0001
0100
0000
0001
0000
,
0100
0010
1000
0100
0010
0001
0010
0100
,
1000
0000
0100
1000
0100
0000
1000
0100
1000
0000
0100
1000
0100
0000
1000
0000
,
0010
0000
0010
1000
0000
1000
0001
0000
,
0100
0000
0100
0000
0001
0000
0100
0001
0100
0000
0001
0000
1000
0000
0010
0000
,
1000
0000
1000
0100
0000
0100
1000
0000
,
0010
0000
0100
0001
0100
0000
0010
0100
0001
0000
0100
0010
0100
0000
0001
0100
,
0001
0000
0100
0100
0000
0010
0010
0000
,
1000
1000
0100
0100
0010
0010
0001
0001
,
1000
1000
1000
0001
0001
0001
0100
0100
,
0010
0000
0010
0000
1000
0000
0010
1000
0010
1000
0001
1000
0010
1000
0001
1000
,
0010
0000
0000
0010
1000
0000
1000
0000
0010
0000
0100
0000
0001
0000
0010
0000
,
0100
0000
0000
0100
1000
0000
1000
0000
0010
0000
0100
0000
0001
0000
0010
0000
,
0100
0000
0000
0100
0010
0000
0010
0000
0001
0000
0100
0000
0010
0000
1000
0000
,
0001
0000
0000
0001
1000
0000
1000
0000
0010
0000
0010
0000
0100
0000
0100
0000
,
0001
0001
0010
0010
0100
0100
1000
1000
,
0001
0000
0001
0000
0100
0000
0100
0000
0001
1000
0001
0000
1000
0100
1000
0000
,
0001
0001
1000
1000
0010
0010
0100
0100
,
0001
0000
0000
1000
0000
0000
0001
0000
0000
0000
0000
0000
1000
0000
0000
0100
0000
0000
1000
0000
0000
0000
0000
0000
0001
0000
0000
0000
0010
0000
0000
0000
0100
0000
0000
0000
1000
0000
0000
0000
0000
0000
0000
0000
0000
0000
0000
0000
,
1001
0000
0001
0010
0000
0010
0100
0000
,
1000
0010
0100
0000
1001
0000
1010
0000
,
0101
0000
0000
0000
0011
0000
0000
0000
1001
0000
1001
0000
0000
0000
1000
0100
,
1000
0010
0100
0001
1001
0000
1001
0000
,
1010
0000
0000
0000
0101
0000
0000
0000
1001
0000
1001
0000
0000
0000
1000
0100
,
1000
0001
0010
0100
1001
0000
1001
0000
,
1010
0000
0000
0000
0101
0000
0000
0000
1001
0000
1001
0000
0000
0000
1000
0100
,
1000
0001
0010
0001
1001
0000
1010
0000
,
0101
0000
0000
0000
0110
0000
0000
0000
0100
0000
0001
0000
0100
0000
0010
1000
,
0010
0000
1000
0000
0100
0000
1000
0100
1000
0000
0100
0000
0010
0000
0001
0000
,
0010
0000
0100
0000
1000
0000
0010
0000
0100
0000
0001
0000
0000
0000
0001
0100
,
0001
0000
0100
0000
0010
0000
1000
0010
1000
0000
0010
0000
1000
0000
0100
0000
,
1000
0100
1000
0100
0010
0001
0010
0001
,
1000
0010
1000
0010
0100
0001
0100
0001
,
0100
0101
0100
0110
0100
1100
0100
0110
,
0100
0000
0001
0100
0001
0000
0100
0010
0100
0000
1000
0100
1000
0000
0100
0000
,
0010
0000
0100
0010
1000
0100
0010
0001
,
1001
0000
1000
0000
0010
0100
0001
0010
,
0011
0000
0010
0100
0110
0000
0100
1000
,
1010
1001
1100
1001
,
1001
0000
0100
0010
1000
0100
0010
0001
,
0011
0000
0010
0100
0010
0100
1000
0100
,
1100
0000
1000
0010
1010
0000
0101
0000
,
1001
0000
1000
0001
0100
0001
0100
0001
,
1000
0000
0000
1000
0000
0000
1000
0000
0000
1000
0000
0000
1000
0000
0100
0000
0010
0000
0001
0000
0010
0000
0100
0000
,
1000
0001
0100
0001
1000
0001
1000
0100
,
1000
0100
1000
0000
0001
0100
0001
0000
1000
0100
1000
0000
0001
0100
0001
0000
,
1000
0100
0010
0001
0010
0100
1000
0010
,
1000
0010
1000
0000
0001
0010
0001
0000
1000
0010
1000
0000
0001
0010
0001
0000
,
1000
0010
0100
0001
0010
0100
1000
0001
,
1000
0001
1000
0000
0100
1000
0100
0000
0010
0100
0010
0000
0001
0010
0001
0000
,
0010
0100
1000
0010
0100
0001
0010
0001
,
1000
0001
1000
0000
0010
1000
0010
0000
1000
0100
0010
0001
0010
0100
1000
0000
,
0001
0000
0000
0000
;
