#TITLE:Brand New Colony;
#SUBTITLE:;
#ARTIST:The Postal Service;
#TITLETRANSLIT:;
#SUBTITLETRANSLIT:;
#ARTISTTRANSLIT:;
#CREDIT:;
#BANNER:new.png;
#BACKGROUND:new-bg.png;
#LYRICSPATH:;
#CDTITLE:;
#MUSIC:new.ogg;
#OFFSET:-0.000;
#SAMPLESTART:46.509;
#SAMPLELENGTH:14.000;
#SELECTABLE:YES;
#BPMS:0.000=175.000;
#STOPS:;
#BGCHANGES:;
#GENRE:IDM;
#LABEL:;

//---------------dance-single - BlueChaos----------------
#NOTES:
     dance-single:
     BlueChaos:
     Challenge:
     9:
     0.659,0.616,0.292,0.510,0.018:
0000
0000
0000
0000
,
0000
0000
0000
0000
,
0000
0000
0000
0000
,
0000
0000
0000
0000
,
0000
0000
0000
0000
,
0000
0000
0000
0000
,
0000
0000
0000
0000
,
0000
0000
0000
0000
,
1000
0001
0100
0001
1000
0000
0001
0000
,
0001
1000
0100
1000
0010
0000
0010
0000
,
1000
0010
0100
0001
0010
0010
0010
0000
,
0001
0010
1000
0010
0001
0001
0001
0000
,
1000
0001
0010
0000
0001
0010
1000
0010
,
0001
0100
0010
0000
0010
1000
0000
1000
,
0100
0000
0100
1000
0010
0100
0001
0000
,
0001
1000
0000
1000
0010
0000
0010
1000
,
0100
0001
0100
0000
0100
1000
0000
1000
,
0001
0000
0001
1000
0001
0100
0100
0000
,
0001
1000
0010
1000
0010
0100
0001
0010
,
0100
1000
0100
0001
0100
1000
0100
1000
,
0010
0010
0000
1000
1000
0000
0001
0001
,
0000
0100
0100
0000
1001
0000
1001
0000
,
0001
0010
0001
0000
0000
0000
1000
0100
1000
0000
0000
0000
0001
0000
1001
0000
,
0000
0110
0000
0010
1000
0000
0001
0000
,
1000
1000
0000
0100
0100
0000
0001
0001
,
0000
0100
0100
0000
1001
0000
1001
0000
,
0001
0010
0100
0000
0000
0000
1000
0010
0100
0000
0000
0000
0001
0000
0011
0000
,
0000
1100
0000
0001
0100
0000
0110
0000
,
0001
1000
0100
0001
0100
1000
0010
0100
,
0010
0001
0010
1000
0100
0010
0001
0000
,
0001
0100
0010
1000
0000
1000
0010
0000
,
0010
0001
0000
0001
0010
0000
0010
1000
,
0000
1000
0010
1000
0100
0000
0010
0100
,
1000
0000
0001
0001
0000
1000
1001
0000
,
2000
3002
0023
0230
,
0320
0032
0203
2300
,
3200
0320
2030
3002
,
0023
0230
0320
0032
,
1003
2000
0000
3020
0000
2030
0000
3200
,
0000
0302
0000
0203
0000
2300
0000
3200
,
0000
0320
0000
0032
0000
2003
0000
3002
,
0000
0203
0000
0320
0000
2030
0000
3002
,
0100
0100
0000
1000
1000
0000
0010
0013
,
0000
0010
0001
1000
0000
2100
0000
0000
,
0001
0001
0000
0010
0010
0000
0100
3100
,
0000
0010
1000
0001
0000
0201
0000
0000
,
1000
1000
0000
0010
0010
0000
0001
0301
,
0000
0001
1000
0100
0020
0001
0032
0100
,
0203
0010
0300
0020
1000
0030
2000
0001
,
3000
0001
0100
1000
0200
0000
0302
0000
,
0023
0000
0001
0230
0000
0010
2300
0000
,
0010
3001
0000
0001
0100
0010
1000
0000
,
2000
0001
0000
3002
0010
0000
0023
0100
,
0000
0130
1000
0100
0002
0000
0103
0010
,
0000
0001
0100
0010
1000
0100
1000
0001
,
2000
3002
2003
3001
,
0001
1000
0100
0000
1100
0000
0000
1000
,
0100
0010
0001
0000
0011
0000
0001
0100
,
0010
0000
0110
0000
1001
0000
0001
0010
,
0100
1100
0101
0000
,
0010
1000
0001
0000
1001
0000
0001
1000
,
0010
0000
1010
0000
0011
0000
0001
0100
,
1000
0000
1100
0000
0110
0000
0010
1000
,
0100
0000
0100
1000
0010
0001
0010
1000
,
0100
0000
0011
0000
0101
0000
0001
0100
,
1000
0100
0001
0010
0100
0010
0001
0000
,
1001
0000
0011
0000
1010
0000
1000
0001
,
0010
1000
0010
0001
0010
0100
1000
0100
,
0001
0100
1000
0010
0100
1000
0100
0001
,
0010
0100
0010
0001
1000
0001
0100
0001
,
0010
0100
1000
0100
0001
0100
0010
1000
,
0010
0001
0100
1000
0100
0010
1000
0100
,
0010
0001
0010
0001
0100
0010
0100
0010
,
0100
1000
0100
1000
0100
0010
1000
0100
,
0001
0100
0010
0100
0010
0001
0010
0001
,
0100
0010
0100
0010
1000
0100
0010
0001
,
0100
0001
0011
0001
,
1000
1100
1100
0002
,
2003
3200
0320
0032
,
1000
1003
1001
0000
;

//---------------dance-single - BlueChaos----------------
#NOTES:
     dance-single:
     BlueChaos:
     Easy:
     4:
     0.302,0.362,0.328,0.292,0.000:
0000
0000
0000
0000
,
0000
0000
0000
0000
,
0000
0000
0000
0000
,
0000
0000
0000
0000
,
0000
0000
0000
0000
,
0000
0000
0000
0000
,
0000
0000
0000
0000
,
0000
0000
0000
0000
,
1000
0001
1000
0100
,
0010
0001
0010
0100
,
1000
0001
0100
0001
,
0101
0000
1010
0000
,
0101
0100
0001
0000
,
1000
0001
0010
0000
,
1000
1000
1000
0000
,
0001
0001
0001
0000
,
0100
0100
0100
0000
,
0010
0010
0010
0000
,
2002
0000
0000
3003
,
0220
0000
0000
0330
,
1001
0000
0101
0000
,
0011
0000
0101
0000
,
1100
0000
1001
0000
,
0110
0000
0000
0000
,
1100
0000
0110
0000
,
0011
0000
0101
0000
,
0110
0000
1001
0000
,
0110
0000
0000
0000
,
1000
0010
1000
0000
,
0001
0100
0001
0000
,
0100
0010
0100
0000
,
0001
1000
0100
0000
,
1001
0000
0010
0000
,
1001
0000
0100
0000
,
2000
0000
0000
0000
,
3200
0000
0000
0000
,
0320
0000
0000
0000
,
0032
0000
0000
0000
,
0203
0000
0000
0000
,
0320
0000
0000
0000
,
2030
0000
0000
0000
,
3002
0000
0000
0000
,
1003
0001
1001
0000
,
0010
1000
1010
0000
,
0001
0100
0101
0000
,
1000
0100
1100
0000
,
0001
1000
1001
0000
,
0200
0000
0320
0000
,
2030
0000
3000
0000
,
0001
0100
1000
0000
,
1000
0100
0001
0000
,
1000
0010
0001
0000
,
0001
0010
1000
0000
,
0001
0100
0010
1000
,
0200
0000
0300
0000
,
2002
0000
0000
3003
,
0200
0010
0310
0000
,
2000
0001
3001
0000
,
0002
0100
0103
0000
,
0200
0010
0310
0000
,
0020
1000
1030
0000
,
2000
0100
3100
0000
,
0002
0100
0103
0000
,
2000
0000
0010
0000
,
3002
0000
0010
0000
,
0203
0000
0010
0000
,
0320
0000
1000
0000
,
2030
0000
0001
0000
,
3002
0000
0010
0000
,
1003
0000
1001
0000
,
0001
0000
0101
0000
,
1000
0000
1010
0000
,
0010
0000
0110
0000
,
1000
0000
1001
0000
,
0001
0100
0001
0100
,
0010
0100
0010
1000
,
0002
0003
1001
0000
,
0000
0000
0110
0000
,
0000
0000
0101
0000
,
0000
0000
1001
0000
;

//---------------dance-single - BlueChaos----------------
#NOTES:
     dance-single:
     BlueChaos:
     Hard:
     8:
     0.557,0.654,0.337,0.319,0.000:
0000
0000
0000
0000
,
0000
0000
0000
0000
,
0000
0000
0000
0000
,
0000
0000
0000
0000
,
0000
0000
0000
0000
,
0000
0000
0000
0000
,
0000
0000
0000
0000
,
0000
0000
0000
0000
,
1000
0001
1000
0001
,
0100
0001
0100
0001
0000
0001
1000
0000
,
1000
0010
1000
0010
0000
0010
0100
0000
,
0100
0010
0100
0010
0000
0010
1000
0000
,
1001
0000
0001
1000
0000
0000
1001
0000
,
1000
0001
0100
0001
2000
0000
0001
3000
,
1000
0100
0010
0001
0010
0100
1000
0000
,
0001
0100
0010
1000
0010
0100
0001
0000
,
1000
0001
0100
0001
1000
0100
1000
0000
,
0001
0100
0001
1000
0100
1000
0010
0000
,
0010
0100
0010
2000
0000
0010
0000
3010
,
0100
0001
1000
0002
0000
0100
0000
0003
,
1000
0001
0000
0001
0100
0000
0100
0010
,
0000
0010
1000
0000
1010
0000
1010
0000
,
2000
0010
0000
3002
0010
0000
2003
0010
,
3000
1001
0000
0000
0000
0000
0000
0000
,
1000
0100
0000
0001
0100
0000
1000
0010
,
0000
0001
0010
0000
0011
0000
0011
0000
,
0002
0100
0000
0203
0010
0000
0320
1000
,
0030
1001
0000
0000
0000
0000
0000
0000
,
1000
0100
0001
0100
,
1000
0000
0010
1000
0000
0010
0100
0000
,
1001
0000
0001
0100
0000
0010
1000
0000
,
1001
0000
1000
0100
0000
0010
0001
0000
,
1001
0000
0100
0020
0000
0000
0000
0000
,
2030
0000
0000
3002
0000
0000
0203
0000
,
0000
0001
0010
0001
,
0320
0100
1000
0100
,
2030
0001
0100
3001
,
0001
0100
0000
0100
0001
1000
0000
1000
,
0001
1000
0000
0001
0000
0100
0000
0010
,
1000
0010
0000
0100
0000
0001
0000
1000
,
0001
0010
0000
0100
0000
1000
0000
0001
,
1000
0100
0000
1000
0000
0001
0000
0000
,
0001
0100
0000
0100
1000
0000
1000
0100
,
0000
0100
0010
0000
0010
1000
0100
0010
,
0001
1000
0000
1000
0100
0000
0100
0001
,
0000
0001
0100
0000
0100
1000
0001
0100
,
0001
0010
0000
0010
1000
0000
1000
0010
,
0000
0010
0001
0000
0001
1000
0010
1000
,
0100
0010
0000
0010
1000
0000
1000
0010
,
0000
0010
0001
0000
0001
1000
0001
0100
,
0001
0000
1000
0010
0000
0010
1000
0100
,
0010
0000
0010
0001
0000
0001
1000
0010
,
0100
0010
0000
0010
1000
0000
1000
0100
,
0020
0000
0032
0000
2003
0000
3010
0100
,
0020
0000
0000
0000
,
2030
0010
3200
0010
,
2300
0000
0010
0000
0010
0000
3010
0100
,
0002
0000
0010
0000
0010
0000
0013
0100
,
2000
0000
0001
0000
0001
0000
3001
0100
,
0020
0000
0100
0000
0100
0000
0130
0001
,
0020
0000
0100
0000
0100
0000
0130
1000
,
0020
0000
1000
0000
1000
0000
1030
0001
,
0100
0000
0100
0001
0010
0000
0010
0100
,
1000
0000
1000
0100
0001
0000
0001
0100
,
1000
0000
1000
0100
0010
0000
0010
0001
,
0100
0000
0001
0100
1000
0000
1000
0100
,
0001
0000
0100
0001
0010
0000
0001
0010
,
1000
0000
1000
0010
0001
0000
0001
0010
,
0100
0000
0100
1000
0010
0000
1000
0010
,
0001
0000
0001
0010
1000
0000
0010
1000
,
1100
0000
0110
0000
0011
0000
0001
0100
,
0101
0000
0110
0000
1010
0000
0010
1000
,
1001
0000
1100
0000
0101
0000
0001
1000
,
1100
0000
1010
0000
0110
0000
0100
0001
,
0011
0000
1100
0000
0101
0000
0100
0010
,
1010
1100
0101
0000
,
2200
0000
0011
3300
,
0202
0000
1010
0303
,
2002
0000
0110
3003
,
0220
0000
1001
0330
;

//---------------dance-single - BlueChaos----------------
#NOTES:
     dance-single:
     BlueChaos:
     Medium:
     5:
     0.475,0.471,0.365,0.392,0.000:
0000
0000
0000
0000
,
0000
0000
0000
0000
,
0000
0000
0000
0000
,
0000
0000
0000
0000
,
0000
0000
0000
0000
,
0000
0000
0000
0000
,
0000
0000
0000
0000
,
0000
0000
0000
0000
,
1000
1000
1000
0100
,
0010
0001
0010
0000
0001
0000
0100
0000
,
0001
0100
0001
0000
0100
0000
0010
0000
,
1000
0010
1000
0000
0010
0000
0100
0000
,
0002
0000
2003
0000
,
3200
0000
0320
0000
,
0031
0000
1000
0000
0001
0000
0100
0001
,
1000
0100
0000
0010
0000
0001
0100
0000
,
0100
0010
0100
0010
0000
0010
1000
0000
,
1000
0001
1000
0001
0000
0001
0100
0000
,
0100
0000
0001
1000
0000
1100
0000
0000
,
1000
0010
0000
0010
1000
0000
1001
0000
,
0001
0001
0000
0001
0001
0000
0001
0001
,
0000
0001
0001
0000
1001
0000
1001
0000
,
0002
0000
2000
0000
,
0010
3003
0000
0000
,
1000
1000
0000
1000
1000
0000
1000
1000
,
0000
1000
1000
0000
1001
0000
1001
0000
,
2000
0000
0200
0000
,
0001
3300
0000
0000
,
1000
0100
0010
0001
,
1000
0001
0100
0010
,
1000
0001
1000
0100
,
1000
0100
1000
0000
0100
0000
0010
0000
,
0001
0010
0001
0000
2000
0000
0000
0000
,
3002
0000
0203
0000
,
0320
1000
1000
1000
,
1000
1000
1000
1000
,
2030
0100
0100
0100
,
3200
0010
0010
0010
,
0010
0320
0000
0001
0000
0001
0000
0001
,
0000
0032
0000
1000
0000
1000
0000
1003
,
0100
0020
0000
0100
0000
0100
0000
0130
,
0000
1100
0000
0101
0000
1010
0000
0000
,
1000
0100
0000
0100
1000
0000
1000
0100
,
0000
0100
1000
0000
1100
0000
1100
0000
,
1000
0010
0000
0010
1000
0000
1000
0010
,
0000
0010
1000
0000
1010
0000
1010
0000
,
1000
0001
0000
0001
1000
0000
1000
0001
,
0000
0001
1000
0000
1001
0000
1001
0000
,
0001
0100
0000
0100
0001
0000
0001
0100
,
0000
0100
0001
0000
0101
0000
0101
0000
,
0100
1010
1000
1100
,
0001
0101
0010
0110
,
1000
1001
0100
1010
,
0001
0000
1010
0000
1000
0000
1000
0001
,
2000
0000
0000
0000
,
3002
0000
0023
0000
,
0130
0000
1000
0000
1001
0000
0000
0001
,
0100
0000
0001
0000
0101
0000
0000
1000
,
0100
0000
1000
0000
1010
0000
0000
0010
,
0100
0010
0110
0000
,
2000
0010
3002
0100
,
0023
0100
0032
1000
,
0203
0010
0302
1000
,
0203
0010
0302
1000
,
0013
0000
0010
0000
0010
0000
0000
0001
,
0010
0000
0001
0000
0011
0000
0000
1000
,
0100
0000
1000
0000
1001
0000
0000
0001
,
0010
0100
1100
0000
,
1000
0100
2000
0000
0200
0000
3000
0000
,
0310
0001
0020
0000
0002
0000
0030
0000
,
1003
0010
2000
0000
0002
0000
3000
0000
,
0103
0010
0200
0000
0002
0000
0300
0000
,
1003
1010
1000
1001
,
1000
1100
1000
1001
,
0001
0101
0001
0011
,
0001
0101
0100
1001
,
2000
0000
3002
0000
,
0203
0000
0320
0000
,
2030
0000
3002
0000
,
2000
0000
0000
3003
1001
0000
0000
0000
;
