#TITLE:Bass Speaks Canine;
#SUBTITLE:;
#ARTIST:Jaql;
#TITLETRANSLIT:;
#SUBTITLETRANSLIT:;
#ARTISTTRANSLIT:;
#CREDIT:;
#BANNER:canine.png;
#BACKGROUND:canine-bg.png;
#LYRICSPATH:;
#CDTITLE:;
#MUSIC:canine.ogg;
#OFFSET:0.000;
#SAMPLESTART:22.286;
#SAMPLELENGTH:11.000;
#SELECTABLE:YES;
#BPMS:0.000=172.000;
#STOPS:;
#BGCHANGES:;
#GENRE:Synthstep;
#LABEL:Emphatic;

//---------------dance-single - Renard----------------
#NOTES:
     dance-single:
     Renard:
     Challenge:
     11:
     0.822,0.836,0.630,0.387,0.455:
0000
0000
0000
0000
,
0000
0000
0000
0000
,
0000
0000
0000
0000
,
0000
0000
0000
0000
,
0001
1000
0000
1000
0001
0000
0001
0100
0000
0000
0010
0000
1000
0000
0100
0000
,
0001
0100
0000
0100
1000
0000
1000
0010
0000
0000
0100
0000
0001
0000
0010
0000
,
1000
0010
0000
0010
0001
0000
0001
0100
0000
0000
0010
0000
1000
0000
0100
0000
,
0010
0001
0000
0001
1000
0000
1000
0001
0000
0000
1000
0000
0001
0000
0100
0000
,
0010
1000
0010
1000
0002
0100
0000
0103
,
0000
0100
0010
0000
1001
0000
1010
0000
,
1000
0100
1000
0100
0010
0001
0000
0012
,
0000
0013
0100
0000
1001
0000
1010
0000
,
0100
0001
0100
0001
2000
0010
0000
3010
,
0000
0010
0100
0000
1001
0000
0101
0000
,
0001
0010
0001
0010
0100
1000
0000
2100
,
0000
3100
0010
0000
1001
0000
0101
0000
,
1010
0000
0000
1100
0000
0000
1001
0000
0000
0000
0001
0100
0020
0000
0000
0000
,
1030
0010
1000
0000
0010
0000
0100
0001
0100
0001
0010
0001
0200
0000
0000
0000
,
0310
0000
0000
1001
0000
0000
0110
0000
0000
0000
1000
0010
0200
0000
0000
0000
,
0301
0100
0001
0100
0001
0000
0100
0000
0010
0000
1000
0010
2000
0000
0000
0000
,
3100
0000
0000
0011
0000
0000
1001
0000
0000
0000
1000
0010
0200
0000
0000
0000
,
0301
0100
0001
0000
0100
0000
0010
1000
0010
1000
0100
1000
0020
0000
0000
0000
,
0130
0000
0000
1001
0000
0000
0110
0000
0000
0000
0001
0100
0020
0000
0000
0000
,
1030
0010
1000
0010
1000
0000
0010
0000
0100
0000
0001
0100
0001
0000
0000
0000
,
1001
0000
0110
0000
0000
1010
0000
0101
,
0000
0000
1000
0100
0010
0001
0010
0100
,
1001
0000
1010
0000
0000
0101
0000
0011
,
0000
1000
0001
0100
0010
1000
0001
0100
,
0010
0000
1000
0000
0000
0001
0000
0000
,
0100
0001
1000
0001
0100
0000
0000
0000
0010
0000
1000
0000
0001
0000
0000
0000
,
0100
0000
0010
1000
0010
0000
0000
0000
0000
0000
0100
0000
0000
0000
0000
0000
,
0000
1010
0101
0000
0000
0000
0000
0000
,
1000
0100
0000
0100
1000
0000
1000
0010
0000
0010
0100
0000
0001
0000
0100
0000
,
0010
1000
0000
1000
0100
0000
0100
0010
0000
0010
0001
0000
0010
0000
0100
0000
,
1000
0001
0000
0001
0010
0000
0010
0001
0000
0001
0100
0000
0010
0000
1000
0000
,
0100
0010
0000
0010
0001
0000
0001
0010
0000
0010
0100
0000
1000
0001
1000
0000
,
0001
0010
0000
0010
0001
0000
0001
0100
0000
0100
0010
0000
1000
0000
0010
0000
,
0100
0001
0000
0001
0010
0000
0010
0100
0000
0100
1000
0000
0100
0000
0010
0000
,
0001
1000
0000
1000
0100
0000
0100
1000
0000
1000
0010
0000
0100
0000
0001
0000
,
0010
0100
0000
0100
1000
0000
1000
0100
0000
0100
0010
0000
0001
1000
0001
0000
,
2002
3003
2020
3030
0102
0100
0000
0103
,
0000
0200
0020
0330
2020
0030
3001
0000
,
0220
0330
2020
3030
2001
0001
0000
3100
,
0000
2100
0001
0000
3010
0000
0101
0000
,
1010
0000
1100
0000
0102
0100
0000
0013
,
0000
0210
0001
0000
1000
0000
0310
0000
,
1010
0000
1100
0000
1002
1000
0000
0013
,
0000
0201
0010
0000
0001
0300
0101
0000
,
0010
1000
0010
1000
0001
0100
0010
1000
,
0000
1000
0100
0010
0100
1000
0100
0010
,
0001
0010
0001
0010
0100
1000
0010
0100
,
0000
0100
0001
0100
0020
0000
1001
0030
,
0100
0001
0100
0001
1000
0010
0100
0001
,
0000
0001
0010
0100
0010
0001
0010
0100
,
1000
0100
1000
0100
0010
0001
0100
0010
,
0000
0010
1000
0010
0200
0000
1001
0300
,
1010
0000
1001
0000
0000
0101
0000
0011
,
0000
0100
0001
0100
0010
1000
0100
0010
,
1001
0100
1010
0000
0100
1010
0100
1001
,
0100
0010
1000
0100
0010
0001
1000
0000
,
0101
0000
1001
0000
0000
1010
0000
1100
,
0000
0010
1000
0010
0100
0001
0010
0100
,
1001
0010
0101
0000
0010
0101
0010
1001
,
0010
0100
0001
0010
0100
1000
0100
0010
,
0001
0010
0001
2000
0000
0000
3100
0000
1000
0000
0010
0000
0100
0000
0001
0000
,
1000
0100
1000
0020
0000
0000
0130
0000
0001
0000
0100
0000
0010
0000
1000
0010
,
1000
0010
0100
0002
0000
0000
0013
0000
0001
0000
0100
0000
0010
0000
1000
0000
,
0100
0010
0001
0020
0000
0000
0130
0000
1000
0000
0010
0000
0100
0001
0100
0000
,
0001
0010
0001
2000
0000
0000
3100
0000
1000
0000
0010
0000
0100
0000
0001
0000
,
1000
0100
1000
0020
0000
0000
0130
0000
0001
0000
0100
0000
0010
0000
1000
0010
,
1000
0010
0100
0002
0000
0000
0013
0000
0001
0000
0100
0000
0010
0000
1000
0000
,
0100
0010
0001
0020
0000
0000
0130
0000
1000
0100
0010
0001
0010
0100
1000
0010
;

//---------------dance-single - Renard----------------
#NOTES:
     dance-single:
     Renard:
     Hard:
     9:
     0.553,0.732,0.155,0.000,0.102:
0000
0000
0000
0000
,
0000
0000
0000
0000
,
0000
0000
0000
0000
,
0000
0000
0000
0000
,
1000
0000
0000
0010
0000
0000
0100
0000
0000
0000
0000
0000
0000
0000
0000
0000
,
0001
0000
0000
0100
0000
0000
0010
0000
0000
0000
0000
0000
0000
0000
0000
0000
,
1000
0000
0000
0100
0000
0000
1000
0000
0000
0000
0000
0000
0000
0000
0000
0000
,
0010
0000
0000
0100
0000
0000
0001
0000
0000
0000
0000
0000
0000
0000
0000
0000
,
0100
0010
0100
0010
1000
0010
0000
0100
,
0000
0001
0100
0010
0100
0000
0001
0000
,
0100
0010
1000
0010
0100
0001
0000
0100
,
0000
0010
0100
0000
0010
0000
1000
0000
,
0100
0010
0001
0010
0100
1000
0000
0100
,
0000
0100
1000
0010
0100
0001
0010
0000
,
0001
0010
0001
0010
0100
0010
0000
0100
,
0000
1000
0010
0100
0010
0100
0010
0000
,
0100
0001
0100
0010
,
1000
0000
0100
0000
1000
0000
0100
0000
1000
0100
1000
0000
0100
0000
0000
0000
,
1000
0010
0100
0001
,
0010
0000
0001
0000
0100
0000
0001
0000
0100
0001
0100
0000
0001
0000
0000
0000
,
0100
0010
1000
0100
,
0010
0000
0001
0000
0010
0000
0001
0000
0010
0001
0010
0000
0001
0000
0000
0000
,
0010
0100
1000
0010
,
0100
0000
0001
0000
0100
0000
0001
0000
0100
0001
0100
0000
0001
0000
0000
0000
,
0100
0000
0010
0000
0000
1000
0000
1100
,
0000
0000
0000
0000
,
0001
0000
0010
0000
0000
0001
0000
0101
,
0000
0000
0000
0000
,
0010
0000
1000
0000
0000
0100
0000
0110
,
0000
0000
0000
0000
,
0010
0000
0001
0000
0000
0100
0000
0110
,
0000
0000
0000
0000
0010
1000
0010
1000
,
0010
1000
0001
1000
0100
1000
0010
1000
,
0001
0100
0010
1000
0100
0010
0001
0010
,
0100
1000
0010
0001
0010
1000
0100
0001
,
0100
1000
0010
0100
0001
0100
0010
1000
,
0100
0010
0001
0010
1000
0010
0001
0010
,
0100
1000
0100
0001
0100
1000
0010
0100
,
0001
0100
0010
1000
0100
0010
0001
0010
,
0100
0000
0010
0000
0001
0000
0010
0000
0001
0010
0001
0010
0001
0010
0001
0010
,
0001
0010
0100
0010
0001
0010
0000
0001
,
0000
0100
0010
1000
0010
0100
0001
0000
,
0100
0010
1000
0010
0100
0001
0000
0010
,
0000
0001
0100
0010
1000
0100
0010
0001
,
0010
0100
1000
0010
0100
0001
0000
0100
,
0000
0010
1000
0100
1000
0010
0100
0000
,
0001
0100
0010
1000
0100
0010
0000
0001
,
0000
0010
0100
1000
0010
0100
0001
0000
,
0100
0000
0010
0000
1000
0100
1000
0000
,
0010
0100
0001
0000
0100
0000
0010
0000
,
1000
0000
0100
0000
0010
0001
0010
0000
,
0100
1000
0100
0000
1000
0000
0010
0000
,
0100
0000
0001
0000
0100
0010
1000
0010
,
0000
0100
0001
0000
0100
0000
0000
0000
0010
0000
0000
0000
1000
0000
0000
0000
,
0100
0010
0001
0000
0010
0000
0100
0000
,
1000
0000
0010
0000
1000
0000
0010
0000
1000
0000
0010
0000
1000
0010
1000
0010
,
1000
0000
0010
0000
0000
0101
0000
1010
,
0000
1000
0100
1000
0010
0100
0001
0000
,
0010
0000
0001
0000
0000
0101
0000
1010
,
0000
1000
0100
1000
0010
0100
0001
0010
,
0011
0000
0101
0000
0000
1010
0000
1100
,
0000
1000
0010
0100
0001
0010
0001
0100
,
0110
0000
1010
0000
0000
1001
0000
1100
,
0000
0000
1000
0000
0100
0000
1000
0000
0010
1000
0001
1000
0010
1000
0100
1000
,
0010
0000
0100
0000
0001
0010
0000
0001
,
0000
0100
0010
0000
1000
0000
0100
0000
,
1000
0000
0010
0000
0100
0001
0000
0010
,
0000
0001
0100
0000
0010
0000
1000
0000
,
0100
0000
1000
0000
0010
0100
0000
0001
,
0000
0010
0001
0000
0100
0000
0010
0000
,
1000
0000
0100
0000
0010
0001
0000
0010
,
0000
0000
0100
0000
1000
0000
0010
0000
0100
0000
0001
0000
0100
0010
0100
0010
;

//---------------dance-single - Renard----------------
#NOTES:
     dance-single:
     Renard:
     Medium:
     5:
     0.422,0.378,0.155,0.000,0.000:
0000
0000
0000
0000
,
0000
0000
0000
0000
,
0000
0000
0000
0000
,
0000
0000
0000
0000
,
1000
0000
0001
0000
0000
1000
0001
0000
,
1000
0000
0001
0000
0000
1000
0001
0000
,
1000
0000
0001
0000
0000
1000
0001
0000
,
1000
1000
0001
0100
,
0001
0000
1000
0000
0100
1000
0000
0010
,
0000
0100
0000
0001
0100
0000
0010
0000
,
1000
0000
0100
0000
0010
0001
0000
1000
,
0000
0001
0000
0100
0010
0000
1000
0000
,
0001
0000
0100
0000
0001
1000
0000
0100
,
0000
0010
0000
0001
1000
0000
0001
0000
,
1000
0000
0100
0000
1000
0001
0000
0010
,
0000
0001
0000
0100
0001
0000
1000
0000
,
0100
0100
1000
1000
,
0010
0000
0100
0000
0001
1000
0001
0000
,
0100
0100
0010
0010
,
1000
0000
0100
0000
0010
0001
0010
0000
,
0001
0010
0100
1000
,
0001
0000
0001
0000
0100
0001
1000
0000
,
0100
1000
0010
0100
,
0001
1000
0001
0000
1000
0000
1000
0000
,
0010
0000
0100
0000
0000
1001
0000
1010
,
0000
0100
0001
0010
,
0100
0000
1000
0000
0000
1001
0000
1010
,
0000
0100
0001
0010
,
0001
0000
0100
0000
0000
1001
0000
1010
,
0000
0100
0001
1000
,
0100
0000
0010
0000
0000
1001
0000
1010
,
0000
0100
0001
1000
,
0100
0000
1000
0000
0010
0100
0001
0100
,
0001
0100
0100
0100
,
0010
0000
1000
0000
0100
1000
0001
0100
,
0000
0001
1000
0100
,
0010
0000
0001
0000
1000
0010
1000
0010
,
1000
0010
0100
0001
,
1000
0000
0100
0000
0010
0001
1000
0010
,
0000
0100
0001
1000
,
0100
0000
0100
0000
1000
0100
0000
0100
,
0000
0100
1000
0000
0100
0000
1000
0000
,
0100
0000
0100
0000
1000
0100
0000
1000
,
0000
1000
0100
0000
1000
0000
0100
0000
,
0010
0000
0010
0000
0001
0010
0000
0010
,
0000
0010
0001
0000
0010
0000
0001
0000
,
0010
0000
0010
0000
0001
0010
0000
0001
,
0000
0001
0010
0000
0001
0000
0100
0000
,
0001
1000
0001
0100
,
0010
1000
0100
0010
,
0001
1000
0010
0100
,
0001
1000
0001
0000
1000
0000
0010
0000
,
0100
0001
1000
0100
,
0010
0001
0010
0000
0001
0000
0010
0000
,
0100
1000
0001
0100
,
0001
1000
0001
0000
1000
0000
0010
0000
,
0100
0000
0100
0000
0000
1001
0000
1010
,
0000
0100
0000
0001
0000
0010
0100
0000
,
1000
0000
0010
0000
0000
1001
0000
1010
,
0000
0100
0000
0001
0000
0010
0001
0000
,
0100
0000
1010
0000
0000
0100
0000
0011
,
0000
1000
0000
0001
0000
0100
0010
0000
,
1000
0000
0110
0000
0000
0001
0000
0110
,
0000
1000
0000
0010
0000
0100
0001
0000
,
1000
0000
0001
0000
0100
0010
0000
1000
,
0000
0001
1000
0000
0001
0000
0001
0000
,
1000
0000
0001
0000
1000
0010
0000
0100
,
0000
0001
1000
0000
0001
0000
1000
0000
,
0010
0000
0010
0000
0100
0001
0000
1000
,
0000
0100
0010
0000
0001
0000
0010
0000
,
0100
0000
1000
0000
0001
1000
0000
0001
;

//---------------dance-single - Renard----------------
#NOTES:
     dance-single:
     Renard:
     Easy:
     4:
     0.390,0.486,0.426,0.039,0.000: // measure 1
0000
0000
0000
0000
,  // measure 2
0000
0000
0000
0000
,  // measure 3
0000
0000
0000
0000
,  // measure 4
0000
0000
0000
0000
,  // measure 5
2001
0000
3010
0000
,  // measure 6
0102
0000
0013
0000
,  // measure 7
2001
0000
3010
0000
,  // measure 8
1002
0000
0103
0000
,  // measure 9
0100
0001
0100
0000
,  // measure 10
0010
1000
0100
0010
,  // measure 11
0001
0100
0010
0000
,  // measure 12
1000
0010
0100
0001
,  // measure 13
1000
0100
1000
0000
,  // measure 14
0001
0010
0100
1000
,  // measure 15
0001
0010
0001
0000
,  // measure 16
1000
0100
0010
0001
,  // measure 17
1000
0110
0000
0110
,  // measure 18
0001
0110
0000
0110
,  // measure 19
1000
0110
0000
0110
,  // measure 20
0001
0110
0000
0110
,  // measure 21
0010
1001
0000
1001
,  // measure 22
0100
1001
0000
1001
,  // measure 23
0010
1001
0000
1001
,  // measure 24
0100
1001
0000
1001
,  // measure 25
1000
0010
0000
0100
,  // measure 26
0001
0100
0010
1000
,  // measure 27
0100
0010
0000
0001
,  // measure 28
0010
0100
1000
0000
,  // measure 29
0001
0100
0000
0010
,  // measure 30
1000
0001
0100
0000
,  // measure 31
0010
1000
0000
0100
,  // measure 32
0010
0001
1000
0000
,  // measure 33
0010
0010
0100
0001
,  // measure 34
1000
1000
0100
0000
,  // measure 35
1000
1000
0010
0100
,  // measure 36
0001
1000
1000
0000
,  // measure 37
0001
0001
0010
0100
,  // measure 38
1000
0010
0010
0000
,  // measure 39
0100
0001
1000
0100
,  // measure 40
0010
0001
0001
0000
,  // measure 41
1000
1000
0010
0000
,  // measure 42
0100
0100
0001
0000
,  // measure 43
0010
0001
0100
0010
,  // measure 44
1000
1100
1100
0000
,  // measure 45
1000
0010
0100
0000
,  // measure 46
0001
0100
0010
0000
,  // measure 47
1000
0010
0100
0001
,  // measure 48
0100
0010
1000
1001
,  // measure 49
1000
0010
0100
0001
,  // measure 50
0010
0001
0000
0000
,  // measure 51
0100
0001
1000
0100
,  // measure 52
1000
0001
0100
0001
,  // measure 53
1000
0010
0100
0001
,  // measure 54
0010
0001
1000
0100
,  // measure 55
1000
0010
0100
0001
,  // measure 56
0101
1010
1100
0011
,  // measure 57
1001
1010
0100
0001
,  // measure 58
0010
0100
1000
0010
,  // measure 59
1001
0110
1000
0010
,  // measure 60
0100
0001
0010
0100
,  // measure 61
1100
0011
1000
0010
,  // measure 62
0100
0001
1000
0100
,  // measure 63
0011
1100
1000
0001
,  // measure 64
0100
0010
1000
0001
,  // measure 65
0101
1010
0100
0001
,  // measure 66
0100
0001
0100
0001
,  // measure 67
1010
0101
0100
0001
,  // measure 68
0100
0001
0100
0001
,  // measure 69
1010
0101
1000
0010
,  // measure 70
1000
0010
1000
0010
,  // measure 71
0101
1010
0010
1000
,  // measure 72
0010
1000
0010
1001
;
