#TITLE:Bandwidth Positive;
#SUBTITLE:;
#ARTIST:MGD-Crew;
#TITLETRANSLIT:;
#SUBTITLETRANSLIT:;
#ARTISTTRANSLIT:;
#CREDIT:;
#BANNER:positive.png;
#BACKGROUND:positive-bg.png;
#LYRICSPATH:;
#CDTITLE:;
#MUSIC:positive.ogg;
#OFFSET:0.010;
#SAMPLESTART:13.392;
#SAMPLELENGTH:12.000;
#SELECTABLE:YES;
#BPMS:0.000=170.000,32.000=113.333,36.000=170.000,132.000=113.333,136.000=170.000,232.000=113.333,236.000=170.000;
#STOPS:;
#BGCHANGES:;

//---------------dance-single - Renard----------------
#NOTES:
     dance-single:
     Renard:
     Hard:
     9:
     0.664,0.647,0.417,0.061,0.142: // measure 1
0000
0000
0000
0000
,  // measure 2
0000
0000
0000
0000
,  // measure 3
0000
0000
0000
0000
,  // measure 4
0000
0000
0000
0000
,  // measure 5
1010
0000
0000
0000
0101
0000
0000
1000
0000
0000
0010
0000
0100
0000
0000
0000
,  // measure 6
0001
0010
0100
1000
0010
0000
0010
0100
,  // measure 7
0001
0001
0100
0100
0010
1000
0010
1000
,  // measure 8
0100
0010
0001
0010
0100
1000
0010
0000
,  // measure 9
2002
0000
0000
0000
0000
0000
0000
3003
,  // measure 10
1000
0000
0001
0100
0010
0000
1000
0010
,  // measure 11
0100
0000
0001
1000
0100
0100
0010
0010
,  // measure 12
0001
0000
0010
0100
1000
0000
0001
0010
,  // measure 13
0100
0000
1000
0010
0100
0001
0100
0001
,  // measure 14
1000
0010
0100
0001
0100
0010
1000
0010
,  // measure 15
0100
0001
0100
0010
1000
0100
0010
0001
,  // measure 16
0010
0100
1000
0010
0100
0001
1000
0100
,  // measure 17
0010
0001
0010
0100
1000
0001
0010
0000
,  // measure 18
0100
0100
1000
1000
0010
0100
0001
0100
,  // measure 19
0000
0100
0010
1000
0010
0000
0101
0000
,  // measure 20
1010
0000
1000
0100
0010
0001
0010
0100
,  // measure 21
0000
0100
1000
0010
0100
0000
0101
0000
,  // measure 22
1010
0000
1000
0100
0010
0001
0000
0011
,  // measure 23
0000
0010
0100
1000
0010
0000
0101
0000
,  // measure 24
1010
0000
1000
0100
1000
0010
0100
0001
,  // measure 25
0000
0001
0100
0000
1010
0000
0101
0000
,  // measure 26
1001
0000
0000
0000
1000
0000
0010
0100
,  // measure 27
0001
0000
1000
0010
,  // measure 28
1001
0100
1001
0010
,  // measure 29
0011
0000
1100
0000
0011
0011
1100
0000
,  // measure 30
1010
0000
0101
0000
1000
0100
0010
0001
,  // measure 31
0010
0100
1000
0010
0100
0001
0100
0000
,  // measure 32
1010
0000
0101
0000
1000
0001
0100
0000
,  // measure 33
0001
1000
0010
0000
1000
0001
0100
0001
,  // measure 34
2002
0000
0000
0000
0000
0000
0000
3003
,  // measure 35
1000
0000
0010
0100
0001
0000
0100
0010
,  // measure 36
1000
0000
0010
0000
0100
0000
0001
0000
0100
0000
0010
0000
1000
0000
0000
0010
0000
0000
0100
0000
0000
0001
0000
0000
,  // measure 37
1000
0100
1000
0000
0001
0010
0001
0000
,  // measure 38
0001
0000
0010
0000
0100
0000
1000
0000
0001
0000
0010
0000
0100
0000
0000
1000
0000
0000
0010
0000
0000
0100
0000
0000
,  // measure 39
0001
0100
0010
0000
1000
0010
0100
0000
,  // measure 40
0001
0000
0100
0000
0001
0000
1000
0000
0010
0000
1000
0000
0010
0000
0000
0100
0000
0000
0001
0000
0000
1000
0000
0000
,  // measure 41
0100
1000
0010
0000
0100
0001
0010
0000
,  // measure 42
0001
0010
0100
1000
0100
0010
0001
0100
0010
1000
0010
0100
,  // measure 43
0010
0000
1000
0010
0100
0001
0100
0010
,  // measure 44
1000
0000
0100
0010
0001
0010
0100
1000
,  // measure 45
0010
1001
0100
1010
,  // measure 46
0100
0011
0100
1001
,  // measure 47
1000
0100
0010
0001
0010
0100
1000
0001
,  // measure 48
0100
0010
1000
0010
0100
0001
1000
0100
,  // measure 49
0010
0011
0010
0110
,  // measure 50
0100
0000
1100
0000
1000
0010
1010
0000
,  // measure 51
1000
0010
0100
0001
0100
1000
0100
0001
,  // measure 52
0010
0100
1000
0010
0100
0001
0100
1000
,  // measure 53
0100
0001
0010
0100
1000
0100
0001
0100
,  // measure 54
1000
0010
0100
0001
0100
0000
1001
0000
,  // measure 55
1001
0000
1000
0100
0010
0001
0010
1000
,  // measure 56
0010
0001
0010
0100
1000
0010
0100
0001
,  // measure 57
0100
1000
0100
0001
1000
0010
1000
0010
,  // measure 58
0100
0001
0010
0001
1000
0100
1000
0000
,  // measure 59
2010
0000
0100
0100
0100
0000
0001
0001
0002
0000
0000
3003
,  // measure 60
1001
0000
0000
0000
1000
0000
0000
0010
0000
0000
0100
0000
0001
0000
0100
0000
,  // measure 61
0010
1000
0100
0000
0100
1000
0010
0000
,  // measure 62
0100
0100
0001
0001
0100
0010
1000
0010
,  // measure 63
0100
0001
1000
0100
0010
0000
0001
0000
,  // measure 64
1010
0000
0000
0000
0101
0000
0000
1001
0000
0000
1000
0000
0001
0000
0000
0000
,  // measure 65
0100
0010
1000
0010
0100
0001
0100
0000
,  // measure 66
0001
0001
1000
0100
0010
0010
0001
0010
,  // measure 67
0100
0000
1000
0000
0010
0000
0100
0000
0001
0000
1000
0001
1000
0000
0001
0000
,  // measure 68
1001
0000
0000
0000
;

//---------------dance-single - Renard----------------
#NOTES:
     dance-single:
     Renard:
     Medium:
     7:
     0.444,0.545,0.305,0.000,0.051: // measure 1
0000
0000
0000
0000
,  // measure 2
0000
0000
0000
0000
,  // measure 3
0000
0000
0000
0000
,  // measure 4
0000
0000
0000
0000
,  // measure 5
1000
0000
0001
0000
0100
0010
0100
0000
,  // measure 6
0010
1000
0100
0010
,  // measure 7
0001
0000
0100
0000
0010
0100
0010
0000
,  // measure 8
1000
0100
0010
0001
,  // measure 9
1001
0000
0000
0000
,  // measure 10
1000
1000
0001
0001
,  // measure 11
0100
0000
0010
0000
1000
0001
1000
0001
,  // measure 12
1000
0010
0100
0001
,  // measure 13
0010
0000
0100
0000
1000
0001
1000
0000
,  // measure 14
0001
0100
1000
0100
,  // measure 15
0001
0010
1000
0010
,  // measure 16
0001
0100
0010
1000
,  // measure 17
0100
0001
0100
1000
,  // measure 18
0010
0000
1000
0000
0001
0100
0000
1001
,  // measure 19
0000
1000
0100
0000
0010
0000
0001
0000
,  // measure 20
1000
0010
0100
0001
,  // measure 21
0010
0100
1000
0010
,  // measure 22
0001
0000
0100
0000
0010
1000
0000
1001
,  // measure 23
0000
1000
0100
0000
1000
0000
0010
0000
,  // measure 24
0100
0100
0001
1000
,  // measure 25
0100
0000
1000
0000
0001
1000
1000
0000
,  // measure 26
0010
0100
0001
0100
,  // measure 27
0010
0100
0001
0100
,  // measure 28
0110
0001
0110
0001
,  // measure 29
0110
1000
0110
0001
,  // measure 30
0100
0000
0010
0000
1000
0100
1000
0000
,  // measure 31
0010
0100
0001
0010
,  // measure 32
0001
0000
0100
0000
0001
0010
0001
0000
,  // measure 33
0100
0000
0010
0000
1000
0100
1000
0000
,  // measure 34
1001
0000
0000
0000
,  // measure 35
1000
0000
1000
0001
0000
0001
0100
0000
,  // measure 36
0010
0000
0010
0000
0010
0000
0010
0000
0000
0010
0000
0000
,  // measure 37
1000
0000
1000
0100
0000
0100
0010
0000
,  // measure 38
0001
0000
0001
0000
0001
0000
0001
0000
0000
0001
0000
0000
,  // measure 39
1000
0000
1000
0010
0000
0100
0001
0000
,  // measure 40
1000
0000
1000
0000
1000
0000
1000
0000
0000
1000
0000
0000
,  // measure 41
0001
0000
0001
0100
0000
0100
0010
0000
,  // measure 42
1001
0000
0001
0000
1000
0000
1001
0000
0001
0000
1000
0000
,  // measure 43
0010
0000
0100
0000
0001
1000
0001
0000
,  // measure 44
0100
0000
0010
0000
1000
0001
1000
0000
,  // measure 45
0010
0000
0100
0000
0001
1000
0001
0000
,  // measure 46
1000
1000
0001
0001
,  // measure 47
1000
0000
0001
0000
0100
0010
0100
0000
,  // measure 48
0001
0000
1000
0000
0010
0100
0010
0000
,  // measure 49
1000
0000
0001
0000
0100
0010
0100
0000
,  // measure 50
0010
1000
0001
0100
,  // measure 51
0001
1001
1000
1001
,  // measure 52
0001
1001
1001
0000
,  // measure 53
1000
1010
0010
0110
,  // measure 54
0100
0101
0101
0000
,  // measure 55
0001
0011
0010
0110
,  // measure 56
0100
1100
1000
1010
,  // measure 57
0110
0010
0110
0100
,  // measure 58
0110
1010
0101
0110
,  // measure 59
1001
0000
0000
0000
,  // measure 60
1000
0000
0001
0000
1000
0001
1000
0000
,  // measure 61
0001
0000
1000
0000
0001
1000
0001
0000
,  // measure 62
1000
1000
0010
0100
,  // measure 63
0001
0100
0001
0100
0001
0000
0100
0000
,  // measure 64
0010
1000
0100
0100
,  // measure 65
1000
0010
0100
0001
,  // measure 66
1000
1000
0001
0000
1000
1000
0001
0000
,  // measure 67
0001
0001
1000
0000
0001
1000
0001
0000
,  // measure 68
1001
0000
0000
0000
;

//---------------dance-single - Renard----------------
#NOTES:
     dance-single:
     Renard:
     Easy:
     4:
     0.337,0.409,0.102,0.102,0.000:
0000
0000
0000
0000
,
0000
0000
0000
0000
,
0000
0000
0000
0000
,
0100
0000
0000
0000
,
1000
0001
0001
0001
,
0100
0010
1000
0001
,
1000
1000
0001
0001
,
0010
0100
1000
1000
,
1001
0000
0000
0000
,
1000
0000
0001
0100
0001
0000
1000
0000
,
0100
0010
0001
1000
,
0001
0010
0100
1000
,
0001
0000
1000
0000
,
0001
0000
1000
0100
1000
0000
0010
0000
,
0100
0001
1000
0001
,
1000
0000
0001
0000
,
0100
0000
0010
0000
,
1000
0000
0000
0000
0001
0100
0000
0001
,
0000
1000
0100
0000
,
0010
0000
0000
0000
0001
1000
0000
0001
,
0000
0100
0010
0000
,
1000
0000
0000
0000
0100
1000
0000
0010
,
0000
0100
0001
0000
,
1000
0000
0000
0000
0001
0100
0000
0001
,
0000
1000
0100
0010
,
0001
0000
1000
0000
,
0101
0000
0010
1000
,
0101
1000
0110
1000
,
0101
1001
1000
0001
,
1000
1000
0001
0001
,
0100
0000
0001
0000
,
1000
0010
1000
0001
,
0000
0100
0000
0100
0100
0000
0100
0000
,
0010
0000
0000
0000
,
1000
0010
0100
0001
,
1000
1000
1000
1000
,
0001
0100
0010
1000
,
0100
0001
0001
0001
,
0100
1000
0100
1000
,
0100
1000
0100
1000
,
0001
0010
0001
0010
,
0001
1000
0001
1000
,
2000
3000
0020
0030
,
0200
0300
0002
0003
,
1000
1000
1000
1000
,
0001
0001
1000
0001
,
0002
0003
0020
0030
,
0200
0300
2000
3000
,
1000
0010
0100
0001
,
1000
0000
0001
0000
0000
1000
0001
0000
,
1000
1000
0001
0001
,
0100
0100
0010
1000
,
0100
0000
1000
0001
,
0100
0000
0001
0000
,
1000
0000
0000
0001
0100
0000
0000
0000
,
0001
0000
0000
1000
0100
0000
0000
0000
,
1000
0000
0001
0000
,
1000
0001
1000
0001
,
1001
0000
0000
0000
,
1010
0100
0001
0010
,
0100
1000
0010
0010
,
0100
0100
0001
0001
,
1000
0100
1000
0001
,
0010
0010
0100
0100
,
0000
1000
0010
0000
0100
0000
0001
0000
,
1000
0000
0000
1000
0100
0000
0000
0100
,
1000
0000
2200
0000
,
0011
3300
0000
0000
0000
0000
0000
0000
;

//---------------dance-single - BlueChaos----------------
#NOTES:
     dance-single:
     BlueChaos:
     Challenge:
     11:
     0.902,1.000,0.468,0.295,0.590: // measure 1
0000
0000
0000
0000
,  // measure 2
0000
0000
0000
0000
,  // measure 3
0000
0000
0000
0000
,  // measure 4
0000
0000
0000
0000
,  // measure 5
1000
0000
0001
0000
0200
0000
0000
0010
0000
0000
0310
0000
1000
0000
0100
0000
,  // measure 6
M000
0100
0020
0000
0032
0000
1003
0100
,  // measure 7
0010
0010
0100
1000
0001
0001
0100
0100
,  // measure 8
0010
0000
1000
0010
1000
0000
0001
0010
0001
0000
0100
0000
0110
0000
0000
0000
,  // measure 9
2002
0000
0000
0000
0000
0000
0000
3003
,  // measure 10
1001
0100
0010
1000
0101
0001
0010
0100
,  // measure 11
0011
0001
0100
0010
0110
1010
1001
0101
,  // measure 12
1001
1000
0100
0010
1100
1000
0001
0100
,  // measure 13
0011
0000
0001
0000
1000
0000
0100
0000
1000
0000
0100
0010
0100
0000
0000
0000
,  // measure 14
0110
1000
0001
0100
1001
0010
0100
1000
,  // measure 15
0101
0010
0100
0001
0011
0110
1100
1001
,  // measure 16
0101
0100
0001
0010
1100
0100
1000
0001
,  // measure 17
0110
0000
0100
0000
1000
0000
0001
0000
0100
0000
0010
0100
0020
0000
0000
0000
,  // measure 18
2030
0000
3200
0000
0301
0200
0000
2300
,  // measure 19
0000
3001
0200
0000
2300
0000
3200
0000
,  // measure 20
0302
0000
0000
0000
0000
0000
0023
0000
0000
0000
0000
0000
2030
0000
0000
0002
3000
0000
0000
0000
0000
0203
0000
0000
,  // measure 21
0000
1300
0002
0000
0103
0000
0101
0000
,  // measure 22
0001
0100
0010
0100
1000
0100
0010
0100
,  // measure 23
0001
0010
0100
0010
1000
0010
0200
0000
,  // measure 24
1300
0100
0010
0001
0100
1000
0100
0001
,  // measure 25
0010
1000
0010
0001
0100
0010
2000
3000
,  // measure 26
1001
0100
M010
0M00
200M
0000
30M2
0003
,  // measure 27
0201
0000
M010
000M
1000
000M
0310
0000
,  // measure 28
0101
0001
1000
0000
1001
1000
0100
0000
,  // measure 29
1100
0000
1000
0000
0010
0000
0100
0000
0001
0000
0010
0000
0001
0010
0001
0010
,  // measure 30
0001
0000
0010
0000
0100
0000
1000
0100
1000
0000
0100
0000
1000
0000
0010
0000
,  // measure 31
0100
0000
0001
0100
0001
0000
0100
0000
0010
1000
0010
0000
1000
0000
0100
0000
,  // measure 32
1000
0100
0010
0000
0100
0000
1000
0000
0001
0100
0001
0000
0100
0010
1000
0000
,  // measure 33
0001
0010
0100
0000
1000
0000
0001
0000
0100
0001
0010
0001
0100
0001
1000
0000
,  // measure 34
2002
0000
0000
0000
0000
0000
0000
3003
,  // measure 35
1001
1000
0001
0001
0100
0010
1000
1000
,  // measure 36
0100
0000
0010
0000
0001
0000
0100
0000
0010
0000
1000
0000
0100
0000
0000
1000
0000
0000
0001
0000
0000
0100
0000
0000
,  // measure 37
0010
0010
1000
0100
0010
0010
0100
1000
,  // measure 38
0001
0000
0100
0000
0010
0000
1000
0000
0001
0000
0010
0000
0100
0000
0000
1000
0000
0000
0001
0000
0000
0100
0000
0000
,  // measure 39
0010
0010
0100
1000
0100
0100
0001
0010
,  // measure 40
0100
0000
1000
0000
0100
0000
0010
0000
0001
0000
0100
0000
0010
0000
0000
1000
0000
0000
0001
0000
0000
1000
0000
0000
,  // measure 41
0100
0100
1000
0100
0001
0001
0100
1000
,  // measure 42
0100
0010
0100
1000
0001
1000
0010
0100
0001
0100
0010
1000
,  // measure 43
0100
1000
0100
0010
0001
0010
0100
1000
0001
1000
0001
0100
0010
0100
0001
0010
,  // measure 44
0100
1000
0001
0100
0010
1000
0100
1000
0010
0100
0001
0100
0001
1000
0001
0010
,  // measure 45
0100
0010
0100
1000
0100
0010
0001
0100
0010
0100
0001
1000
0100
1000
0001
1000
,  // measure 46
0010
0100
0001
1000
0010
0100
0001
1000
0100
0010
0001
0010
0100
0000
0000
0000
,  // measure 47
0100
0010
0001
1000
0010
0100
0001
0100
0010
1000
0100
1000
0010
0100
0001
0010
,  // measure 48
0100
0010
0001
0100
0010
1000
0010
0100
0010
1000
0001
0010
0100
1000
0001
0010
,  // measure 49
0100
0010
0001
0100
0010
1000
0010
0100
0001
1000
0010
1000
0001
0010
0001
0010
,  // measure 50
0100
1000
0001
1000
0001
0100
0010
0100
0001
1000
0100
0010
0001
0000
0000
0000
,  // measure 51
1000
0100
1000
0000
0100
0000
1000
0000
0001
0000
0001
0000
0100
0000
0010
0000
,  // measure 52
0100
0010
0100
0000
0001
0000
0010
0000
0100
0000
0100
0000
1000
0000
0001
0000
,  // measure 53
1000
0010
1000
0000
0001
0000
0010
0000
0001
0000
0001
0000
0010
0000
0100
0000
,  // measure 54
1000
0001
1000
0000
0100
0000
1000
0000
0001
0000
0001
0000
0100
0000
0000
0000
,  // measure 55
0100
0010
0100
0000
0001
0000
0010
0000
1000
0000
1000
0000
0010
0000
0001
0000
,  // measure 56
0100
0010
0100
0000
0010
0000
0100
0000
1000
0000
1000
0000
0100
0000
0001
0000
,  // measure 57
0100
0001
0100
0000
0010
0000
1000
0000
0100
0000
0100
0000
0001
0000
0100
0000
,  // measure 58
1000
0100
1000
0000
0001
0000
0010
0000
1000
0000
1000
0000
0010
0000
0001
0000
,  // measure 59
0020
0000
0000
0000
0031
0000
0100
0000
0010
0000
0000
0000
1000
0010
1000
0010
1000
0000
0000
0000
0000
0000
0000
0000
,  // measure 60
1001
0000
0000
0000
1010
0000
0000
0101
0000
0000
0001
0000
1000
0000
1100
0000
,  // measure 61
0000
1100
1000
0001
0101
0000
0110
0100
,  // measure 62
0001
0010
0100
0100
1000
0001
0100
0100
,  // measure 63
0010
0000
1000
0010
1000
0000
0001
0100
0001
0000
0100
0000
1001
0000
0000
0000
,  // measure 64
1001
0000
0000
0000
0101
0000
0000
1010
0000
0000
1000
0000
0001
0000
0011
0000
,  // measure 65
0000
0011
0010
0100
1001
0000
0110
0010
,  // measure 66
1000
1000
0001
0001
0010
0010
0100
0100
,  // measure 67
1000
0000
0100
1000
0100
0000
1000
0001
1000
0000
0001
0000
0100
0000
0010
0000
,  // measure 68
0202
0303
0000
0000
;
