#TITLE:BabyBlue;
#SUBTITLE:;
#ARTIST:Emoticon feat. Sonitus Vir;
#TITLETRANSLIT:;
#SUBTITLETRANSLIT:;
#ARTISTTRANSLIT:;
#CREDIT:;
#BANNER:blue.png;
#BACKGROUND:blue-bg.png;
#LYRICSPATH:;
#CDTITLE:;
#MUSIC:blue.ogg;
#OFFSET:0.000;
#SAMPLESTART:79.041;
#SAMPLELENGTH:11.000;
#SELECTABLE:YES;
#BPMS:0.000=182.000,76.000=91.000,108.000=182.000;
#STOPS:;
#BGCHANGES:;
#GENRE:Symphonicore;
#LABEL:Emphatic;

//---------------dance-single - Renard----------------
#NOTES:
     dance-single:
     Renard:
     Challenge:
     11:
     0.898,0.935,0.370,0.389,0.735:
0000
0000
0000
0000
,
2001
0000
0010
0000
0100
0100
0010
0000
,
3002
0000
0100
0000
0010
0010
1000
2003
,
0100
0000
0010
0000
0001
0001
3100
0000
,
1002
0103
2001
3100
,
1002
0000
0100
0000
0010
0010
0100
0000
,
2003
0000
0010
0000
0100
0100
0001
3002
,
0010
0000
0100
0000
1000
1000
0013
0000
,
2001
3010
1002
0013
,
1000
0000
0000
0100
0000
0000
0010
0000
0000
0001
0010
0100
1000
0000
0000
0010
0000
0000
0100
0000
0000
0001
0000
0000
,
1000
0000
0000
0010
0100
0001
0100
0000
0000
0011
0000
0000
,
0000
0000
1000
0000
0010
0100
0001
0000
0101
0000
0000
0000
1010
0000
0000
0000
,
0001
0000
0000
0000
0100
1000
0100
0010
0001
0000
0010
0000
1010
0000
0000
0000
,
0011
0110
0000
0010
1000
0010
0100
0000
,
0001
0000
0000
0100
0010
1000
0010
0000
0000
1100
0000
0000
,
0000
0000
0001
0000
0100
0010
1000
0000
1010
0000
0000
0000
0101
0000
0000
0000
,
1000
0000
0000
0000
0010
0001
0010
0100
1000
0000
0100
0000
0101
0000
0000
0000
,
1100
0110
0000
0100
0001
0100
0010
1000
,
0001
1000
0001
0000
1000
0001
1000
0000
0001
0000
1000
0001
1000
0000
0001
0000
,
1000
0000
1000
0100
0000
0100
0010
0001
0010
0100
0000
0100
1000
0010
0100
0001
,
0100
0100
0001
0001
1000
0100
0010
0001
0000
0001
0010
0100
1000
0010
0100
0000
,
0001
0100
0010
1000
0000
1000
0010
0100
0001
1000
0000
1000
0001
0100
0010
1000
,
0100
0010
0001
0000
0001
0010
0100
1000
0000
0010
0100
0001
1000
0000
1001
0000
,
1000
0000
0100
0000
0011
0000
0100
0100
1000
0010
0100
0000
0101
0000
0110
0000
,
1010
0000
1000
0000
0011
0000
0100
0100
1000
0010
0100
0000
0101
0000
0110
0000
,
1010
0000
0100
0000
0101
0000
0100
0000
0010
0010
1000
0000
1010
0000
0101
0000
,
1001
0000
1000
0100
0010
0000
0001
0010
0100
0000
1010
0000
0100
0000
1001
0000
,
0001
0000
0000
0000
0100
0000
0000
0000
0010
0000
1000
0000
0010
1000
0001
0100
,
0010
0000
0000
0000
1000
0000
0000
0000
0100
0000
0010
0000
0001
0010
0100
1000
,
0001
0010
0100
0000
1000
0010
0100
0000
,
0001
0100
0010
0000
1010
0000
0101
0000
,
1000
0000
0000
0000
0010
0000
0000
0000
0100
0000
0001
0000
0100
0001
1000
0010
,
0100
0000
0000
0000
0001
0000
0000
0000
0010
0000
0100
0000
1000
0100
0010
0001
,
1000
0100
0010
0000
0001
0100
0010
0000
,
1000
0010
0100
0000
0101
0000
1010
0000
,
0001
0100
0001
0000
1000
0010
1000
0000
1000
0100
1000
0000
0001
0010
0001
0000
,
0001
0100
0001
0000
1000
0010
1000
0000
1000
0100
1000
0000
0001
0010
0001
0000
,
0100
0001
0100
0000
0010
1000
0010
0000
1000
0100
1000
0000
0001
0010
0001
0000
,
0100
0001
0100
0000
0010
1000
0010
0000
1000
0100
1000
0000
0001
0010
0001
0010
,
0100
1000
0100
0000
0010
0001
0010
0000
0100
1000
0100
0000
0010
0001
0010
0000
,
0100
1000
0010
0000
0100
0001
0100
0000
0010
1000
0010
0000
0100
0001
0010
0000
,
0100
1000
0100
0000
1000
0100
1000
0000
0001
0010
0001
0000
0010
0001
0010
0000
,
0001
0010
0100
0010
0001
1000
0100
0010
0100
1000
0001
0100
0010
1000
0001
1000
,
0002
0000
0000
0203
0000
0000
2300
0000
,
0000
3200
0000
0000
0320
0000
2030
0000
,
3020
0000
0032
0000
0023
0230
2300
3200
,
0000
0302
0203
0320
,
2030
0000
0000
3200
0000
0000
0302
0000
,
0000
0203
0000
0000
2300
0000
3020
0000
,
0032
0000
0023
0000
0230
2300
3200
0302
,
0000
0203
0320
0000
2030
0000
3020
0000
,
1030
0010
1000
0000
0001
0100
0001
0000
1001
0000
1000
0100
0010
0001
1000
0000
,
0001
0000
0100
0000
0010
0000
1000
0001
0000
0001
1000
0000
0010
0000
0100
0000
,
0001
1000
0001
0000
1000
0000
0100
0010
0000
0010
0100
0000
1000
0000
0010
0000
,
0100
0000
0001
0000
1000
0000
0100
1000
0000
1000
0100
0000
0010
0000
0001
0000
,
0100
0001
0100
0000
0010
0000
1000
0010
0000
0010
1000
0000
0010
0000
0100
0000
,
0001
0100
0001
0000
1000
0000
0100
1000
0000
1000
0100
0000
1000
0000
0001
0000
,
0010
0001
0010
0000
0001
0100
0001
0100
0000
0100
0010
0000
1000
0000
0010
0000
,
1000
0000
0010
0000
1000
0000
0001
0100
0000
0100
0001
0000
1000
0000
0100
0000
,
0010
0001
0010
0000
0100
1000
0100
0000
1000
0001
1000
0001
1000
0001
1000
0000
,
0001
0100
0010
0000
1000
0010
0100
0000
0001
1000
0100
0000
0010
0001
0010
0000
,
0100
1000
0010
0000
0100
0001
0100
0000
0010
1000
0100
0000
0010
0001
0100
0000
,
0001
0100
0001
0000
1000
0100
1000
0000
0010
1000
0001
0000
0100
0001
1000
0000
,
0100
1000
0010
0000
0100
0001
0010
0000
0100
1000
0010
0000
0100
0001
0100
0000
,
0010
1000
0010
0000
0100
0001
0100
0000
0001
1000
0001
0000
1000
0100
1000
0000
,
0010
0100
0010
0000
0100
0001
0100
0000
0001
1000
0001
0000
1000
0100
1000
0000
,
0100
0010
0100
0000
0010
0001
0010
0000
0001
0100
0001
0000
0100
0010
0100
0000
,
0010
1000
0010
0000
1000
0001
1000
0000
0001
0100
0001
0100
0010
1000
0010
0000
,
1001
0000
0000
0000
;

//---------------dance-single - Renard----------------
#NOTES:
     dance-single:
     Renard:
     Hard:
     8:
     0.559,0.677,0.190,0.171,0.000:
0000
0000
0000
0000
,
2000
0000
0000
3010
,
0200
0000
0000
0301
,
0020
0000
0000
0030
0200
0000
0000
0300
,
2000
0000
3010
0000
,
0200
0000
0000
0000
0000
0300
0001
0000
,
2000
0000
0000
0000
0000
3000
0100
0000
,
0020
0000
0000
0000
,
0032
0000
0203
0000
,
0301
1000
0001
1000
0100
0010
0001
0010
,
0100
0000
0100
1000
0010
0000
0010
0100
,
0001
0000
0001
1000
0100
0000
0100
1000
,
0010
0100
0001
0000
0001
1000
0100
0000
,
0100
1000
0100
0010
0001
0010
0100
1000
,
0010
0000
0100
0001
1000
0000
0100
1000
,
0001
0000
0010
0100
1000
0010
0100
0000
,
0001
1000
0100
1000
0001
0000
0010
0000
,
0001
1000
0010
1000
0001
0100
0001
1000
,
0100
0000
0000
0000
,
1001
0000
0100
0010
2000
0000
0000
0000
,
3200
0302
0023
2030
,
3100
0000
0010
0001
0100
0000
1000
0000
,
0020
0032
0203
0310
,
1000
0100
1100
0010
0001
0100
0110
1000
,
0100
0010
0011
0001
0100
0010
1001
1000
,
0100
0010
0011
0100
0010
1000
1010
1000
,
0100
0010
0110
0010
0001
1001
1010
0101
,
1000
0000
0001
0000
0100
0010
1000
0100
,
0010
0000
0001
0000
0010
0100
1000
0010
,
0100
0000
0001
0000
1000
0100
1000
0001
,
0010
0001
1000
0010
0100
0001
1000
0100
,
0010
0000
0001
0000
0010
0100
1000
0010
,
0100
0000
0001
0000
1000
0100
1000
0001
,
0010
0000
0001
0000
0100
0010
1000
0001
,
0100
0001
1000
0100
1000
0000
0001
0010
,
0001
0000
1000
0000
0010
0100
0001
1000
,
0100
0000
1000
0000
0010
0100
0001
1000
,
0100
0000
1000
0000
0001
0010
0100
1000
,
0010
0100
0001
0000
0001
1000
0100
0000
,
0100
0000
1000
0000
0010
0100
0001
1000
,
0100
0000
0010
0000
0001
1000
0010
0100
,
0001
0000
1000
0000
0100
0010
0001
0010
,
0100
1000
0010
0100
0001
0000
1000
0000
,
0001
0000
0001
0100
0000
0100
0010
0000
,
0010
1000
0000
1000
0100
0010
0001
0010
,
0100
0000
0100
1000
0000
1000
0010
0000
,
0010
0100
0000
0100
0001
1000
0100
0010
,
0001
0000
0001
1000
0000
1000
0010
0000
,
0010
0100
0000
0100
0001
1000
0100
0000
,
1000
0001
0100
0000
0001
1000
0100
1000
,
0000
1000
0010
0000
0010
0100
0001
1000
,
0100
0000
0100
0000
1000
0001
1001
0000
,
0010
0000
0100
0000
0001
0010
0100
1000
,
0010
0000
0100
0000
0001
0010
0100
0010
,
0001
1000
0010
0000
0100
0001
1000
0000
,
1100
0011
1001
0110
,
1000
0000
0010
0100
0001
0010
0100
1000
,
0010
0100
0001
1000
0100
0000
0011
0000
,
0100
1000
0010
0100
0001
0000
1001
0000
,
1000
0100
0010
0001
1000
0000
1001
0000
,
0001
1000
0010
0000
0100
0001
1000
0000
,
0100
0010
0001
0000
1000
0010
0100
0000
,
0001
1000
0100
0000
0010
0001
0010
0000
,
0100
1000
0010
0000
0100
0001
0010
0000
,
0100
1000
0010
0000
0100
0001
0010
0000
,
0100
1000
0010
0000
0100
0001
1000
0000
,
0100
0010
0001
0010
0100
1000
0010
0000
,
0100
0001
1000
0100
0010
0001
1000
0000
,
1001
0000
0000
0000
;

//---------------dance-single - Renard----------------
#NOTES:
     dance-single:
     Renard:
     Medium:
     5:
     0.372,0.451,0.180,0.142,0.000:
0000
0000
0000
0000
,
0000
0000
0000
0000
,
0000
0000
0000
0000
,
0000
0000
0000
0000
,
0000
0000
0000
0000
,
1000
0000
0000
0000
0001
0000
0000
0100
,
0010
0010
1000
0100
,
0010
0000
0000
0000
0001
0000
0000
0100
,
0001
1000
0100
1000
,
1001
1010
0000
0101
,
1001
1000
0100
0010
,
0001
0000
0100
0001
0100
0000
0010
0000
,
1000
0000
0100
0010
0001
0000
0000
0000
,
1000
0010
0100
0000
,
0001
0100
0010
1000
,
0000
0100
1000
0000
0010
0000
0100
0000
,
0001
0000
1000
0001
1000
0000
0010
0000
,
0100
0101
0110
1010
,
1001
0000
0000
0000
,
1000
0000
0100
0000
0010
0001
0100
0010
,
1000
0000
0100
0000
1000
0001
0200
0000
,
0310
0000
1000
0000
0100
0010
0001
1000
,
0010
0000
1000
0001
0200
0000
0320
0000
,
2030
0000
3001
1001
,
0002
0000
1003
1001
,
0020
0000
0130
0110
,
0020
0000
2030
0000
3100
0010
0001
1000
,
0001
0000
0100
0000
0001
0000
1000
0100
,
1000
0000
0001
0000
0100
0000
0001
1000
,
0001
1000
0010
0100
,
0002
0000
2003
0000
,
3010
0000
0100
0000
0001
0000
1000
0100
,
1000
0000
0001
0000
0010
0000
0001
1000
,
0001
1000
0010
0100
,
0002
0000
2003
0000
,
3010
0000
0100
0000
0001
0000
1000
0100
,
1000
0000
0001
0000
0010
0000
0001
1000
,
0001
1000
0002
0000
,
0203
0000
0320
0000
,
1030
0000
0100
0000
1000
0000
0001
0010
,
0001
0000
1000
0000
0001
0000
1000
0010
,
1000
0001
0100
0001
,
1000
0000
0100
0010
0001
0000
1001
0000
,
1000
0000
0000
0010
0000
0000
0100
0000
,
0000
0001
0000
0000
1000
0000
0100
0000
,
0010
0000
0001
0000
1000
0000
0000
0001
,
0000
0100
0010
1000
,
0100
0000
0000
1000
0000
0000
0010
0000
,
0000
0100
0000
0000
0001
0000
0010
0000
,
0100
0000
1000
0000
0001
0000
0000
0100
,
0000
0010
1000
0100
,
1000
0000
0001
1000
,
1001
0000
1000
0010
,
0100
0000
0001
0000
1000
0000
0001
0100
,
0001
0000
1000
0100
,
1000
0000
0001
0010
,
1001
0000
0001
1000
,
0010
0000
1000
0001
1000
0000
0001
0000
,
0100
0000
0001
1000
,
1100
1100
0000
0011
,
1001
0000
1000
0010
,
0100
0000
0000
0000
0001
0000
0100
0010
,
0100
0000
0010
1000
,
0100
0000
0000
0000
0010
0000
0001
1000
,
0001
0000
0100
0001
,
1000
0000
0000
0000
0010
0000
1000
0001
,
1000
0000
0000
0000
0001
1000
0001
0000
,
1000
0000
0000
0000
0010
1000
0001
0000
,
1001
0000
0000
0000
;

//---------------dance-single - Renard----------------
#NOTES:
     dance-single:
     Renard:
     Easy:
     3:
     0.290,0.355,0.133,0.171,0.000: // measure 1
0000
0000
0000
0000
,  // measure 2
0000
0000
0000
0000
,  // measure 3
0000
0000
0000
0000
,  // measure 4
0000
0000
0000
0000
,  // measure 5
0000
0000
0000
0000
,  // measure 6
2000
0000
0000
0000
,  // measure 7
0000
0000
0000
0000
,  // measure 8
3002
0000
0000
0000
,  // measure 9
0203
0000
0000
0000
,  // measure 10
0301
0001
0000
1001
,  // measure 11
1000
1000
0100
0010
,  // measure 12
0001
0001
0100
0010
,  // measure 13
1000
0000
0001
0000
,  // measure 14
0200
0000
0010
0010
,  // measure 15
0310
1000
0001
0100
,  // measure 16
0001
0000
1000
0000
,  // measure 17
0200
0000
0310
0001
,  // measure 18
0200
0000
0310
1000
,  // measure 19
1001
0000
0000
0000
,  // measure 20
2000
0000
3200
0000
,  // measure 21
2300
0000
3020
0000
,  // measure 22
0130
0000
0001
0010
,  // measure 23
0100
0000
1000
0000
,  // measure 24
0020
0000
0230
0000
,  // measure 25
0302
0000
2003
0000
,  // measure 26
3100
0000
0010
0001
,  // measure 27
0100
0001
1000
1001
,  // measure 28
1000
1000
1000
0001
,  // measure 29
0100
0100
0100
0010
,  // measure 30
1000
1000
1000
0100
,  // measure 31
0010
0010
0010
0001
,  // measure 32
0100
0100
0100
0001
,  // measure 33
1000
1000
1000
0100
,  // measure 34
0010
0010
0010
0001
,  // measure 35
1000
1000
0010
0100
,  // measure 36
0001
0001
1000
0010
,  // measure 37
0100
0100
0001
1000
,  // measure 38
0100
0100
0010
0001
,  // measure 39
0100
0100
0010
1000
,  // measure 40
0100
0100
0010
0001
,  // measure 41
0100
0100
0010
1000
,  // measure 42
0100
1000
0010
0100
,  // measure 43
0001
1000
0001
1001
,  // measure 44
1000
0000
0100
0010
,  // measure 45
0000
0000
0000
0000
,  // measure 46
0001
0000
0100
0010
,  // measure 47
0000
0000
0000
0000
,  // measure 48
1000
0000
0100
0010
,  // measure 49
0000
0000
0000
0000
,  // measure 50
0001
0000
0100
0010
,  // measure 51
0000
1010
0001
0101
,  // measure 52
1001
0000
0000
0000
,  // measure 53
1000
0100
0010
0001
,  // measure 54
0100
0010
1000
0000
,  // measure 55
0001
0100
0010
1000
,  // measure 56
0100
0010
0001
0000
,  // measure 57
1000
0010
0100
0001
,  // measure 58
0100
0010
1000
0000
,  // measure 59
0100
0010
0001
0000
,  // measure 60
0100
0010
1000
1001
,  // measure 61
1010
0000
0100
0001
,  // measure 62
0010
0000
0001
0000
,  // measure 63
1010
0100
0001
0000
,  // measure 64
0011
0100
1000
0000
,  // measure 65
1010
0000
0100
0001
,  // measure 66
1000
0001
1000
0000
,  // measure 67
0201
0000
0320
0000
,  // measure 68
2030
0000
3200
0300
,  // measure 69
1001
0000
0000
0000
;
