#TITLE:All or Nothing;
#SUBTITLE:;
#ARTIST:Lollipop;
#TITLETRANSLIT:;
#SUBTITLETRANSLIT:;
#ARTISTTRANSLIT:;
#CREDIT:;
#BANNER:all.png;
#BACKGROUND:all-bg.png;
#LYRICSPATH:;
#CDTITLE:;
#MUSIC:all.ogg;
#OFFSET:0.000;
#SAMPLESTART:24.764;
#SAMPLELENGTH:14.000;
#SELECTABLE:YES;
#BPMS:0.000=155.063;
#STOPS:;
#BGCHANGES:;
#GENRE:Dance;
#LABEL:Emphatic;

//---------------dance-single - Renard----------------
#NOTES:
     dance-single:
     Renard:
     Challenge:
     9:
     0.745,0.835,0.318,0.241,0.492:
0000
0000
0000
0000
,
0000
0000
0000
0000
,
0000
0000
0000
0000
,
0000
0000
0000
0000
,
1100
1000
1010
0010
0110
0100
0101
0100
,
0110
0010
1010
1000
1010
0010
0110
0100
,
0101
0001
0101
0100
0110
0100
0110
1020
,
0000
0000
1030
0000
0110
0000
0100
0000
0100
0001
0010
0000
0001
0000
0100
0000
,
0001
0100
0001
0200
0000
0000
0000
0000
0000
0000
0000
0000
0000
0000
0000
0000
,
0001
0001
0002
0000
0000
0000
1000
0000
,
0313
0000
0000
0000
0000
0000
0000
0000
0000
0000
0000
0000
0000
0000
0000
0000
0100
0001
0000
0000
0000
0000
0000
0000
0000
0000
0000
0000
0000
0000
0000
0000
0000
0000
0000
0000
0000
0000
0000
0000
0000
0000
0000
0000
0000
0000
0000
0000
0000
0000
0000
0000
0000
0000
0000
0000
0000
0000
0000
0000
0000
0000
0000
0000
,
1000
0100
0000
0000
0000
0000
0000
0000
0000
0000
0000
0000
0000
0000
0000
0000
0010
0000
0000
0000
0001
0000
0000
0000
0010
0000
0000
0000
0000
0000
0000
0000
0200
0000
0000
0000
0000
0000
0000
0000
2000
0000
0000
0000
0000
0000
0000
0000
0002
0000
0000
0000
0000
0000
0000
0000
3303
0000
0000
0000
0000
0000
0000
0000
,
1000
0100
0010
0002
0000
0000
0000
0000
0000
0000
0000
0000
0000
0000
0000
0000
,
0200
0020
2000
0000
0000
3030
1010
0303
,
0101
0000
0000
0000
0000
0000
0000
0000
0000
0000
0000
0000
0000
0000
0000
0000
0001
0100
0000
0000
0000
0000
0000
0000
0000
0000
0000
0000
0000
0000
0000
0000
0000
0000
0000
0000
0000
0000
0000
0000
0000
0000
0000
0000
0000
0000
0000
0000
0000
0000
0000
0000
0000
0000
0000
0000
0000
0000
0000
0000
0000
0000
0000
0000
,
0010
1000
0000
0000
0000
0000
0000
0000
0000
0000
0000
0000
0000
0000
0000
0000
0100
1000
0000
0000
0000
0000
0000
0000
0000
0000
0000
0000
0000
0000
0000
0000
0001
1000
0000
0000
0000
0000
0000
0000
0000
0000
0000
0000
0000
0000
0000
0000
0001
0100
0000
0000
0000
0000
0000
0000
0000
0000
0000
0000
0000
0000
0000
0000
,
0001
0100
0010
1000
0100
0000
1000
0000
0010
0000
0100
0000
0001
0000
0100
0000
,
0010
0100
0010
0100
0010
0000
1000
0000
0001
0000
0100
0000
0110
0000
0000
0000
,
1000
0010
0100
0001
0100
0000
0010
0000
1000
0000
0100
0000
1000
0000
0010
0000
,
0100
0001
0100
0010
1000
0000
0100
0000
0010
0001
0010
0100
1000
0000
0010
0000
,
0100
0010
0100
0010
0100
0000
0001
0000
0100
0000
1000
0000
0100
0000
0001
0000
,
0010
0001
0100
0010
1000
0100
0010
0001
,
0010
1000
0010
0001
0100
0010
0100
0010
,
1000
0000
1000
0000
0001
0000
0001
0000
0100
0010
0100
0000
0010
0000
1000
0000
,
0100
1000
0100
1000
0010
1000
0000
1000
0001
0000
0001
0100
0000
0100
0010
0000
,
1000
0100
1000
0010
0100
0001
0000
0001
0100
0000
0100
0010
0000
0010
1000
0000
,
0010
0100
0001
0100
0010
1000
0000
1000
0010
0000
0010
0100
0000
0100
0001
0000
,
0100
0010
0100
0001
0100
0010
0000
0010
1000
0100
1000
0010
0100
0001
0000
0001
,
0010
0001
0010
0001
0100
0001
0000
0001
1000
0000
1000
0010
0000
0010
0100
0000
,
0001
0010
0001
0100
0010
1000
0000
1000
0010
0000
0010
0100
0000
0100
0001
0000
,
0100
0010
1000
0010
0100
0001
0000
0001
0100
0000
0100
0010
0000
0010
1000
0000
,
0010
0100
0010
1000
0010
0100
0000
0100
0001
0010
0001
0100
0010
1000
0100
0000
,
1000
0010
0100
0100
0001
0010
0001
0001
,
0100
0010
1000
1000
0100
1000
0010
0000
,
0100
0001
0010
0010
0001
0100
0010
1000
,
0100
1000
0010
1000
1100
1100
1010
0000
,
0001
0100
0010
0010
1000
0100
1000
1000
,
0010
0000
0100
0000
0001
0000
0001
0000
0010
0001
0010
0000
0101
0000
0000
0000
,
0001
0100
0010
0010
1000
0100
1000
1000
,
0010
0100
0001
0000
0100
0010
1000
0000
0100
1000
0010
0100
0001
0000
0000
0000
,
1000
0000
0100
1000
0100
0000
1000
0000
0010
0000
0100
0000
0010
0000
0100
0000
,
0001
0000
0010
0001
0010
0000
0001
0000
0100
0000
0010
0000
1000
0000
0100
0000
,
0010
0000
0001
0010
0001
0000
0010
0000
0100
0000
1000
0000
0010
0000
0100
0000
,
0001
0000
1000
0010
0100
0000
0001
0000
0100
0000
0010
0000
1010
0000
0000
0000
,
2200
0000
0001
0010
0000
0010
3301
0000
,
0002
0200
0010
0000
1000
1000
0313
0000
,
0220
0000
1000
0001
0000
0001
1330
0000
,
2002
0000
0100
0010
0100
0010
3113
0000
,
1000
0100
0010
0002
1000
0000
0000
0000
1000
0000
0000
0000
1000
0000
0000
0000
,
1003
0010
0200
0000
0001
0000
0310
0000
,
1010
0000
0000
0000
0101
0000
0000
0000
1000
0001
0000
0001
0100
0000
0010
0000
,
1000
0000
0100
0000
1000
0010
1000
0000
0001
0000
0100
0000
0010
0000
1000
0000
,
0001
0010
0100
2000
0001
0000
0000
0000
0001
0000
0000
0000
0001
0000
0000
0000
,
3001
0100
0020
0000
1000
0000
0130
0000
,
0101
0000
0000
0000
1010
0000
0000
0000
0001
1000
0000
1000
0010
0000
0100
0000
,
0001
0000
0010
0000
0001
0100
0001
0000
1000
0000
0010
0000
0100
0000
0001
0000
,
1000
1000
0001
0001
0100
0100
0010
0010
,
1000
0000
0000
1000
0100
0000
0000
0100
1000
0010
1000
0000
0010
0000
0100
0000
,
0001
0001
0100
0100
0010
0010
1000
1000
,
0100
0000
0000
0100
0010
0000
0000
0010
0001
0010
0001
0000
0100
0000
0010
0000
,
1000
0100
1000
0010
1000
0001
0100
0010
,
0100
0100
0010
0010
2000
0000
0111
0000
,
3100
0000
0100
1000
0000
0010
0000
0100
,
0000
0001
0000
1000
0010
0000
0220
0000
,
1001
0330
0000
0000
0000
0000
0000
0000
;

//---------------dance-single - Renard----------------
#NOTES:
     dance-single:
     Renard:
     Hard:
     8:
     0.609,0.558,0.357,0.068,0.087:
0000
0000
0000
0000
,
0000
0000
0000
0000
,
0000
0000
0000
0000
,
0000
0000
0000
0000
,
1000
0100
1000
0010
1000
1000
0001
0001
,
0010
0001
0100
0001
1000
1000
0010
0010
,
0100
0001
0100
0010
1000
0010
0100
0001
,
0010
0000
0100
0000
1000
0001
1001
0000
,
1000
0002
0200
0000
0000
0000
0000
0003
,
0010
0010
0310
0000
0010
1000
0100
0000
,
1100
0000
0010
1000
0001
0100
0010
0000
,
1010
0101
1001
0110
,
1000
0020
0200
0000
0000
0000
0030
0000
,
0001
0001
0301
0000
0100
0010
0110
0000
,
1010
0101
0011
1100
,
1000
0100
0001
0100
1000
0010
1010
0000
,
0100
0001
0100
0010
0100
0000
0001
0000
,
0100
0100
0110
0000
1010
0000
1001
0000
,
0101
0000
0100
0010
1000
0010
0100
0001
,
0010
0000
0000
0000
0100
1000
0100
0000
1000
0000
0100
0000
0010
0000
0001
0000
,
0010
0100
1000
0000
0010
0100
0001
0000
,
0100
0010
1000
0000
1010
0000
1001
0000
,
0101
0000
0010
0100
0001
0100
0010
1000
,
0100
0000
0010
0000
0001
0010
0001
0000
0010
0000
0100
0000
1000
0000
0000
0000
,
0001
0000
0100
0000
0000
0010
0000
0000
1000
0000
0000
0001
0000
0000
0100
0000
,
0010
0000
1000
0000
0000
0100
0000
0000
0010
0000
0000
0001
0000
0000
0010
0000
,
0100
0000
1000
0000
0000
0100
0000
0000
1000
0000
0000
0001
0000
0000
0010
0000
,
0001
0000
0100
0000
0000
0010
0000
0000
1000
0000
0000
0010
0000
0000
0100
0000
,
0010
0000
1000
0000
0001
0100
0000
0100
0010
0000
1000
0000
0100
0000
0010
0000
,
0001
0000
0010
0000
0100
1000
0000
1000
0001
0000
0100
0000
0010
0000
0000
0000
,
1000
0000
0010
0000
0100
0001
0000
0001
0100
0000
0010
0000
1000
0000
0100
0000
,
1000
0000
0001
0000
0100
0010
0000
0010
1000
0000
0001
0000
1000
0000
0000
0000
,
0010
0100
0001
0001
0100
0010
1000
1000
,
0010
0100
0001
0001
0100
0010
1000
1000
,
0100
0010
0001
0001
0010
0100
1000
1000
,
0010
0100
0001
0001
1000
1000
1001
0000
,
0100
0010
1000
1000
0010
0100
0001
0001
,
0100
0010
1000
1000
0010
0100
0001
0001
,
0010
0100
1000
1000
0100
0010
0001
0001
,
0100
0010
1000
1000
0001
0001
1001
0000
,
1000
0100
1000
0010
1000
0001
1000
0010
,
1000
0100
1000
0010
1000
0001
1000
0010
,
1000
0001
0010
0001
0100
0001
1000
0001
,
0100
0001
0010
0001
1000
0001
0100
0000
,
1010
0000
0101
0000
1000
0010
0100
0001
,
0000
0001
0100
0000
0010
1000
0100
0000
,
1001
0000
1010
0000
0100
0001
0010
0011
,
0000
0001
0010
0100
1000
0000
1001
0000
,
1000
0010
0100
0001
0100
0000
0010
0000
,
2010
0010
3010
0000
1000
0100
0010
0100
,
1000
0000
0010
0100
0001
0000
0100
0010
,
1000
0000
1010
0100
1001
0000
1001
0000
,
0001
0010
0100
0010
0001
0000
0100
0000
,
2001
0001
3001
0000
0100
0010
1000
0000
,
0010
0100
0001
0100
0010
0000
1000
0000
,
1010
0000
0101
0010
1001
0100
1010
0000
,
1000
0100
1000
0010
1000
0001
1000
0010
,
1000
0100
1000
0010
1000
0000
1000
0000
,
0001
0010
0001
0100
0001
1000
0001
0100
,
0001
0010
0001
0100
0001
0000
0001
0000
,
1000
0010
0100
0001
0100
0010
1000
0100
,
0010
0001
0010
0100
1000
0000
1000
0000
,
0001
0100
0010
1000
0100
0010
0100
1000
,
0010
0100
0001
0100
0010
0000
0200
0000
,
0011
0300
0000
0000
;

//---------------dance-single - Renard----------------
#NOTES:
     dance-single:
     Renard:
     Medium:
     5:
     0.398,0.463,0.193,0.000,0.000:
1000
0000
0000
0000
,
0000
0000
0000
0000
,
0000
0000
0000
0000
,
0000
0000
0000
0000
,
1010
0000
1001
0000
0101
0000
0010
0100
,
0000
0100
0010
1000
,
0101
0000
0011
0000
1001
0000
0100
1000
,
0000
0000
0010
0000
0100
0001
0100
0000
,
0001
0100
0001
0000
0100
0000
0100
0000
,
0010
0010
1000
0100
,
1001
1010
0100
0001
,
0010
0000
0001
0010
0001
0010
0001
0000
,
0010
0100
1000
0000
1010
0000
0101
0000
,
1001
1001
0000
1010
,
0101
1000
0000
0100
,
1000
0000
0010
0100
0010
0100
0010
0000
,
1000
0000
0010
0000
0100
0000
0001
1000
,
0001
0000
0100
0000
0010
0000
1000
0001
,
1000
0000
0010
0000
0100
0000
0001
1000
,
0001
0000
1000
0001
1000
0000
0000
0000
,
0001
0000
0010
0000
0100
0000
1000
0001
,
1000
0000
0010
0000
0100
0000
0001
1000
,
0001
0000
0010
0000
0100
0000
1000
0010
,
1000
0000
0010
0100
0010
0000
0000
0000
,
1000
0010
0100
0000
,
0001
0000
0001
0000
0100
0100
0100
0000
,
0010
1000
0100
0000
,
0010
0000
0001
0000
0100
0100
0100
0000
,
0010
1000
0100
0000
,
0010
0000
0001
0000
0010
0010
0010
0000
,
0001
0001
0100
0000
,
0010
0000
1000
0010
1000
0000
0010
0000
,
1000
0000
0010
0010
0000
0000
0100
0100
,
0000
0000
0001
0001
0000
0000
0010
0010
,
0000
0000
0100
0100
0000
0000
1000
1000
,
0000
0000
0010
0010
1000
1000
0001
0000
,
0100
0000
0010
0010
0000
0000
1000
1000
,
0000
0000
0001
0001
0000
0000
0100
0100
,
0000
0000
0001
0001
0000
0000
1000
1000
,
0000
0000
0100
0100
1000
1000
0010
0000
,
0100
0000
0001
0000
0100
0010
0100
0000
,
0010
0000
1000
0000
0100
1000
0100
0000
,
1000
0000
0010
0000
0100
0001
0100
0000
,
0001
0000
0001
0000
0100
0010
0100
0000
,
0010
1000
0100
1000
,
0010
0100
0001
0010
,
0011
0001
0010
0100
,
1000
1010
1001
1100
,
1001
0100
0010
1000
,
0100
1000
0100
0000
1000
0000
0010
0000
,
0100
0100
0001
0001
,
0010
0000
0100
1000
0100
1000
0100
0000
,
1000
1000
0010
0010
,
0100
0001
0100
0000
0001
0000
0100
0000
,
0010
0010
1000
1000
,
0100
0010
0001
0001
,
0010
0001
0010
0100
,
1000
0010
0100
0100
,
0001
0100
0010
1000
,
0100
0000
0010
0000
0001
0000
0010
0001
,
0010
0010
0010
0010
0010
0000
0010
0000
,
0001
0100
0010
1000
,
0100
1000
0100
0000
1000
0000
0100
1000
,
0000
0010
0100
0001
,
1001
0000
0000
0000
;

//---------------dance-single - Renard----------------
#NOTES:
     dance-single:
     Renard:
     Easy:
     3:
     0.291,0.401,0.096,0.039,0.000: // measure 1
0000
0000
0000
0000
,  // measure 2
0000
0000
0000
0000
,  // measure 3
0000
0000
0000
0000
,  // measure 4
0000
0000
0000
0000
,  // measure 5
1000
0001
1000
0001
,  // measure 6
1000
0000
1000
0000
,  // measure 7
0001
1000
0001
1000
,  // measure 8
0001
0000
0001
0000
,  // measure 9
1000
0100
0000
0000
,  // measure 10
0010
0010
0000
0001
,  // measure 11
0011
0000
0000
0000
,  // measure 12
0010
0100
1000
0100
,  // measure 13
1000
1000
0000
0000
,  // measure 14
0010
0101
0000
0101
,  // measure 15
1010
0000
0000
0000
,  // measure 16
1000
0000
0001
1000
0001
0000
0001
0000
,  // measure 17
1000
0010
0100
0000
,  // measure 18
0002
0000
0103
0000
,  // measure 19
0010
1000
0100
0000
,  // measure 20
0020
0000
0031
0000
,  // measure 21
1000
0100
0010
0000
,  // measure 22
0002
0000
0103
0000
,  // measure 23
0010
1000
0020
0000
,  // measure 24
0100
0000
0000
0000
0100
0030
0000
0000
,  // measure 25
0100
0010
1000
0010
,  // measure 26
0100
0000
0100
0000
,  // measure 27
0001
0100
0010
0100
,  // measure 28
0001
0000
0001
0000
,  // measure 29
1000
0100
0010
0001
,  // measure 30
0010
0000
0010
0000
,  // measure 31
0100
1000
0100
0010
,  // measure 32
0100
1000
0100
0000
,  // measure 33
1000
0100
0000
0100
,  // measure 34
0000
0100
0000
0100
,  // measure 35
0010
0001
0000
0001
,  // measure 36
0000
0001
1000
0001
,  // measure 37
1000
0010
0000
0010
,  // measure 38
0100
0001
0000
0001
,  // measure 39
0100
0001
0000
0001
,  // measure 40
0100
0010
0000
0010
,  // measure 41
1000
0000
0001
0000
1000
0001
1000
0000
,  // measure 42
0001
0000
1000
0000
0001
1000
0001
0000
,  // measure 43
1000
0000
0001
0000
1000
0001
1000
0000
,  // measure 44
0001
0000
1000
0000
0001
1000
0001
0000
,  // measure 45
0100
0000
0010
0000
0100
0010
0100
0000
,  // measure 46
0010
0000
0100
0000
0010
0100
0010
0000
,  // measure 47
0100
0000
0010
0000
0100
0010
0100
0000
,  // measure 48
0010
1010
1001
0101
,  // measure 49
0001
0001
0001
0000
,  // measure 50
0100
0010
1000
0100
,  // measure 51
0010
0000
0010
0000
,  // measure 52
0001
0010
0100
1000
,  // measure 53
0100
1000
0000
0000
,  // measure 54
0100
1000
0000
0010
,  // measure 55
0100
0000
0000
0000
,  // measure 56
0101
0000
1010
0000
,  // measure 57
1000
0100
1000
0010
,  // measure 58
0100
0000
0001
0000
0100
0000
0010
0100
,  // measure 59
0010
0100
0001
0100
,  // measure 60
0010
0000
1000
0000
0100
0000
1000
0010
,  // measure 61
1000
0010
0100
0001
,  // measure 62
0100
0000
0010
0000
1000
0000
0100
1000
,  // measure 63
0100
1000
0010
0100
,  // measure 64
0001
0100
0010
1000
,  // measure 65
1001
0000
0000
0000
;
