#TITLE:stealth;
#SUBTITLE:;
#ARTIST:DAISUKE ASAKURA;
#TITLETRANSLIT:;
#SUBTITLETRANSLIT:;
#ARTISTTRANSLIT:;
#GENRE:;
#CREDIT:;
#BANNER:stealth.png;
#BACKGROUND:stealth-bg.png;
#LYRICSPATH:;
#CDTITLE:;
#MUSIC:stealth.ogg;
#OFFSET:0.000000;
#SAMPLESTART:16.510000;
#SAMPLELENGTH:15.000000;
#SELECTABLE:YES;
#DISPLAYBPM:160.000000;
#BPMS:0.000000=160.714005
,4.000000=160.000000
;
#STOPS:
;
#BGCHANGES:;
#KEYSOUNDS:;
#ATTACKS:;

//---------------dance-single - ----------------
#NOTES:
     dance-single:
     :
     Beginner:
     3:
     0.122118,0.185704,0.019651,0.000000,0.000000,87.000000,85.000000,2.000000,0.000000,0.000000,0.000000,0.122118,0.185704,0.019651,0.000000,0.000000,87.000000,85.000000,2.000000,0.000000,0.000000,0.000000:
0000
0000
0000
0000
,
0000
0000
0000
0000
,
0000
0000
0000
0000
,
0010
0000
0100
0000
,
0001
0000
0000
0000
,
0100
0000
0010
0000
,
1000
0000
0000
0000
,
0001
0000
1000
0000
,
0001
0000
1000
0000
,
0010
0000
0000
0000
,
0001
0000
1000
0000
,
0010
0000
0000
0000
,
0100
0000
0000
0000
,
1000
0000
0000
0000
,
0001
0000
0000
0000
,
0010
0000
0000
0000
,
0100
0000
0000
0000
,
0001
0000
0000
0000
,
1001
0000
0000
0000
,
0010
0000
0010
0000
,
0100
0000
0000
0000
,
0001
0000
0001
0000
,
1000
0000
0000
0000
,
0100
0000
0100
0000
,
0001
0000
0000
0000
,
0010
0000
0010
0000
,
1000
0000
0000
0000
,
1000
0000
0010
0000
,
0100
0000
0000
0000
,
0001
0000
0010
0000
,
0100
0000
0000
0000
,
1000
0000
0100
0000
,
0001
0000
0000
0000
,
0001
0000
0100
0000
,
1000
0000
0000
0000
,
0001
0000
0100
0000
,
0010
0000
0000
0000
,
1000
0000
0100
0000
,
0010
0000
0000
0000
,
0001
0000
0010
0000
,
1000
0000
0000
0000
,
1000
0000
0010
0000
,
0001
0000
0000
0000
,
0100
0000
0000
0000
,
0010
0000
0000
0000
,
0001
0000
0000
0000
,
1000
0000
0000
0000
,
0100
0000
0100
0000
,
0010
0000
0010
0000
,
1000
0000
0001
0000
,
1001
0000
0000
0000
,
1000
0000
1000
0000
,
0100
0000
0000
0000
,
0010
0000
0010
0000
,
0001
0000
0000
0000
,
1000
0000
0010
0000
,
0010
0000
0000
0000
,
0100
0000
0001
0000
,
0001
0000
0000
0000
,
0010
0000
0000
0000
,
0001
0000
0000
0000
,
1000
0000
0000
0000
,
0100
0000
0000
0000
,
0010
0000
0000
0000
,
0000
0000
0000
0000
;

//---------------dance-single - ----------------
#NOTES:
     dance-single:
     :
     Easy:
     5:
     0.269502,0.309506,0.088430,0.058954,0.000000,192.000000,183.000000,9.000000,6.000000,0.000000,0.000000,0.269502,0.309506,0.088430,0.058954,0.000000,192.000000,183.000000,9.000000,6.000000,0.000000,0.000000:
0000
0000
0000
0000
,
0000
0000
0000
0000
,
0000
0000
0000
0000
,
0002
0000
1003
0000
,
0020
0000
0130
0001
,
2000
0000
3010
0000
,
0200
0000
0301
1000
,
0020
0000
0230
0000
,
0301
1000
0001
1000
,
0010
0000
0000
0000
,
0100
0001
1000
0001
,
0010
0100
1000
0000
,
0100
1000
0001
0000
,
1000
0100
0010
0000
,
0001
0000
0100
0000
,
0010
0100
0001
0000
,
1000
0000
0010
0000
,
0100
0001
0010
0000
,
0001
1000
0100
0000
,
0010
0001
1001
0000
,
1000
0001
0010
0000
,
0100
1000
1001
0000
,
0001
1000
0100
0000
,
1000
0010
0110
0000
,
0010
0100
0001
0000
,
1000
0001
0010
0100
,
1000
0000
0100
0001
,
1001
0000
0001
0001
,
1000
0010
0100
0000
,
1000
0001
0010
0100
,
1000
0000
0001
0000
,
1000
0001
0100
1000
,
1000
0100
0001
0000
,
1000
0010
0001
0001
,
0010
1000
1000
0000
,
0001
0100
1000
0100
,
0001
1000
1000
0000
,
0010
1000
0100
1000
,
0010
1000
0100
0000
,
1000
0010
0001
0010
,
1000
0001
0001
0000
,
1000
0001
0010
0001
,
0100
0001
0010
0000
,
0100
0010
0001
0000
,
1000
0010
1000
0000
,
0001
0010
0100
0000
,
1000
0000
0010
0000
,
0100
0010
1000
0000
,
0001
0000
0100
0000
,
0010
1000
0100
0000
,
1000
0001
0010
0100
,
0100
1000
1001
0000
,
0001
1000
0100
0000
,
0010
0001
1001
0000
,
1000
0001
0010
0000
,
0010
0001
0110
0000
,
0100
0010
1000
0000
,
0001
1000
0100
0010
,
0001
0100
0010
1000
,
0110
0000
0001
0100
,
1000
0000
0100
0000
,
0001
0010
1000
0000
,
1000
0010
0001
0000
,
1001
0000
0000
0000
,
0000
0000
0000
0000
;

//---------------dance-single - ----------------
#NOTES:
     dance-single:
     :
     Medium:
     8:
     0.353721,0.447065,0.147384,0.117907,0.000000,252.000000,237.000000,15.000000,12.000000,0.000000,0.000000,0.353721,0.447065,0.147384,0.117907,0.000000,252.000000,237.000000,15.000000,12.000000,0.000000,0.000000:
0000
0000
0000
0000
,
0000
0000
0000
0000
,
0000
0000
0000
0000
,
1000
0100
0100
0100
,
1000
0010
0010
0100
,
0001
0010
0010
0010
,
0001
0100
0100
0010
,
0110
0000
1001
0000
,
1100
1010
0101
0011
,
1001
0000
0000
0000
,
0100
0100
0100
0100
,
1000
0000
0001
0000
0100
0000
0001
0010
,
0000
0001
0000
1000
0000
0100
0000
0010
,
0001
0000
1000
0000
0100
0000
1000
0010
,
0000
0100
0000
0001
0000
0010
0001
0000
,
1000
0000
0100
0000
0010
0000
0001
0100
,
0000
0001
0000
0010
0000
0100
0000
1000
,
0010
0000
0100
0000
0001
0000
0100
0010
,
0000
1000
0000
0001
0000
0100
0010
0000
,
1000
0000
1000
0000
1000
0000
1000
0100
,
0000
0010
0000
0001
0000
1000
0000
0001
,
0100
0000
0100
0000
0100
0000
0100
0010
,
0000
1000
0000
0001
0000
1000
0000
0100
,
0010
0000
0010
0000
0010
0000
0010
0001
,
0000
1000
0000
0100
0000
0001
0000
0100
,
1000
0000
1000
0000
1000
0000
1000
0010
,
0000
0100
0000
1000
0000
0100
0001
0000
,
2000
0000
3002
0000
,
1003
1000
0001
0001
,
0100
1000
0100
0001
,
0010
1000
0010
0001
,
0200
0000
0320
0000
,
0130
0100
0010
0010
,
0100
0001
0010
0001
,
0100
1000
0010
1000
,
0100
0001
0000
0001
0000
1000
0000
1000
,
0000
0100
0000
0100
0000
1000
0000
1000
,
0010
0010
0100
0100
,
0001
0001
0010
0010
,
0100
1000
0000
1000
0000
0001
0000
0001
,
0000
0100
0000
0100
0000
0010
0000
0010
,
1000
1000
0001
0001
,
2002
0000
0000
3003
,
1000
0000
0001
0000
0010
0000
0001
0100
,
0000
0001
0000
1000
0000
0010
0000
0100
,
0001
0000
1000
0000
0010
0000
1000
0100
,
0000
0010
0000
0001
0000
0100
0001
0000
,
1000
0000
0010
0000
0100
0000
0001
0010
,
0000
0001
0000
0100
0000
0010
0000
1000
,
0100
0000
0010
0000
0001
0000
0010
0100
,
0000
1000
0000
0001
0000
0010
0100
0000
,
1000
0000
1000
0000
1000
0000
1000
0010
,
0000
0100
0000
0001
0000
1000
0000
0001
,
0010
0000
0010
0000
0010
0000
0010
0100
,
0000
1000
0000
0001
0000
1000
0000
0010
,
0100
0000
0100
0000
0100
0000
0100
0001
,
0000
1000
0000
0010
0000
0001
0000
0010
,
1000
0000
1000
0000
1000
0000
1000
0100
,
0000
0010
0000
1000
0000
0010
0001
0000
,
0202
0000
0000
0000
,
0000
0303
1010
1100
,
0022
0000
0000
0000
,
0000
0033
0101
1010
,
2002
0000
0000
0000
,
0000
0000
0000
0000
,
3003
0000
0000
0000
,
0000
0000
0000
0000
;

//---------------dance-single - ----------------
#NOTES:
     dance-single:
     :
     Hard:
     10:
     0.487069,0.606731,0.353721,0.304593,0.034390,347.000000,311.000000,36.000000,31.000000,0.000000,0.000000,0.487069,0.606731,0.353721,0.304593,0.034390,347.000000,311.000000,36.000000,31.000000,0.000000,0.000000:
// measure 0
0000
0000
0000
0000
,  // measure 1
0000
0000
0000
0000
,  // measure 2
0000
0000
0000
0000
,  // measure 3
1000
0010
1000
0010
,  // measure 4
1000
0000
0000
0000
0010
0000
0000
0000
1000
0000
0000
0001
0100
0000
0001
0000
,  // measure 5
0010
0001
0010
0001
,  // measure 6
0010
0000
0000
0000
0001
0000
0000
0000
0010
0000
0000
0001
1000
0000
0100
0000
,  // measure 7
0010
0000
0000
0001
1000
0000
0100
0000
0010
0000
0000
0001
1000
0000
0100
0000
,  // measure 8
0010
0000
0100
0000
0010
0000
0100
0000
0110
0000
0000
0001
1000
0000
0100
0000
,  // measure 9
0220
0000
0000
0030
,  // measure 10
0001
1000
0001
1300
,  // measure 11
0001
0010
0100
0000
1000
0000
0010
1000
,  // measure 12
0000
0100
0000
0010
0000
0100
1000
0001
,  // measure 13
0010
0100
1000
0000
0010
0000
0100
0001
,  // measure 14
0000
0010
0000
0001
0000
0100
0010
0000
,  // measure 15
1000
0100
0010
0000
0001
0000
0100
0010
,  // measure 16
0000
1000
0000
0100
0000
1000
0010
1000
,  // measure 17
0001
0100
0010
0000
1000
0000
0001
0010
,  // measure 18
0000
0100
0000
0010
0000
0001
1000
0100
,  // measure 19
1100
0000
0101
0000
0011
0000
0001
0100
,  // measure 20
0000
0010
0000
1000
0000
0010
0100
0001
,  // measure 21
0101
0000
1100
0000
1010
0000
1000
0100
,  // measure 22
0000
0010
0000
0001
0000
0010
0100
1000
,  // measure 23
1010
0000
0011
0000
0101
0000
0001
0010
,  // measure 24
0000
0100
0000
1000
0000
0100
0010
0001
,  // measure 25
0101
0000
0011
0000
1010
0000
1000
0100
,  // measure 26
0000
0010
0000
0001
0000
1000
0100
0010
,  // measure 27
0002
0000
0000
0000
0100
0000
0000
0000
0203
0000
0000
0000
0001
0000
0000
0300
,  // measure 28
0002
0010
0023
0001
,  // measure 29
0031
0000
1000
0001
0000
0100
0000
0010
,  // measure 30
1000
0010
0100
0001
1000
0001
0100
0010
,  // measure 31
2000
0100
3200
1000
,  // measure 32
2300
0010
3020
1000
,  // measure 33
1030
0000
0001
0010
0000
0100
1000
0001
,  // measure 34
1000
0100
0010
0001
0100
0001
1000
0100
,  // measure 35
1000
0102
1003
2100
,  // measure 36
3010
0000
0210
0000
0301
1000
0100
1000
,  // measure 37
0010
0210
0301
0102
,  // measure 38
1003
0000
1200
0000
0310
0001
0100
0001
,  // measure 39
1000
1200
0310
0012
,  // measure 40
1003
1020
0130
0001
,  // measure 41
1000
0001
0100
0010
1000
0001
0100
0010
,  // measure 42
2000
0000
0000
0000
0000
0000
0000
0000
0000
0000
0000
0000
0000
0000
0000
0000
3002
0000
0000
0000
0000
0000
0000
0000
0000
0000
0000
0000
0000
0000
0000
0000
2003
0000
0000
0000
0000
0000
0000
0000
0000
0000
0000
0000
0000
0000
0000
0000
3002
0000
0000
0000
0000
0000
0000
0000
0000
0000
0000
0000
0000
0000
0000
0003
,  // measure 43
1000
0010
0100
0000
0001
0000
0010
0001
,  // measure 44
0000
0100
0000
1000
0000
0100
0001
1000
,  // measure 45
0010
0100
0001
0000
0010
0000
0100
1000
,  // measure 46
0000
0001
0000
1000
0000
0100
0010
0000
,  // measure 47
0001
0100
0010
0000
1000
0000
0100
0010
,  // measure 48
0000
1000
0000
0010
0000
0001
0100
0001
,  // measure 49
1000
0100
0010
0000
0001
0000
1000
0010
,  // measure 50
0000
0001
0000
0010
0000
1000
0001
0100
,  // measure 51
0101
0000
1100
0000
1010
0000
1000
0200
,  // measure 52
0000
0010
0000
0001
0000
0310
0100
1000
,  // measure 53
1100
0000
0101
0000
0011
0000
0001
0200
,  // measure 54
0000
0010
0000
1000
0000
0310
0100
0001
,  // measure 55
0011
0000
1010
0000
1100
0000
1000
0020
,  // measure 56
0000
0100
0000
0001
0000
0130
0010
1000
,  // measure 57
1100
0000
1010
0000
0011
0000
0002
0100
,  // measure 58
0000
1000
0000
0100
0003
0001
1000
0010
,  // measure 59
0200
0010
1000
0010
,  // measure 60
1000
0000
0000
0000
0010
0000
0000
0000
1300
0000
0000
0010
0100
0000
0001
0000
,  // measure 61
0020
0001
0100
0001
,  // measure 62
0100
0000
0000
0000
0001
0000
0000
0000
0130
0000
0000
0010
0001
0000
1000
0000
,  // measure 63
2002
0000
0000
0000
,  // measure 64
0000
0000
0000
0000
,  // measure 65
3003
0000
0000
0000
;

//---------------dance-double - ----------------
#NOTES:
     dance-double:
     :
     Easy:
     5:
     0.263887,0.278556,0.088430,0.098256,0.000000,188.000000,179.000000,9.000000,10.000000,0.000000,0.000000,0.263887,0.278556,0.088430,0.098256,0.000000,188.000000,179.000000,9.000000,10.000000,0.000000,0.000000:
00000000
00000000
00000000
00000000
,
00000000
00000000
00000000
00000000
,
00000000
00000000
00000000
00000000
,
00000002
00000000
00000013
00000000
,
00000200
00000000
00001300
00000010
,
00020000
00000000
00031000
00000000
,
02000000
00000000
03010000
10000000
,
00200000
00000000
02300000
00000000
,
03010000
00100000
00001000
00010000
,
00011000
00000000
00000000
00000000
,
00001000
00001000
00010000
00010000
,
00000100
00001000
00000010
00000000
,
00000010
00001000
00000100
00000000
,
00010000
00001000
01000000
00000000
,
00010000
00000000
10000000
00000000
,
00100000
01000000
00010000
00000000
,
00100000
00000000
00001000
00000000
,
00010000
00000100
00001000
00000000
,
00000001
00000100
00000010
00000000
,
00001000
00000100
00000110
00000000
,
00001000
00010000
00100000
00000000
,
00010000
01000000
01100000
00000000
,
10000000
00010000
00100000
00000000
,
00001000
00010000
00011000
00000000
,
00000100
00001000
00000010
00000000
,
00000100
00000001
00000100
00000010
,
00001000
00000000
00000100
00010000
,
00011000
00000000
00001000
00001000
,
00010000
01000000
10000000
00000000
,
00100000
01000000
00100000
10000000
,
00010000
00000000
01000000
00000000
,
00001000
00010000
00001000
00000100
,
00000100
00000001
00000100
00000000
,
00000010
00001000
00000100
00000100
,
00010000
00001000
00001000
00000000
,
00010000
01000000
00100000
00010000
,
00100000
01000000
01000000
00000000
,
10000000
00100000
01000000
00010000
,
00100000
00001000
00010000
00000000
,
00000100
00001000
00000010
00000100
,
00000001
00000100
00001000
00000000
,
00010000
01000000
10000000
00100000
,
00010000
00010000
00001000
00001000
,
00000010
00001000
00000100
00000000
,
00000100
00001000
00000010
00000000
,
00010000
00001000
00100000
00000000
,
00010000
00000000
10000000
00000000
,
01000000
00100000
00010000
00000000
,
01000000
00000000
00001000
00000000
,
00010000
00000010
00001000
00000000
,
00000001
00000010
00000100
00000000
,
00001000
00000010
00000110
00000000
,
00001000
00010000
01000000
00000000
,
00010000
00100000
01100000
00000000
,
10000000
00010000
01000000
00000000
,
00001000
00010000
00011000
00000000
,
00000010
00001000
00000100
00000000
,
00000010
00000001
00000010
00000100
,
00001000
00000000
00000100
00000000
,
00020000
00000000
00031000
00000000
,
02000000
00000000
03010000
10000000
,
02000000
00000000
03100000
00000000
,
00002000
00000000
00013000
00000000
,
00011000
00000000
00000000
00000000
,
00000000
00000000
00000000
00000000
;

//---------------dance-double - ----------------
#NOTES:
     dance-double:
     :
     Medium:
     8:
     0.370565,0.415131,0.265291,0.147384,0.000000,264.000000,237.000000,27.000000,15.000000,0.000000,0.000000,0.370565,0.415131,0.265291,0.147384,0.000000,264.000000,237.000000,27.000000,15.000000,0.000000,0.000000:
00000000
00000000
00000000
00000000
,
00000000
00000000
00000000
00000000
,
00000000
00000000
00000000
00000000
,
00010000
01000000
01000000
01000000
,
00010000
00100000
00100000
00001000
,
00010000
00000100
00000100
00000100
,
00010000
00001000
00001000
00010000
,
00011000
00000000
00010100
00000000
,
00002000
00003002
00000203
00000310
,
00000110
00000000
00000000
00000000
,
00001000
00010000
00001000
00010000
,
01000000
00000000
00100000
00000000
01000000
00000000
10000000
00100000
,
00000000
01000000
00000000
00100000
00000000
00010000
00000000
00001000
,
00000100
00000000
00000010
00000000
00000100
00000000
00000001
00000010
,
00000000
00000100
00000000
00001000
00000000
00000010
00000100
00000000
,
00001000
00000000
00010000
00000000
00001000
00000000
00010000
01000000
,
00000000
00100000
00000000
00010000
00000000
10000000
00000000
00100000
,
01000000
00000000
00100000
00000000
00010000
00000000
00001000
00010000
,
00000000
00000100
00000000
00001000
00000000
00000010
00000100
00000000
,
00000001
00000011
00001000
00001100
,
00010000
00000000
00000100
00010000
00000000
00001000
00100000
00000000
,
00010000
01010000
10000000
10100000
,
00010000
00000000
01000000
00001000
00000000
00010000
00000010
00000000
,
00001000
00001001
00000100
00000101
,
00000001
00000000
00000100
00001000
00000000
00001000
00010000
00000000
,
01000000
11000000
00010000
10010000
,
10000000
00000000
01000000
00010000
00000000
00010000
00001000
00000000
,
00020000
00000000
00032000
00000000
,
00013000
00010000
00001000
00001000
,
00000100
00000010
00000100
00000001
,
00000100
00000010
00000100
00001000
,
00020000
00000000
00032000
00000000
,
00013000
00010000
00001000
00001000
,
00100000
00010000
00100000
01000000
,
00100000
10000000
00100000
01000000
,
00100000
00001000
00000000
00001000
00000000
00010000
00000000
00010000
,
00000000
00000100
00000000
00000100
00000000
00001000
00000000
00001000
,
00000010
00000010
00010000
00010000
,
00001000
00001000
00100000
00100000
,
00010000
01000000
00000000
01000000
00000000
00001000
00000000
00001000
,
00000000
00010000
00000000
00010000
00000000
00000100
00000000
00000100
,
00001000
00000100
00010000
00001000
,
00022000
00000000
00000000
00033000
,
00010000
00000000
00100000
00000000
01000000
00000000
10000000
01000000
,
00000000
00100000
00000000
01000000
00000000
00010000
00000000
00001000
,
00000010
00000000
00000100
00000000
00000010
00000000
00000001
00000100
,
00000000
00000010
00000000
00001000
00000000
00000100
00000010
00000000
,
00001000
00000000
00010000
00000000
00001000
00000000
00010000
00100000
,
00000000
01000000
00000000
00010000
00000000
10000000
00000000
01000000
,
00100000
00000000
01000000
00000000
00010000
00000000
00001000
00010000
,
00000000
00000010
00000000
00001000
00000000
00000100
00000010
00000000
,
00000001
00000101
00001000
00001010
,
00010000
00000000
00000010
00010000
00000000
00001000
01000000
00000000
,
00010000
00110000
10000000
11000000
,
00010000
00000000
00100000
00001000
00000000
00010000
00000100
00000000
,
00001000
00001001
00000010
00000011
,
00000001
00000000
00000010
00001000
00000000
00001000
00010000
00000000
,
00100000
10100000
00010000
10010000
,
10000000
00000000
00100000
00010000
00000000
00010000
00001000
00000000
,
00022000
00000000
00000000
00000000
,
00000000
00033000
00010100
00001100
,
00002002
00000000
00000000
00000000
,
00000000
00003003
00001010
00010010
,
00022000
00000000
00000000
00000000
,
00000000
00000000
00000000
00000000
,
00033000
00000000
00000000
00000000
,
00000000
00000000
00000000
00000000
;

//---------------dance-double - ----------------
#NOTES:
     dance-double:
     :
     Hard:
     11:
     0.474436,0.574797,0.058954,0.108082,0.019651,338.000000,332.000000,6.000000,11.000000,0.000000,0.000000,0.474436,0.574797,0.058954,0.108082,0.019651,338.000000,332.000000,6.000000,11.000000,0.000000,0.000000:
00000000
00000000
00000000
00000000
,
00000000
00000000
00000000
00000000
,
00000000
00000000
00000000
00000000
,
10000000
00100000
01000000
00100000
,
01000000
00000000
00000000
00000000
00100000
00000000
00000000
00000000
01000000
00000000
00000000
00001000
00010000
00000000
00000100
00000000
,
00000010
00000100
00000010
00000100
,
00000010
00000000
00000000
00000000
00000100
00000000
00000000
00000000
00000010
00000000
00000000
00001000
00010000
00000000
00001000
00000000
,
00100000
00000000
00000000
00001000
00010000
00000000
00001000
00000000
01000000
00000000
00000000
00001000
00010000
00000000
00001000
00000000
,
00100000
00001000
00010000
00000010
00010000
00001000
01000000
00100000
,
02100000
00000000
00000000
00000000
,
00010000
10000000
00010000
13000000
,
00010000
00100000
01000000
00000000
10000000
00000000
00100000
10000000
,
00000000
01000000
00000000
10000000
00000000
00100000
01000000
00001000
,
00010000
00000100
00000010
00000000
00000001
00000000
00000100
00000001
,
00000000
00000010
00000000
00000001
00000000
00000100
00000010
00010000
,
00001000
00100000
01000000
00000000
00100000
00000000
00010000
10000000
,
00000000
00100000
00000000
01000000
00000000
00001000
00010000
00000100
,
00001000
00000001
00000010
00000000
00000100
00000000
00000010
00000001
,
00000000
00000100
00000000
00000010
00000000
00010000
00001000
00100000
,
00010000
01000000
10000000
01000000
00010000
00000000
10000000
00100000
,
01000000
00100000
10000000
01000000
00000000
00100000
00001000
00010000
,
00000100
00001000
00000010
00000001
00000010
00000000
00001000
00000100
,
00000010
00000001
00000010
00000100
00000000
00010000
00001000
00100000
,
01000000
10000000
00100000
00010000
00100000
00000000
10000000
00010000
,
01000000
00100000
01000000
00010000
00000000
00100000
00001000
00010000
,
00000100
00001000
00000010
00000001
00000010
00001000
00000100
00010000
,
00001000
01000000
00100000
00010000
00100000
01000000
10000000
01000000
,
00010000
00100000
00010000
01000000
,
00001000
00010000
00000100
00000010
,
00000002
00000100
00001000
00000013
,
00000100
00000000
00010000
00000000
00001000
00000000
01000000
01000000
,
01000000
00100000
10000000
01000000
,
00100000
00001000
00010000
00000010
,
00000200
00000001
00000010
00001300
,
00000010
00000000
00010000
00000000
00001000
00000000
00100000
00100000
,
00200000
00010000
01000000
10300000
,
00010000
01000000
00001000
00010000
,
00000200
00001000
00000010
00000301
,
00001000
00000100
00010000
00001000
,
02000000
00010000
00100000
13000000
,
00200000
00010000
01000000
10300000
,
00010000
00100000
00001000
00010000
00000010
00001000
00000100
00010000
,
00010100
00011000
01001000
00011000
,
00001000
01000000
00010000
00000000
00100000
00000000
01000000
10000000
,
00000000
00100000
00000000
10000000
00000000
01000000
00100000
00001000
,
00010000
00000010
00000100
00000000
00000001
00000000
00000010
00000001
,
00000000
00000100
00000000
00000001
00000000
00000010
00000100
00010000
,
00001000
01000000
00100000
00000000
01000000
00000000
00010000
10000000
,
00000000
01000000
00000000
00100000
00000000
00001000
00010000
00000010
,
00001000
00000001
00000100
00000000
00000010
00000000
00000100
00000001
,
00000000
00000010
00000000
00000100
00000000
00010000
00001000
01000000
,
00010000
00100000
10000000
00100000
00010000
00000000
10000000
01000000
,
00100000
01000000
10000000
00100000
00000000
01000000
00001000
00010000
,
00000010
00001000
00000100
00000001
00000100
00000000
00001000
00000010
,
00000100
00000001
00000100
00000010
00000000
00010000
00001000
01000000
,
00100000
10000000
01000000
00010000
01000000
00000000
10000000
00010000
,
00100000
01000000
00100000
00010000
00000000
01000000
00001000
00010000
,
00000010
00001000
00000100
00000001
00000100
00001000
00000010
00010000
,
00001000
00100000
01000000
00010000
01000000
00100000
10000000
00100000
,
00020000
01000000
10000000
00100000
,
10000000
01000000
10000000
00130000
,
00002000
00000100
00000001
00000010
,
00000001
00000100
00000001
00003010
,
00022000
00000000
00000000
00000000
,
00000000
00000000
00000000
00000000
,
00033000
00000000
00000000
00000000
,
00000000
00000000
00000000
00000000
;

//---------------dance-single - ----------------
#NOTES:
     dance-single:
     :
     Challenge:
     12:
     0.616205,0.670597,0.619013,0.127733,0.122820,439.000000,376.000000,63.000000,13.000000,0.000000,0.000000,0.616205,0.670597,0.619013,0.127733,0.122820,439.000000,376.000000,63.000000,13.000000,0.000000,0.000000:
// measure 0
0000
0000
0000
0000
,  // measure 1
0000
0000
0000
0000
,  // measure 2
0000
0000
0000
0000
,  // measure 3
1001
0101
0110
1010
,  // measure 4
1001
0000
0000
0000
0011
0000
0000
0000
0110
0000
0000
0100
1000
0000
0001
0000
,  // measure 5
1000
1010
0110
0101
,  // measure 6
0011
0000
0000
0000
0110
0000
0000
0000
1100
0000
0000
1000
0010
0000
0100
0000
,  // measure 7
0010
0000
0000
0100
0001
0000
1000
0000
0001
0000
0000
1000
0010
0000
0100
0000
,  // measure 8
0010
0000
1000
0000
0100
0000
0010
0000
0001
1000
0001
0000
1000
0001
1000
0000
,  // measure 9
2002
0000
0000
0000
0000
0000
0000
3003
,  // measure 10
1010
0110
0101
1001
,  // measure 11
1000
0100
0001
0000
0101
0000
0100
1000
,  // measure 12
0001
0100
0001
1000
0000
0010
0100
0001
,  // measure 13
0100
0010
1000
0010
0100
0000
0001
0100
,  // measure 14
0000
0101
0000
1001
0000
1000
0010
0000
,  // measure 15
0100
0010
1000
0010
0100
0000
0001
0100
,  // measure 16
0000
0110
0000
1010
0000
1000
0100
0010
,  // measure 17
1000
0010
0001
0000
0101
0000
0100
0010
,  // measure 18
0000
0110
0000
1001
0000
0001
1000
0000
,  // measure 19
0100
0000
0001
0000
0100
0000
1000
0001
0000
0000
0000
0000
0100
0000
0010
0000
,  // measure 20
1000
0000
0010
0000
0100
0001
0000
0001
1000
0000
0010
0000
0100
0000
0010
0000
,  // measure 21
1000
0000
0100
0000
0010
0001
0000
0001
0100
0000
0000
0000
0010
0000
1000
0000
,  // measure 22
0001
1000
0010
0100
0000
0100
0010
0000
,  // measure 23
1010
1000
1001
0000
0101
0000
0100
0010
,  // measure 24
0001
0010
0100
0001
0000
1000
0010
0100
,  // measure 25
0010
1000
0001
0100
0010
0100
0001
0010
,  // measure 26
0100
1000
0100
0000
0010
0001
0010
0000
0001
0100
0001
0000
1000
0010
1000
0000
,  // measure 27
0001
0000
0000
0000
0100
0000
0000
0000
0110
0000
0000
1000
0010
0000
0100
0000
,  // measure 28
0000
0110
0000
1010
0000
1001
0001
0100
,  // measure 29
0010
0100
0001
0100
0000
1001
0000
0010
,  // measure 30
1000
0000
0010
0000
0100
0000
0010
0000
1000
0100
1000
0000
0100
0000
0010
0000
,  // measure 31
0001
0100
0000
0101
0000
0110
0000
2010
,  // measure 32
0000
0000
0000
0000
3001
0100
0001
0000
,  // measure 33
1000
0010
0100
0010
1000
0001
0100
0001
,  // measure 34
0010
0100
0010
0000
0001
0010
0001
0000
1000
0010
0000
0010
0100
0000
0001
0000
,  // measure 35
1000
0000
1002
0000
0103
0010
2000
0000
,  // measure 36
3001
0000
0210
0000
0302
0000
1003
0100
,  // measure 37
0010
0100
2000
0000
3001
0000
0210
0000
,  // measure 38
0310
0000
1000
0100
0001
0100
1000
0001
,  // measure 39
1000
0201
0310
2001
,  // measure 40
3010
0000
2100
0000
3001
0000
0100
0010
,  // measure 41
1000
0010
0100
0001
0010
0100
1000
0010
,  // measure 42
0110
0101
1001
0110
,  // measure 43
1000
0010
0100
0000
0101
0000
0001
0010
,  // measure 44
0100
0010
0001
1000
0001
0000
1000
0010
,  // measure 45
0100
0010
1000
0001
1000
0000
0010
0100
,  // measure 46
0010
0000
0100
0000
0001
0000
0000
1000
0001
0000
0100
0000
0010
0000
0000
0000
,  // measure 47
1000
0010
1000
0001
0100
0000
0001
0010
,  // measure 48
0100
0000
0010
0000
0001
1000
0000
1000
0010
0000
0100
0000
0010
0000
0000
0000
,  // measure 49
1000
0000
0100
0000
0010
0000
0100
1000
0000
0000
0000
0000
0001
0000
0100
0000
,  // measure 50
0010
0100
0001
1000
0010
1000
0001
0100
,  // measure 51
0010
0000
0110
0000
0101
0000
1000
0001
,  // measure 52
0000
1001
0000
1010
0000
0100
0010
1000
,  // measure 53
0010
0100
0001
0100
0010
0000
0100
0001
,  // measure 54
0000
1001
0000
1010
0000
0010
0100
0000
,  // measure 55
0100
0001
1001
0000
1010
0000
0010
0100
,  // measure 56
1000
0100
0000
0110
0000
0010
1000
0100
,  // measure 57
0001
1000
0010
0001
1000
0100
0001
0100
,  // measure 58
1000
1010
0110
0101
,  // measure 59
0010
0100
0010
0000
0110
0000
0100
0001
,  // measure 60
0100
0001
0100
0000
1001
0000
1000
0010
,  // measure 61
0100
0010
1000
0000
1001
0000
0001
0100
,  // measure 62
0010
0100
0001
1000
0001
0000
1000
0010
,  // measure 63
2000
0000
0000
0000
,  // measure 64
0000
0000
0000
0000
,  // measure 65
3000
0000
0000
0000
;
